osu file format v14

[General]
AudioFilename: audio.mp3
AudioLeadIn: 0
PreviewTime: 20062
Countdown: 0
SampleSet: Normal
StackLeniency: 0.2
Mode: 1
LetterboxInBreaks: 0
WidescreenStoryboard: 0

[Editor]
DistanceSpacing: 1.4
BeatDivisor: 1
GridSize: 4
TimelineZoom: 3.5

[Metadata]
Title:MOONLiGHT
TitleUnicode:MOONLiGHT
Artist:Getsuryu
ArtistUnicode:月龍
Creator:Jaye
Version:FUTSUU
Source:REFLEC BEAT VOLZZA 2
Tags:Grimbow Ryu
BeatmapID:973357
BeatmapSetID:453560

[Difficulty]
HPDrainRate:7
CircleSize:2
OverallDifficulty:4
ApproachRate:10
SliderMultiplier:1.4
SliderTickRate:1

[Events]
//Background and Video events
0,0,"amazing-moonlight-wallpaper-1.jpg",0,50
//Break Periods
//Storyboard Layer 0 (Background)
//Storyboard Layer 1 (Fail)
//Storyboard Layer 2 (Pass)
//Storyboard Layer 3 (Foreground)
//Storyboard Sound Samples

[TimingPoints]
766,301.507537688442,4,1,0,100,1,0
39358,-100,4,1,0,100,0,1
58655,-100,4,1,0,100,0,0
97248,-100,4,1,0,100,0,1
116243,-100,4,1,0,100,0,0

[HitObjects]
256,188,766,5,8,0:0:0:0:
256,188,1218,1,0,0:0:0:0:
256,188,1972,1,8,0:0:0:0:
256,188,2424,1,0,0:0:0:0:
256,188,3178,1,0,0:0:0:0:
256,188,3630,1,8,0:0:0:0:
256,188,4384,1,8,0:0:0:0:
256,188,4987,1,0,0:0:0:0:
256,188,5590,1,8,0:0:0:0:
256,188,6042,1,8,0:0:0:0:
256,188,6494,1,0,0:0:0:0:
256,188,6796,1,8,0:0:0:0:
256,188,7248,1,0,0:0:0:0:
256,188,8002,1,8,0:0:0:0:
256,188,8455,1,8,0:0:0:0:
256,188,8906,1,8,0:0:0:0:
256,188,9208,1,0,0:0:0:0:
256,188,9811,1,8,0:0:0:0:
256,188,10414,1,8,0:0:0:0:
256,188,10867,1,8,0:0:0:0:
256,188,11318,1,0,0:0:0:0:
256,188,11621,1,8,0:0:0:0:
256,188,12073,1,0,0:0:0:0:
256,188,12827,1,8,0:0:0:0:
256,188,13279,1,8,0:0:0:0:
256,188,13730,1,0,0:0:0:0:
256,188,14033,1,8,0:0:0:0:
256,188,14635,1,0,0:0:0:0:
256,188,15238,1,8,0:0:0:0:
256,188,15841,1,8,0:0:0:0:
256,188,16142,1,0,0:0:0:0:
256,188,16445,1,8,0:0:0:0:
256,188,17047,1,8,0:0:0:0:
256,188,17651,1,8,0:0:0:0:
256,188,18253,1,8,0:0:0:0:
256,188,18555,1,8,0:0:0:0:
256,188,18856,1,0,0:0:0:0:
256,188,19158,1,0,0:0:0:0:
256,188,19459,1,8,0:0:0:0:
256,188,20062,1,12,0:0:0:0:
256,188,20665,1,8,0:0:0:0:
256,188,20967,1,0,0:0:0:0:
256,188,21268,1,0,0:0:0:0:
256,188,21871,1,0,0:0:0:0:
256,188,22474,1,8,0:0:0:0:
256,188,23077,1,0,0:0:0:0:
256,188,23379,1,8,0:0:0:0:
256,188,23680,1,0,0:0:0:0:
256,188,24283,1,0,0:0:0:0:
256,188,24886,1,8,0:0:0:0:
256,188,25188,1,8,0:0:0:0:
256,188,25489,1,8,0:0:0:0:
256,188,26092,1,0,0:0:0:0:
256,188,26695,1,0,0:0:0:0:
256,188,27298,1,8,0:0:0:0:
256,188,27902,1,8,0:0:0:0:
256,188,28203,1,8,0:0:0:0:
256,188,28505,1,0,0:0:0:0:
256,188,29258,1,0,0:0:0:0:
256,188,29711,1,8,0:0:0:0:
256,188,30313,1,8,0:0:0:0:
256,188,30615,1,8,0:0:0:0:
256,188,30916,1,0,0:0:0:0:
256,188,31519,1,0,0:0:0:0:
256,188,32122,1,8,0:0:0:0:
256,188,32725,1,8,0:0:0:0:
256,188,33027,1,8,0:0:0:0:
256,188,33328,1,0,0:0:0:0:
256,188,33932,1,0,0:0:0:0:
256,188,34535,1,8,0:0:0:0:
256,188,34836,1,0,0:0:0:0:
256,188,35138,1,0,0:0:0:0:
256,188,35439,1,8,0:0:0:0:
256,188,35741,1,8,0:0:0:0:
256,188,36042,1,8,0:0:0:0:
256,188,36344,1,0,0:0:0:0:
256,188,36947,1,8,0:0:0:0:
256,188,37248,1,8,0:0:0:0:
256,188,37550,1,0,0:0:0:0:
256,188,37851,1,0,0:0:0:0:
256,188,38153,1,8,0:0:0:0:
256,188,38454,1,0,0:0:0:0:
256,188,38756,1,0,0:0:0:0:
256,188,39359,1,12,0:0:0:0:
256,188,39811,1,0,0:0:0:0:
256,188,40263,1,0,0:0:0:0:
256,188,40565,1,8,0:0:0:0:
256,188,41017,1,0,0:0:0:0:
256,188,41469,1,8,0:0:0:0:
256,188,41771,1,8,0:0:0:0:
256,188,42223,1,0,0:0:0:0:
256,188,42675,1,8,0:0:0:0:
256,188,42977,1,8,0:0:0:0:
256,188,43278,1,0,0:0:0:0:
256,188,43580,1,8,0:0:0:0:
256,188,43730,1,8,0:0:0:0:
256,188,43881,1,0,0:0:0:0:
256,188,44183,1,8,0:0:0:0:
256,188,44635,1,0,0:0:0:0:
256,188,45087,1,0,0:0:0:0:
256,188,45389,1,8,0:0:0:0:
256,188,45841,1,0,0:0:0:0:
256,188,46293,1,8,0:0:0:0:
256,188,46595,1,8,0:0:0:0:
256,188,47047,1,0,0:0:0:0:
256,188,47499,1,0,0:0:0:0:
256,188,47801,1,0,0:0:0:0:
256,188,48102,1,8,0:0:0:0:
256,188,48404,1,0,0:0:0:0:
256,188,48554,1,8,0:0:0:0:
256,188,48705,1,0,0:0:0:0:
256,188,49007,1,8,0:0:0:0:
256,188,49459,1,8,0:0:0:0:
256,188,49912,1,0,0:0:0:0:
256,188,50213,1,8,0:0:0:0:
256,188,50665,1,8,0:0:0:0:
256,188,51118,1,0,0:0:0:0:
256,188,51419,1,8,0:0:0:0:
256,188,51871,1,0,0:0:0:0:
256,188,52324,1,0,0:0:0:0:
256,188,52625,1,8,0:0:0:0:
256,188,52926,1,0,0:0:0:0:
256,188,53228,1,8,0:0:0:0:
256,188,53379,1,0,0:0:0:0:
256,188,53529,1,8,0:0:0:0:
256,188,53831,1,12,0:0:0:0:
256,188,54132,1,0,0:0:0:0:
256,188,54283,1,8,0:0:0:0:
256,188,54585,1,0,0:0:0:0:
256,188,55037,1,8,0:0:0:0:
256,188,55338,1,0,0:0:0:0:
256,188,55489,1,0,0:0:0:0:
256,188,55791,1,0,0:0:0:0:
256,188,56243,1,8,0:0:0:0:
256,188,56544,1,0,0:0:0:0:
256,188,56695,1,8,0:0:0:0:
256,188,56997,1,0,0:0:0:0:
256,188,57449,1,0,0:0:0:0:
256,188,57751,1,0,0:0:0:0:
256,188,58052,1,8,0:0:0:0:
256,188,58203,1,0,0:0:0:0:
256,188,58354,1,8,0:0:0:0:
256,188,58504,1,0,0:0:0:0:
256,188,58655,1,8,0:0:0:0:
256,188,59258,1,0,0:0:0:0:
256,188,59560,1,0,0:0:0:0:
256,188,60163,1,8,0:0:0:0:
256,188,60464,1,0,0:0:0:0:
256,188,61067,1,8,0:0:0:0:
256,188,61670,1,0,0:0:0:0:
256,188,61972,1,0,0:0:0:0:
256,188,62575,1,8,0:0:0:0:
256,188,62876,1,0,0:0:0:0:
256,188,63479,1,8,0:0:0:0:
256,188,64082,1,0,0:0:0:0:
256,188,64685,1,0,0:0:0:0:
256,188,65288,1,0,0:0:0:0:
256,188,65891,1,8,0:0:0:0:
256,188,66494,1,8,0:0:0:0:
256,188,67097,1,0,0:0:0:0:
256,188,68304,1,8,0:0:0:0:
256,188,68907,1,0,0:0:0:0:
256,188,69209,1,0,0:0:0:0:
256,188,69811,1,8,0:0:0:0:
256,188,70113,1,0,0:0:0:0:
256,188,70716,1,8,0:0:0:0:
256,188,71319,1,0,0:0:0:0:
256,188,71621,1,0,0:0:0:0:
256,188,72224,1,8,0:0:0:0:
256,188,72525,1,0,0:0:0:0:
256,188,73128,1,8,0:0:0:0:
256,188,73731,1,0,0:0:0:0:
256,188,74334,1,8,0:0:0:0:
256,188,74937,1,8,0:0:0:0:
256,188,75540,1,0,0:0:0:0:
256,188,77349,1,0,0:0:0:0:
256,188,77650,1,8,0:0:0:0:
256,188,77951,1,12,0:0:0:0:
256,188,78555,1,8,0:0:0:0:
256,188,78856,1,8,0:0:0:0:
256,188,79158,1,0,0:0:0:0:
256,188,79761,1,0,0:0:0:0:
256,188,80062,1,8,0:0:0:0:
256,188,80364,1,8,0:0:0:0:
256,188,80967,1,8,0:0:0:0:
256,188,81268,1,0,0:0:0:0:
256,188,81570,1,0,0:0:0:0:
256,188,82173,1,0,0:0:0:0:
256,188,82776,1,8,0:0:0:0:
256,188,83379,1,8,0:0:0:0:
256,188,83681,1,0,0:0:0:0:
256,188,83982,1,0,0:0:0:0:
256,188,84585,1,0,0:0:0:0:
256,188,84887,1,8,0:0:0:0:
256,188,85188,1,8,0:0:0:0:
256,188,86394,1,0,0:0:0:0:
256,188,86997,1,0,0:0:0:0:
256,188,87298,1,8,0:0:0:0:
256,188,87600,1,8,0:0:0:0:
256,188,88203,1,8,0:0:0:0:
256,188,88505,1,8,0:0:0:0:
256,188,88806,1,8,0:0:0:0:
256,188,89409,1,0,0:0:0:0:
256,188,89711,1,0,0:0:0:0:
256,188,90012,1,8,0:0:0:0:
256,188,90615,1,0,0:0:0:0:
256,188,90917,1,8,0:0:0:0:
256,188,91218,1,0,0:0:0:0:
256,188,91821,1,0,0:0:0:0:
256,188,92123,1,0,0:0:0:0:
256,188,92424,1,8,0:0:0:0:
256,188,93027,1,0,0:0:0:0:
256,188,93329,1,0,0:0:0:0:
256,188,93630,1,8,0:0:0:0:
256,188,93932,1,8,0:0:0:0:
256,188,94233,1,8,0:0:0:0:
256,188,94535,1,0,0:0:0:0:
256,188,94836,1,8,0:0:0:0:
256,188,95439,1,8,0:0:0:0:
256,188,95590,1,0,0:0:0:0:
256,188,95741,1,8,0:0:0:0:
256,188,96042,1,0,0:0:0:0:
256,188,96344,1,8,0:0:0:0:
256,188,96494,1,8,0:0:0:0:
256,188,96645,1,0,0:0:0:0:
256,188,97248,1,12,0:0:0:0:
256,188,97549,1,0,0:0:0:0:
256,188,97851,1,8,0:0:0:0:
256,188,98002,1,0,0:0:0:0:
256,188,98153,1,8,0:0:0:0:
256,188,98454,1,8,0:0:0:0:
256,188,99057,1,0,0:0:0:0:
256,188,99359,1,8,0:0:0:0:
256,188,99660,1,8,0:0:0:0:
256,188,100263,1,8,0:0:0:0:
256,188,100565,1,8,0:0:0:0:
256,188,100715,1,8,0:0:0:0:
256,188,100866,1,0,0:0:0:0:
256,188,101469,1,0,0:0:0:0:
256,188,102072,1,8,0:0:0:0:
256,188,102675,1,8,0:0:0:0:
256,188,102977,1,0,0:0:0:0:
256,188,103127,1,0,0:0:0:0:
256,188,103278,1,0,0:0:0:0:
256,188,103881,1,0,0:0:0:0:
256,188,104183,1,8,0:0:0:0:
256,188,104484,1,8,0:0:0:0:
256,188,105087,1,8,0:0:0:0:
256,188,105690,1,0,0:0:0:0:
256,188,106293,1,0,0:0:0:0:
256,188,106595,1,8,0:0:0:0:
256,188,106896,1,12,0:0:0:0:
256,188,107198,1,0,0:0:0:0:
256,188,107499,1,8,0:0:0:0:
256,188,107801,1,8,0:0:0:0:
256,188,107951,1,8,0:0:0:0:
256,188,108103,1,0,0:0:0:0:
256,188,108706,1,0,0:0:0:0:
256,188,109007,1,8,0:0:0:0:
256,188,109157,1,0,0:0:0:0:
256,188,109309,1,8,0:0:0:0:
256,188,109912,1,8,0:0:0:0:
256,188,110213,1,8,0:0:0:0:
256,188,110363,1,8,0:0:0:0:
256,188,110515,1,0,0:0:0:0:
256,188,111118,1,0,0:0:0:0:
256,188,111419,1,8,0:0:0:0:
256,188,111570,1,0,0:0:0:0:
256,188,111721,1,8,0:0:0:0:
256,188,112324,1,0,0:0:0:0:
256,188,112625,1,0,0:0:0:0:
256,188,112927,1,8,0:0:0:0:
256,188,113228,1,8,0:0:0:0:
256,188,113530,1,8,0:0:0:0:
256,188,113680,1,0,0:0:0:0:
256,188,113831,1,0,0:0:0:0:
256,188,114133,1,8,0:0:0:0:
256,188,114736,1,8,0:0:0:0:
256,188,114886,1,8,0:0:0:0:
256,188,115037,1,8,0:0:0:0:
256,188,115339,1,0,0:0:0:0:
256,188,115640,1,8,0:0:0:0:
256,188,115942,1,0,0:0:0:0:
256,188,116243,1,12,0:0:0:0:
