osu file format v14

[General]
AudioFilename: audio.mp3
AudioLeadIn: 0
PreviewTime: -1
Countdown: 0
SampleSet: None
StackLeniency: 0.7
Mode: 0
LetterboxInBreaks: 0
WidescreenStoryboard: 1

[Editor]
Bookmarks: 37856,167086
DistanceSpacing: 0.8
BeatDivisor: 4
GridSize: 16
TimelineZoom: 1.5

[Metadata]
Title:Nyan Nyan Drive (D:)
TitleUnicode:にゃんにゃんドライブ(D:)
Artist:Getsumen Chakuriku Phage
ArtistUnicode:月面着陸ファージ
Creator:Miu Matsuoka
Version:Doubletap??
Source:mocchie
Tags:208bpm touhou K47 doubletap
BeatmapID:1156442
BeatmapSetID:545539

[Difficulty]
HPDrainRate:9.5
CircleSize:4
OverallDifficulty:9
ApproachRate:9.8
SliderMultiplier:1.4
SliderTickRate:1

[Events]
//Background and Video events
0,0,"nyan.jpg",0,0
//Break Periods
//Storyboard Layer 0 (Background)
//Storyboard Layer 1 (Fail)
//Storyboard Layer 2 (Pass)
//Storyboard Layer 3 (Foreground)
//Storyboard Sound Samples

[TimingPoints]
933,288.461538461538,4,2,0,100,1,0
18240,-100,4,1,0,5,0,0
19394,-100,4,2,0,100,0,0
37856,-66.6666666666667,4,2,0,100,0,0
167086,-66.6666666666667,4,2,0,60,0,1

[Colours]
Combo1 : 244,51,151
Combo2 : 184,32,240
Combo3 : 57,202,255
Combo4 : 0,64,128

[HitObjects]
146,81,167086,5,0,0:0:0:0:
146,81,167086,1,0,0:0:0:0:
112,170,167231,1,0,0:0:0:0:
112,170,167231,1,0,0:0:0:0:
230,122,167375,5,0,0:0:0:0:
230,122,167375,1,0,0:0:0:0:
242,262,167519,1,0,0:0:0:0:
242,262,167519,1,0,0:0:0:0:
337,59,167663,5,0,0:0:0:0:
337,59,167663,1,0,0:0:0:0:
324,141,167807,1,0,0:0:0:0:
324,141,167807,1,0,0:0:0:0:
423,105,167952,5,0,0:0:0:0:
423,105,167952,1,0,0:0:0:0:
425,238,168096,1,0,0:0:0:0:
425,238,168096,1,0,0:0:0:0:
498,48,168240,6,0,P|456:14|403:13,1,105.000004005432
498,48,168240,5,0,0:0:0:0:
250,192,168529,1,0,0:0:0:0:
250,192,168529,2,0,P|292:226|344:226,1,105.000004005432
260,58,168817,5,0,0:0:0:0:
260,58,168817,1,0,0:0:0:0:
181,315,168961,1,0,0:0:0:0:
181,315,168961,1,0,0:0:0:0:
92,85,169106,1,0,0:0:0:0:
92,85,169106,1,0,0:0:0:0:
40,248,169250,1,0,0:0:0:0:
40,248,169250,1,0,0:0:0:0:
188,140,169394,5,0,0:0:0:0:
188,140,169394,1,0,0:0:0:0:
301,223,169538,1,0,0:0:0:0:
301,223,169538,1,0,0:0:0:0:
376,104,169682,1,0,0:0:0:0:
376,104,169682,2,0,P|433:86|472:127,1,105.000004005432
500,345,169971,1,0,0:0:0:0:
500,345,169971,1,0,0:0:0:0:
500,345,170115,1,0,0:0:0:0:
500,345,170115,2,0,L|399:313,1,105.000004005432
137,228,170404,1,0,0:0:0:0:
137,228,170404,1,0,0:0:0:0:
137,228,170548,6,0,L|243:266,1,105.000004005432
137,228,170548,1,0,0:0:0:0:
116,78,170836,2,0,L|10:40,1,105.000004005432
116,78,170836,1,0,0:0:0:0:
252,29,171125,5,0,0:0:0:0:
252,29,171125,1,0,0:0:0:0:
350,117,171269,1,0,0:0:0:0:
350,117,171269,1,0,0:0:0:0:
473,58,171413,1,0,0:0:0:0:
473,58,171413,1,0,0:0:0:0:
350,117,171557,1,0,0:0:0:0:
350,117,171557,1,0,0:0:0:0:
