osu file format v14

[General]
AudioFilename: audio.mp3
AudioLeadIn: 0
PreviewTime: 97599
Countdown: 0
SampleSet: None
StackLeniency: 0.4
Mode: 0
LetterboxInBreaks: 0
WidescreenStoryboard: 1

[Editor]
Bookmarks: 185,22003,32912,43821,48253,54730,65639,87457,98366,120185,142003,163821,174730,185639,196548,218366,240185,262003,283821,294730,305639,308366
DistanceSpacing: 1.1
BeatDivisor: 4
GridSize: 8
TimelineZoom: 1.8

[Metadata]
Title:Sky Fracture
TitleUnicode:Sky Fracture
Artist:Getsix
ArtistUnicode:Getsix
Creator:thiev
Version:Overdone
Source:
Tags:dubstep drumstep edm electronic drum n bass dnb female vocal samples
BeatmapID:1857572
BeatmapSetID:888704

[Difficulty]
HPDrainRate:5
CircleSize:4
OverallDifficulty:9
ApproachRate:9.6
SliderMultiplier:1.7
SliderTickRate:1

[Events]
//Background and Video events
0,0,"main-qimg-2d575da5f58dfefe36bed51c64787e3a.png",0,0
//Break Periods
//Storyboard Layer 0 (Background)
//Storyboard Layer 1 (Fail)
//Storyboard Layer 2 (Pass)
//Storyboard Layer 3 (Foreground)
//Storyboard Sound Samples

[TimingPoints]
185,340.909090909091,4,2,2,40,1,0
185,-142.857142857143,4,2,2,40,0,0
22003,-142.857142857143,4,2,2,50,0,0
32912,-111.111111111111,4,2,2,55,0,0
43821,-50,4,2,2,60,0,0
76548,-45.4545454545455,4,2,2,60,0,0
87457,-100,4,2,2,50,0,0
92912,-66.6666666666667,4,2,2,65,0,0
97003,-57.1428571428571,4,2,2,65,0,0
98366,-50,4,2,2,80,0,1
98707,-44.4444444444445,4,2,2,80,0,1
102457,-66.6666666666667,4,2,2,80,0,1
103821,-50,4,2,2,80,0,1
104162,-44.4444444444445,4,2,2,80,0,1
107912,-66.6666666666667,4,2,2,80,0,1
109275,-50,4,2,2,80,0,1
109616,-44.4444444444445,4,2,2,80,0,1
112003,-50,4,2,2,80,0,1
112344,-44.4444444444445,4,2,2,80,0,1
113366,-50,4,2,2,80,0,1
113707,-44.4444444444445,4,2,2,80,0,1
114048,-66.6666666666667,4,2,2,80,0,1
114730,-50,4,2,2,80,0,1
115071,-44.4444444444445,4,2,2,80,0,1
117457,-50,4,2,2,80,0,1
117798,-44.4444444444445,4,2,2,80,0,1
118821,-50,4,2,2,80,0,1
119162,-44.4444444444445,4,2,2,80,0,1
142003,-57.1428571428571,4,2,2,80,0,1
152912,-50,4,2,2,80,0,1
163821,-133.333333333333,4,2,2,45,0,0
174730,-100,4,2,2,50,0,0
175412,-133.333333333333,4,2,2,50,0,0
177457,-100,4,2,2,50,0,0
178139,-133.333333333333,4,2,2,50,0,0
180185,-100,4,2,2,50,0,0
185639,-117.647058823529,4,2,2,60,0,0
191094,-79.9999999999998,4,2,2,70,0,0
192798,-66.6666666666667,4,2,2,70,0,0
194162,-57.1428571428571,4,2,2,70,0,0
196548,-50,4,2,2,80,0,1
196719,-90.9090909090909,4,2,2,80,0,1
202003,-45.4545454545455,4,2,2,80,0,1
202344,-44.4444444444445,4,2,2,80,0,1
206094,-66.6666666666667,4,2,2,80,0,1
207457,-50,4,2,2,80,0,1
207798,-90.9090909090909,4,2,2,80,0,1
210185,-50,4,2,2,80,0,1
210525,-90.9090909090909,4,2,2,80,0,1
211548,-50,4,2,2,80,0,1
211889,-90.9090909090909,4,2,2,80,0,1
212230,-66.6666666666667,4,2,2,80,0,1
212912,-50,4,2,2,80,0,1
213253,-44.4444444444445,4,2,2,80,0,1
215639,-50,4,2,2,80,0,1
215980,-44.4444444444445,4,2,2,80,0,0
218025,-166.666666666667,4,2,2,50,0,0
218366,-43.4782608695652,4,2,2,80,0,1
229275,-40,4,2,2,80,0,1
240185,-200,4,2,2,80,0,1
240525,-40,4,2,2,80,0,1
241207,-200,4,2,2,80,0,1
241889,-40,4,2,2,80,0,1
242571,-200,4,2,2,80,0,1
243253,-40,4,2,2,80,0,1
243935,-200,4,2,2,80,0,1
244275,-40,4,2,2,80,0,1
245639,-200,4,2,2,80,0,1
245980,-40,4,2,2,80,0,1
246662,-200,4,2,2,80,0,1
247344,-40,4,2,2,80,0,1
248025,-200,4,2,2,80,0,1
248707,-40,4,2,2,80,0,1
249900,-66.6666666666667,4,2,2,80,0,1
251094,-36.3636363636364,4,2,2,80,0,1
262003,-142.857142857143,4,2,2,40,0,0
262088,-142.857142857143,4,2,2,40,0,0
283821,-142.857142857143,4,2,2,40,0,0
294730,-142.857142857143,4,2,2,55,0,0
305639,-333.333333333333,4,2,2,60,0,0
307855,-100,4,2,2,60,0,0
308707,-125,4,2,2,60,0,0

[Colours]
Combo1 : 177,100,255
Combo2 : 119,119,255
Combo3 : 0,210,210
Combo4 : 173,173,173

[HitObjects]
163,310,185,6,0,L|235:297,3,59.4999981842042
284,239,866,1,0,0:0:0:0:
409,271,1037,1,0,0:0:0:0:
493,181,1207,2,0,L|434:191,1,59.4999981842042
336,309,1548,6,0,L|346:367,3,59.4999981842042
382,175,2230,1,0,0:0:0:0:
409,271,2400,1,0,0:0:0:0:
284,239,2571,1,0,0:0:0:0:
311,143,2741,1,0,0:0:0:0:
472,116,2912,6,0,P|487:156|486:184,3,59.4999981842042
409,271,3594,2,0,P|406:241|413:212,1,59.4999981842042
315,84,3935,2,0,P|317:113|310:142,1,59.4999981842042
226,219,4275,6,0,P|178:210|145:217,3,59.4999981842042
91,306,4957,1,0,0:0:0:0:
186,288,5128,1,0,0:0:0:0:
29,191,5298,1,0,0:0:0:0:
124,209,5469,1,0,0:0:0:0:
227,137,5639,6,0,L|216:50,3,59.4999981842042
283,20,6321,1,0,0:0:0:0:
174,212,6491,1,0,0:0:0:0:
316,254,6662,2,0,L|305:167,1,59.4999981842042
375,96,7003,6,0,L|459:108,3,59.4999981842042
480,186,7685,1,0,0:0:0:0:
494,282,7855,1,0,0:0:0:0:
377,355,8025,1,0,0:0:0:0:
391,259,8195,1,0,0:0:0:0:
306,180,8366,6,0,P|271:175|236:192,3,59.4999981842042
190,257,9048,2,0,P|221:277|260:276,1,59.4999981842042
181,112,9389,2,0,P|144:110|110:130,1,59.4999981842042
75,219,9730,6,0,P|80:253|59:288,3,59.4999981842042
24,353,10412,1,0,0:0:0:0:
105,304,10582,1,0,0:0:0:0:
198,285,10753,1,0,0:0:0:0:
289,309,10923,1,0,0:0:0:0:
384,311,11094,6,0,L|455:298,3,59.4999981842042
490,217,11775,1,0,0:0:0:0:
334,135,11946,1,0,0:0:0:0:
272,230,12116,2,0,L|343:217,1,59.4999981842042
413,141,12457,6,0,L|421:59,3,59.4999981842042
250,43,13139,1,0,0:0:0:0:
345,29,13310,1,0,0:0:0:0:
277,144,13480,1,0,0:0:0:0:
182,130,13651,1,0,0:0:0:0:
79,35,13821,6,0,P|93:68|88:99,3,59.4999981842042
52,172,14503,2,0,P|56:213|74:238,1,59.4999981842042
140,339,14844,2,0,P|157:301|153:270,1,59.4999981842042
209,159,15185,6,0,P|253:138|286:145,3,59.4999981842042
336,203,15866,1,0,0:0:0:0:
358,107,16037,1,0,0:0:0:0:
452,268,16207,1,0,0:0:0:0:
430,172,16378,1,0,0:0:0:0:
326,349,16548,6,0,L|402:333,3,59.4999981842042
452,268,17230,1,0,0:0:0:0:
264,202,17400,1,0,0:0:0:0:
203,303,17571,2,0,L|279:287,1,59.4999981842042
352,212,17912,6,0,L|428:228,3,59.4999981842042
475,155,18594,1,0,0:0:0:0:
454,60,18764,1,0,0:0:0:0:
362,13,18935,1,0,0:0:0:0:
341,108,19105,1,0,0:0:0:0:
242,147,19275,6,0,P|232:118|240:74,3,59.4999981842042
228,232,19957,2,0,P|196:230|161:201,1,59.4999981842042
80,326,20298,2,0,P|108:312|153:319,1,59.4999981842042
246,351,20639,6,0,P|281:335|293:304,3,59.4999981842042
289,295,21236,1,0,0:0:0:0:
289,295,21321,1,0,0:0:0:0:
289,295,21662,2,0,L|285:373,2,39.6666654561361
378,181,22003,5,0,0:0:0:0:
109,116,22344,1,0,0:0:0:0:
378,181,22855,5,0,0:0:0:0:
109,116,23025,1,0,0:0:0:0:
290,333,23366,5,0,0:0:0:0:
217,75,23707,1,0,0:0:0:0:
290,333,24219,1,0,0:0:0:0:
217,75,24389,1,0,0:0:0:0:
86,283,24730,6,0,L|157:293,1,59.4999981842042
392,252,25071,2,0,L|309:262,2,59.4999981842042
144,291,25582,1,0,0:0:0:0:
392,252,25753,1,0,0:0:0:0:
191,95,26094,6,0,L|197:12,1,59.4999981842042
179,284,26435,2,0,L|174:343,2,59.4999981842042
191,95,26946,1,0,0:0:0:0:
174,343,27116,1,0,0:0:0:0:
400,154,27457,5,0,0:0:0:0:
111,188,27798,1,0,0:0:0:0:
400,154,28310,1,0,0:0:0:0:
111,188,28480,1,0,0:0:0:0:
322,342,28821,6,0,L|310:264,1,59.4999981842042
349,49,29162,2,0,L|340:107,2,59.4999981842042
322,342,29673,1,0,0:0:0:0:
349,49,29844,1,0,0:0:0:0:
143,188,30185,6,0,L|73:193,1,59.4999981842042
344,177,30525,2,0,L|403:172,2,59.4999981842042
83,192,31037,1,0,0:0:0:0:
403,172,31207,1,0,0:0:0:0:
241,248,31378,1,0,0:0:0:0:
358,333,31548,6,0,P|363:282|351:252,1,59.4999981842042
159,84,31889,2,0,P|154:135|166:165,1,59.4999981842042
241,248,32230,1,0,0:0:0:0:
403,172,32400,1,0,0:0:0:0:
46,93,32571,1,0,0:0:0:0:
46,93,32912,6,0,P|92:127|179:98,1,152.999995330811
389,171,33423,2,0,P|343:137|256:166,1,152.999995330811
200,237,33935,1,0,0:0:0:0:
200,237,34105,1,0,0:0:0:0:
360,343,34275,5,0,0:0:0:0:
416,270,34446,1,0,0:0:0:0:
324,260,34616,1,0,0:0:0:0:
171,343,34787,5,0,0:0:0:0:
296,170,34957,1,0,0:0:0:0:
360,343,35128,1,0,0:0:0:0:
477,202,35298,1,0,0:0:0:0:
242,25,35639,6,0,P|215:81|268:160,1,152.999995330811
369,297,36150,2,0,P|334:245|239:252,1,152.999995330811
160,335,36662,1,0,0:0:0:0:
160,335,36832,1,0,0:0:0:0:
54,205,37003,5,0,0:0:0:0:
95,122,37174,1,0,0:0:0:0:
149,195,37344,1,0,0:0:0:0:
1,122,37514,1,0,0:0:0:0:
197,112,37685,5,0,0:0:0:0:
106,292,37855,1,0,0:0:0:0:
40,37,38025,1,0,0:0:0:0:
290,285,38366,6,0,B|360:257|360:257|453:277,1,152.999995330811
222,99,39048,2,0,B|152:127|152:127|59:107,1,152.999995330811
376,32,39730,2,0,B|404:102|404:102|384:195,1,152.999995330811
136,352,40412,2,0,B|108:282|108:282|128:189,1,152.999995330811
376,32,41094,5,0,0:0:0:0:
435,273,41435,1,0,0:0:0:0:
136,352,41775,1,0,0:0:0:0:
76,110,42116,1,0,0:0:0:0:
376,32,42457,5,0,0:0:0:0:
310,291,42628,1,0,0:0:0:0:
293,57,42798,5,0,0:0:0:0:
388,324,42969,1,0,0:0:0:0:
457,15,43139,5,0,0:0:0:0:
462,75,43224,1,0,0:0:0:0:
467,136,43310,1,0,0:0:0:0:
472,196,43395,1,0,0:0:0:0:
479,256,43480,1,0,0:0:0:0:
481,271,43565,1,0,0:0:0:0:
482,286,43650,1,0,0:0:0:0:
484,301,43736,1,0,0:0:0:0:
468,346,43821,6,0,P|373:360|309:274,1,170
244,24,44162,2,0,B|259:135|259:135|229:237|229:237|244:376,1,340
383,287,44673,1,0,0:0:0:0:
110,127,44844,2,0,L|138:309,1,170
343,357,45185,6,0,P|379:255|292:184,1,170
66,68,45525,2,0,B|128:144|223:85|223:85|321:32|430:113,1,340
274,284,46037,1,0,0:0:0:0:
70,349,46207,1,0,0:0:0:0:
286,153,46378,1,0,0:0:0:0:
429,356,46548,6,0,B|467:276|467:276|444:177,1,170
249,7,46889,2,0,B|155:-22|155:-22|214:136|214:136|343:165,1,340
456,85,47400,1,0,0:0:0:0:
53,199,47571,2,0,L|228:239,1,170
498,283,47912,6,0,B|412:259|412:259|319:299,1,170
160,338,48253,2,0,B|122:216|122:216|170:102|170:102|206:193,1,340
265,367,48764,1,0,0:0:0:0:
455,205,48935,1,0,0:0:0:0:
169,104,49105,1,0,0:0:0:0:
447,31,49275,6,0,P|501:110|441:202,1,170,0|0,2:0|2:0,2:0:0:0:
265,367,49616,2,0,B|235:218|235:218|247:171|247:171|221:29,1,340
133,302,50128,1,0,0:0:0:0:
320,75,50298,2,0,L|355:264,1,170
50,43,50639,6,0,P|129:-12|221:48,1,170,0|0,2:0|2:0,2:0:0:0:
465,186,50980,2,0,B|395:210|317:163|317:163|223:106|116:155,1,340
412,63,51491,1,0,0:0:0:0:
112,268,51662,2,0,P|200:223|308:276,1,170
475,343,52003,6,0,B|384:355|384:355|268:322,1,170
100,140,52344,2,0,B|289:169|289:169|232:88|232:88|134:73,1,340
210,330,52855,1,0,0:0:0:0:
419,216,53025,2,0,L|301:42,1,170
76,135,53366,6,0,B|61:219|61:219|97:342,1,170
334,136,53707,2,0,P|263:89|217:268,1,340
297,346,54219,1,0,0:0:0:0:
455,58,54389,1,0,0:0:0:0:
418,268,54560,1,0,0:0:0:0:
466,44,54730,6,0,B|360:23|360:23|282:43,1,170
141,172,55071,1,0,0:0:0:0:
322,235,55241,1,0,0:0:0:0:
126,75,55412,1,0,0:0:0:0:
241,263,55582,1,0,0:0:0:0:
195,15,55753,1,0,0:0:0:0:
164,296,55923,1,0,0:0:0:0:
287,64,56094,5,0,0:0:0:0:
8,10,56264,1,0,0:0:0:0:
322,138,56435,1,0,0:0:0:0:
36,89,56605,1,0,0:0:0:0:
309,219,56775,1,0,0:0:0:0:
64,168,56946,1,0,0:0:0:0:
256,283,57116,1,0,0:0:0:0:
92,247,57287,1,0,0:0:0:0:
466,226,57457,6,0,P|371:215|360:85,1,170
486,23,57798,2,0,B|413:86|322:37|322:37|244:-2|151:60,1,340
92,247,58310,1,0,0:0:0:0:
371,282,58480,2,0,P|403:192|358:77,1,170
166,50,58821,5,0,0:0:0:0:
92,247,58991,1,0,0:0:0:0:
77,14,59162,5,0,0:0:0:0:
182,297,59332,1,0,0:0:0:0:
258,81,59503,1,0,0:0:0:0:
4,199,59673,1,0,0:0:0:0:
278,342,59844,2,0,L|494:301,1,170
383,25,60185,6,0,P|309:53|336:168,1,170
442,308,60525,1,0,0:0:0:0:
335,119,60696,1,0,0:0:0:0:
348,316,60866,1,0,0:0:0:0:
429,99,61037,1,0,0:0:0:0:
254,324,61207,1,0,0:0:0:0:
509,161,61378,1,0,0:0:0:0:
92,247,61548,5,0,0:0:0:0:
348,316,61719,1,0,0:0:0:0:
64,168,61889,1,0,0:0:0:0:
388,219,62060,1,0,0:0:0:0:
36,89,62230,1,0,0:0:0:0:
406,119,62400,1,0,0:0:0:0:
8,10,62571,1,0,0:0:0:0:
392,21,62741,1,0,0:0:0:0:
145,346,62912,6,0,P|119:253|195:176,1,170
504,0,63253,2,0,P|479:106|283:61,1,340
103,21,63764,1,0,0:0:0:0:
315,156,63935,2,0,P|331:271|283:334,1,170
81,299,64275,5,0,0:0:0:0:
54,35,64446,1,0,0:0:0:0:
169,372,64616,5,0,0:0:0:0:
196,108,64787,1,0,0:0:0:0:
325,316,64957,5,0,0:0:0:0:
298,52,65128,1,0,0:0:0:0:
468,301,65298,1,0,0:0:0:0:
131,191,65469,1,0,0:0:0:0:
413,88,65639,5,0,0:0:0:0:
325,316,65810,1,0,0:0:0:0:
423,62,65980,2,0,B|412:8|331:-15|286:49|316:106|316:106|354:177|269:253,1,340
184,343,66491,1,0,0:0:0:0:
145,90,66662,2,0,P|215:47|292:76,1,170
325,316,67003,6,0,L|91:289,1,170
0,83,67344,2,0,B|81:163|160:98|160:98|233:38|302:111,1,340
436,295,67855,1,0,0:0:0:0:
139,235,68025,2,0,P|146:152|269:101,1,170
458,40,68366,6,0,B|476:113|476:113|466:142|466:142|486:233|486:233|436:296|436:296|420:226,1,340
364,69,68878,1,0,0:0:0:0:
206,208,69048,1,0,0:0:0:0:
467,146,69219,1,0,0:0:0:0:
203,31,69389,2,0,P|137:32|54:102,1,170
225,294,69730,6,0,P|293:204|120:186,1,340
132,340,70241,1,0,0:0:0:0:
206,208,70412,1,0,0:0:0:0:
363,341,70582,1,0,0:0:0:0:
58,228,70753,2,0,P|55:151|144:87,1,170
367,161,71094,6,0,B|359:246|359:246|369:267|369:267|363:342|363:342|280:284|280:284|288:204,1,340
263,104,71605,1,0,0:0:0:0:
415,43,71775,1,0,0:0:0:0:
213,13,71946,1,0,0:0:0:0:
459,171,72116,2,0,L|443:352,1,170
239,351,72457,6,0,L|212:4,1,340
111,104,72969,1,0,0:0:0:0:
324,203,73139,1,0,0:0:0:0:
212,12,73310,1,0,0:0:0:0:
28,272,73480,2,0,L|217:232,1,170
473,122,73821,6,0,B|481:74|481:74|416:23|416:23|403:133|403:133|418:176|418:176|408:233,1,340
270,343,74332,1,0,0:0:0:0:
120,100,74503,1,0,0:0:0:0:
392,308,74673,1,0,0:0:0:0:
56,351,74844,2,0,L|103:164,1,170
353,18,75185,6,0,B|389:82|354:128|354:128|371:159|371:159|306:254|368:340,1,340
507,256,75696,1,0,0:0:0:0:
209,116,75866,1,0,0:0:0:0:
353,360,76037,1,0,0:0:0:0:
398,23,76207,1,0,0:0:0:0:
383,21,76292,1,0,0:0:0:0:
368,20,76377,1,0,0:0:0:0:
353,18,76463,1,0,0:0:0:0:
308,34,76548,6,0,B|239:102|283:187|283:187|348:281|234:378|152:270,1,374.000011413575
126,103,77060,1,0,0:0:0:0:
117,328,77230,1,0,0:0:0:0:
237,102,77400,1,0,0:0:0:0:
33,346,77571,1,0,0:0:0:0:
334,168,77741,1,0,0:0:0:0:
28,18,77912,5,0,0:0:0:0:
117,328,78082,1,0,0:0:0:0:
170,0,78253,1,0,0:0:0:0:
207,316,78423,1,0,0:0:0:0:
307,32,78594,1,0,0:0:0:0:
297,304,78764,1,0,0:0:0:0:
441,125,78935,1,0,0:0:0:0:
387,292,79105,1,0,0:0:0:0:
169,140,79275,6,0,P|192:54|305:32,1,187.000005706787
383,298,79616,2,0,B|292:341|225:277|225:277|137:195|14:267,1,374.000011413575
119,378,80128,1,0,0:0:0:0:
313,188,80298,2,0,L|288:-17,1,187.000005706787
113,149,80639,5,0,0:0:0:0:
424,92,80810,1,0,0:0:0:0:
75,73,80980,5,0,0:0:0:0:
463,171,81151,1,0,0:0:0:0:
193,284,81321,1,0,0:0:0:0:
255,39,81491,1,0,0:0:0:0:
461,265,81662,2,0,L|244:230,1,187.000005706787
75,73,82003,6,0,B|170:22|248:103|248:103|331:190|455:130,1,374.000011413575
471,34,82514,1,0,0:0:0:0:
348,205,82685,1,0,0:0:0:0:
366,6,82855,1,0,0:0:0:0:
394,280,83025,1,0,0:0:0:0:
266,34,83196,1,0,0:0:0:0:
77,241,83366,5,0,0:0:0:0:
331,355,83537,1,0,0:0:0:0:
60,161,83707,1,0,0:0:0:0:
404,278,83878,1,0,0:0:0:0:
44,81,84048,1,0,0:0:0:0:
443,180,84219,1,0,0:0:0:0:
28,1,84389,1,0,0:0:0:0:
441,79,84560,1,0,0:0:0:0:
186,305,84730,6,0,P|151:242|241:119,1,187.000005706787
417,333,85071,2,0,B|269:319|269:319|209:340|209:340|35:323,1,374.000011413575
280,226,85582,1,0,0:0:0:0:
36,141,85753,1,0,0:0:0:0:
158,34,85923,1,0,0:0:0:0:
57,319,86094,5,0,0:0:0:0:
252,68,86264,1,0,0:0:0:0:
252,68,86435,1,0,0:0:0:0:
134,328,86605,1,0,0:0:0:0:
321,118,86775,1,0,0:0:0:0:
19,213,86946,1,0,0:0:0:0:
444,289,87116,1,0,0:0:0:0:
444,289,87457,6,0,L|453:385,2,85
349,150,87969,1,0,0:0:0:0:
349,150,88054,1,0,0:0:0:0:
349,150,88139,2,0,P|316:146|288:152,1,42.5
270,230,88310,2,0,P|303:234|331:228,1,42.5
266,79,88480,1,0,0:0:0:0:
138,318,88821,5,0,0:0:0:0:
138,318,89162,1,0,0:0:0:0:
75,224,89332,1,0,0:0:0:0:
75,224,89417,1,0,0:0:0:0:
75,224,89503,2,0,L|81:159,1,42.5
160,126,89673,2,0,L|166:191,1,42.5
12,104,89844,1,0,0:0:0:0:
368,44,90099,5,0,0:0:0:0:
368,44,90185,1,0,0:0:0:0:
368,44,90525,1,0,0:0:0:0:
313,139,90696,1,0,0:0:0:0:
313,139,90781,1,0,0:0:0:0:
313,139,90866,2,0,P|307:171|318:196,1,42.5
387,208,91037,2,0,P|393:176|382:151,1,42.5
236,242,91207,1,0,0:0:0:0:
457,333,91548,6,0,L|357:322,1,85
351,309,91889,6,0,L|435:318,1,85
238,353,92230,2,0,L|138:342,1,85
73,185,92571,1,0,0:0:0:0:
261,338,92741,1,0,0:0:0:0:
16,279,92912,5,0,0:0:0:0:
16,279,93253,2,0,L|121:268,1,63.7500024318696
161,233,93423,2,0,L|266:244,1,63.7500024318696
318,321,93594,2,0,P|271:247|388:122,1,255.000009727478
356,124,94275,5,0,0:0:0:0:
356,124,94616,2,0,L|438:112,1,63.7500024318696
263,175,94787,2,0,L|181:163,1,63.7500024318696
126,61,94957,2,0,P|172:160|73:259,1,255.000009727478
84,257,95639,5,0,0:0:0:0:
84,257,95980,2,0,L|72:168,1,63.7500024318696
186,92,96150,2,0,L|164:174,1,63.7500024318696
39,354,96321,2,0,P|93:295|279:329,1,255.000009727478
378,384,96832,1,0,0:0:0:0:
487,290,97003,6,0,P|503:217|447:121,1,148.750001418591
186,241,97344,2,0,P|241:291|352:290,1,148.750001418591
378,4,97685,1,0,0:0:0:0:
378,4,97770,1,0,0:0:0:0:
378,4,97855,1,0,0:0:0:0:
62,104,98025,1,0,0:0:0:0:
288,184,98196,1,0,0:0:0:0:
126,2,98366,6,0,P|79:130|136:260,1,255
184,285,98707,2,0,L|289:292,1,95.6250036478044
469,339,98878,2,0,L|364:346,1,95.6250036478044
60,261,99048,2,0,B|186:271|186:271|240:252|240:252|379:258,1,286.875010943413
469,339,99389,1,0,0:0:0:0:
109,189,99560,1,0,0:0:0:0:
489,35,99730,6,0,B|363:45|363:45|309:26|309:26|170:32,1,286.875010943413
88,124,100071,2,0,L|183:117,1,95.6250036478044
380,143,100241,2,0,L|475:136,1,95.6250036478044
405,365,100412,2,0,B|310:344|310:344|259:266|259:266|282:139,1,286.875010943413
298,54,100753,1,0,0:0:0:0:
191,345,100923,1,0,0:0:0:0:
114,13,101094,6,0,B|92:130|92:130|124:185|124:185|103:315,1,286.875010943413
17,336,101435,2,0,L|39:206,1,95.6250036478044
201,23,101605,2,0,L|185:117,1,95.6250036478044
22,354,101775,2,0,B|44:237|44:237|12:182|12:182|33:52,1,286.875010943413
114,13,102116,2,0,L|244:35,1,95.6250036478044
457,139,102287,1,0,0:0:0:0:
220,239,102457,6,0,L|74:212,1,127.500004863739
302,328,102798,1,0,0:0:0:0:
446,205,102969,1,0,0:0:0:0:
237,12,103139,1,0,0:0:0:0:
10,283,103310,1,0,0:0:0:0:
41,288,103395,1,0,0:0:0:0:
72,294,103480,1,0,0:0:0:0:
104,300,103565,1,0,0:0:0:0:
135,306,103650,1,0,0:0:0:0:
390,343,103821,6,0,P|439:256|382:108,1,255
310,71,104162,2,0,L|179:58,1,95.6250036478044
48,177,104332,2,0,L|179:164,1,95.6250036478044
400,81,104503,2,0,B|340:74|340:74|318:56|318:56|214:45|214:45|189:58|189:58|117:51,1,286.875010943413
40,184,104844,1,0,0:0:0:0:
327,141,105014,1,0,0:0:0:0:
130,355,105185,6,0,B|102:266|102:266|172:187|172:187|285:205,1,286.875010943413
351,231,105525,2,0,L|334:339,1,95.6250036478044
240,108,105696,2,0,L|223:0,1,95.6250036478044
416,17,105866,2,0,B|406:76|406:76|418:102|418:102|402:205|402:205|382:226|382:226|371:297,1,286.875010943413
285,350,106207,1,0,0:0:0:0:
138,106,106378,1,0,0:0:0:0:
438,359,106548,6,0,B|360:302|360:302|383:70,1,286.875010943413
317,33,106889,2,0,L|188:47,1,95.6250036478044
84,166,107060,2,0,L|179:155,1,95.6250036478044
331,24,107230,2,0,B|221:34|221:34|159:75|159:75|48:85,1,286.875010943413
1,149,107571,2,0,L|16:279,1,95.6250036478044
198,373,107741,1,0,0:0:0:0:
353,133,107912,6,0,L|224:143,1,127.500004863739
434,210,108253,1,0,0:0:0:0:
505,17,108423,1,0,0:0:0:0:
247,222,108594,1,0,0:0:0:0:
250,253,108679,1,0,0:0:0:0:
252,285,108764,1,0,0:0:0:0:
373,365,108935,1,0,0:0:0:0:
506,166,109105,1,0,0:0:0:0:
124,282,109275,6,0,P|53:209|94:62,1,255
157,31,109616,2,0,L|287:43,1,95.6250036478044
411,154,109787,2,0,L|315:145,1,95.6250036478044
140,24,109957,2,0,B|258:34|258:34|315:69|315:69|433:82,1,286.875010943413
488,125,110298,1,0,0:0:0:0:
186,189,110469,1,0,0:0:0:0:
512,359,110639,6,0,B|411:347|411:347|354:312|354:312|236:302,1,286.875010943413
164,377,110980,2,0,L|149:263,1,95.6250036478044
232,154,111150,2,0,L|244:59,1,95.6250036478044
36,0,111321,2,0,B|11:94|11:94|57:175|57:175|181:212,1,286.875010943413
231,245,111662,1,0,0:0:0:0:
455,127,111832,1,0,0:0:0:0:
147,334,112003,6,0,P|117:212|216:133,1,255
312,188,112344,2,0,B|326:232|326:232|303:297,1,95.6250036478044
117,124,112514,2,0,B|102:79|102:79|125:14,1,95.6250036478044
340,30,112685,2,0,B|366:117|366:117|333:215|333:215|366:301,1,286.875010943413
301,361,113025,1,0,0:0:0:0:
77,243,113196,1,0,0:0:0:0:
449,322,113366,6,0,P|496:236|433:73,1,255
339,45,113707,2,0,L|222:56,1,95.6250036478044
62,145,113878,2,0,L|179:156,1,95.6250036478044
350,39,114048,2,0,B|270:46|270:46|225:71|225:71|140:76,1,191.250007295609
55,158,114389,1,0,0:0:0:0:
28,222,114474,1,0,0:0:0:0:
49,289,114560,2,0,B|155:311,1,63.7500024318696
249,343,114730,6,0,P|319:232|250:87,1,255
224,53,115071,2,0,L|113:61,1,95.6250036478044
28,222,115241,2,0,L|123:215,1,95.6250036478044
387,52,115412,2,0,B|282:63|282:63|231:40|231:40|89:51,1,286.875010943413
26,113,115753,1,0,0:0:0:0:
354,171,115923,1,0,0:0:0:0:
35,329,116094,6,0,B|159:319|159:319|210:342|210:342|315:331,1,286.875010943413,0|0,2:0|2:0,2:0:0:0:
424,240,116435,2,0,L|301:251,1,95.6250036478044
156,234,116605,2,0,L|33:245,1,95.6250036478044
71,25,116775,2,0,B|167:12|167:12|242:68|242:68|263:195,1,286.875010943413
254,261,117116,1,0,0:0:0:0:
33,139,117287,1,0,0:0:0:0:
239,369,117457,6,0,P|327:349|334:189,1,255
249,121,117798,2,0,B|205:107|205:107|140:130,1,95.6250036478044
398,232,117969,2,0,B|442:246|442:246|507:223,1,95.6250036478044
291,57,118139,2,0,B|140:110|140:110|119:180|119:180|175:264,1,286.875010943413
239,300,118480,1,0,0:0:0:0:
422,119,118650,1,0,0:0:0:0:
48,277,118821,6,0,P|0:178|89:54,1,255
183,31,119162,2,0,L|301:51,1,95.6250036478044
447,214,119332,1,0,0:0:0:0:
193,352,119503,1,0,0:0:0:0:
145,344,119588,1,0,0:0:0:0:
98,336,119673,1,0,0:0:0:0:
57,86,119844,1,0,0:0:0:0:
296,173,120014,1,0,0:0:0:0:
477,110,120185,6,0,P|442:86|377:92,1,95.6250036478044
133,254,120355,2,0,P|174:264|233:236,1,95.6250036478044
262,41,120525,1,0,0:0:0:0:
234,340,120696,2,0,L|221:238,1,95.6250036478044
341,104,120866,2,0,L|328:206,1,95.6250036478044
133,254,121037,2,0,P|88:160|149:65,1,191.250007295609
372,349,121378,1,0,0:0:0:0:
228,5,121548,6,0,P|204:40|210:105,1,95.6250036478044
372,349,121718,2,0,P|382:307|354:248,1,95.6250036478044
265,187,121889,1,0,0:0:0:0:
358,46,122060,2,0,L|451:63,1,95.6250036478044
265,187,122230,2,0,L|172:204,1,95.6250036478044
372,349,122400,2,0,P|466:309|475:193,1,191.250007295609
228,5,122741,1,0,0:0:0:0:
64,312,122912,6,0,P|169:247|116:77,1,286.875010943413
52,57,123253,1,0,0:0:0:0:
175,312,123423,2,0,P|221:214|151:58,1,286.875010943413
32,73,123764,1,0,0:0:0:0:
275,335,123935,2,0,P|370:364|486:308,1,191.250007295609
317,39,124275,6,0,P|263:124|395:256,1,286.875010943413
450,217,124616,1,0,0:0:0:0:
231,73,124787,2,0,P|220:175|370:299,1,286.875010943413
477,186,125128,1,0,0:0:0:0:
111,98,125298,1,0,0:0:0:0:
222,338,125469,1,0,0:0:0:0:
268,30,125639,6,0,P|292:65|286:130,1,95.6250036478044
124,374,125809,2,0,P|114:332|142:273,1,95.6250036478044
217,203,125980,1,0,0:0:0:0:
391,268,126150,2,0,L|265:253,1,95.6250036478044
121,150,126321,2,0,L|-5:165,1,95.6250036478044
124,374,126491,1,0,0:0:0:0:
217,203,126662,1,0,0:0:0:0:
37,52,126832,1,0,0:0:0:0:
381,197,127003,6,0,P|346:221|281:215,1,95.6250036478044
37,52,127173,2,0,P|79:42|138:70,1,95.6250036478044
209,144,127344,1,0,0:0:0:0:
383,74,127514,2,0,L|267:84,1,95.6250036478044
35,198,127685,2,0,L|151:208,1,95.6250036478044
257,384,127855,2,0,P|302:284|254:195,1,191.250007295609
102,303,128196,1,0,0:0:0:0:
41,65,128366,6,0,P|193:75|350:101,1,286.875010943413
426,169,128707,1,0,0:0:0:0:
14,81,128878,6,0,P|166:91|323:117,1,286.875010943413
401,243,129219,1,0,0:0:0:0:
161,359,129389,2,0,P|144:264|235:179,1,191.250007295609
353,306,129730,6,0,P|201:296|44:270,1,286.875010943413,0|0,0:2|0:2,0:2:0:0:
7,202,130071,1,0,0:0:0:0:
380,286,130241,2,0,P|240:277|153:262,1,191.250007295609,0|0,0:2|0:2,0:2:0:0:
72,50,130582,1,0,0:0:0:0:
376,117,130753,1,0,0:0:0:0:
190,178,130923,1,0,0:0:0:0:
450,48,131094,6,0,P|476:102|464:162,1,95.6250036478044
284,283,131264,2,0,P|282:221|319:173,1,95.6250036478044
409,360,131435,1,0,0:0:0:0:
376,117,131605,2,0,L|281:105,1,95.6250036478044
95,189,131775,2,0,L|189:177,1,95.6250036478044
360,23,131946,1,0,0:0:0:0:
474,231,132116,1,0,0:0:0:0:
276,24,132287,1,0,0:0:0:0:
136,267,132457,6,0,P|214:272|260:235,1,95.6250036478044
376,117,132628,2,0,P|297:118|255:159,1,95.6250036478044
474,231,132798,1,0,0:0:0:0:
189,177,132969,2,0,L|208:62,1,95.6250036478044
344,218,133139,2,0,L|363:333,1,95.6250036478044
191,367,133310,1,0,0:0:0:0:
68,175,133480,1,0,0:0:0:0:
283,348,133650,1,0,0:0:0:0:
425,79,133821,6,0,P|300:45|162:172,1,286.875010943413
156,236,134162,1,0,0:0:0:0:
466,87,134332,6,0,P|354:26|152:112,1,286.875010943413
82,180,134673,1,0,0:0:0:0:
222,347,134844,2,0,P|286:265|251:158,1,191.250007295609
141,34,135185,5,0,0:0:0:0:
82,180,135355,1,0,0:0:0:0:
279,34,135525,1,0,0:0:0:0:
138,238,135696,1,0,0:0:0:0:
376,154,135866,1,0,0:0:0:0:
220,319,136037,1,0,0:0:0:0:
352,299,136207,2,0,L|130:325,1,191.250007295609
49,99,136548,6,0,P|98:76|150:90,1,95.6250036478044
323,175,136719,2,0,P|270:188|222:165,1,95.6250036478044
417,62,136889,1,0,0:0:0:0:
306,278,137060,2,0,L|432:291,1,95.6250036478044
281,104,137230,2,0,L|155:117,1,95.6250036478044
58,278,137400,1,0,0:0:0:0:
303,357,137571,1,0,0:0:0:0:
20,195,137741,1,0,0:0:0:0:
259,18,137912,6,0,P|285:58|270:121,1,95.6250036478044
184,275,138082,2,0,P|169:229|200:172,1,95.6250036478044
303,357,138253,1,0,0:0:0:0:
197,74,138423,2,0,L|86:91,1,95.6250036478044
259,237,138594,2,0,L|370:254,1,95.6250036478044
485,117,138764,1,0,0:0:0:0:
259,18,138935,1,0,0:0:0:0:
450,233,139105,1,0,0:0:0:0:
112,346,139275,6,0,P|64:183|154:70,1,286.875010943413
259,18,139616,1,0,0:0:0:0:
59,317,139787,2,0,P|36:210|121:61,1,286.875010943413
339,46,140128,1,0,0:0:0:0:
447,267,140298,2,0,P|368:336|247:310,1,191.250007295609
130,310,140639,5,0,0:0:0:0:
55,59,140810,1,0,0:0:0:0:
214,307,140980,1,0,0:0:0:0:
160,9,141150,1,0,0:0:0:0:
302,309,141321,1,0,0:0:0:0:
270,40,141491,1,0,0:0:0:0:
76,235,141662,1,0,0:0:0:0:
78,250,141747,1,0,0:0:0:0:
79,265,141832,1,0,0:0:0:0:
81,280,141918,1,0,0:0:0:0:
113,324,142003,6,0,P|214:359|372:352,1,223.125002127886
415,350,142344,1,0,0:0:0:0:
49,305,142514,2,0,P|152:362|270:380,1,223.125002127886
415,350,142855,1,0,0:0:0:0:
484,141,143025,2,0,L|317:166,1,148.750001418591
174,151,143366,5,0,0:0:0:0:
174,151,143537,1,0,0:0:0:0:
255,227,143707,1,0,0:0:0:0:
161,38,143878,1,0,0:0:0:0:
71,271,144048,1,0,0:0:0:0:
362,172,144219,1,0,0:0:0:0:
28,79,144389,1,0,0:0:0:0:
28,79,144730,6,0,P|49:158|199:218,1,223.125002127886
293,182,145071,1,0,0:0:0:0:
83,0,145241,2,0,P|44:80|129:199,1,223.125002127886
259,265,145582,1,0,0:0:0:0:
399,79,145753,2,0,L|202:103,1,148.750001418591
403,280,146094,5,0,0:0:0:0:
403,280,146264,1,0,0:0:0:0:
348,175,146435,1,0,0:0:0:0:
417,374,146605,1,0,0:0:0:0:
493,145,146775,1,0,0:0:0:0:
256,319,146946,1,0,0:0:0:0:
384,32,147116,1,0,0:0:0:0:
384,32,147457,6,0,P|415:126|364:249,1,223.125002127886
233,279,147798,1,0,0:0:0:0:
373,0,147969,2,0,P|424:78|403:222,1,223.125002127886
233,279,148310,1,0,0:0:0:0:
35,146,148480,2,0,L|190:172,1,148.750001418591
337,108,148821,5,0,0:0:0:0:
337,108,148991,1,0,0:0:0:0:
219,80,149162,1,0,0:0:0:0:
338,245,149332,1,0,0:0:0:0:
398,17,149503,1,0,0:0:0:0:
229,263,149673,1,0,0:0:0:0:
474,141,149844,1,0,0:0:0:0:
474,141,150185,6,0,P|363:104|252:161,1,223.125002127886
204,240,150525,1,0,0:0:0:0:
512,171,150696,2,0,P|444:105|311:93,1,223.125002127886
144,181,151037,1,0,0:0:0:0:
320,346,151207,2,0,L|299:198,1,148.750001418591
126,84,151548,5,0,0:0:0:0:
126,84,151719,1,0,0:0:0:0:
224,148,151889,1,0,0:0:0:0:
0,101,152060,1,0,0:0:0:0:
239,44,152230,1,0,0:0:0:0:
146,300,152400,1,0,0:0:0:0:
48,19,152571,1,0,0:0:0:0:
250,286,152741,1,0,0:0:0:0:
490,139,152912,6,0,L|468:329,1,170
135,170,153253,2,0,P|216:84|390:134,1,255
410,177,153594,1,0,0:0:0:0:
226,353,153764,1,0,0:0:0:0:
77,55,153935,1,0,0:0:0:0:
279,197,154105,1,0,0:0:0:0:
441,28,154275,6,0,L|232:44,1,170
10,172,154616,2,0,L|219:188,1,170
443,281,154957,1,0,0:0:0:0:
75,340,155128,1,0,0:0:0:0:
310,60,155298,1,0,0:0:0:0:
310,60,155639,6,0,P|360:162|285:299,1,255
211,328,155980,1,0,0:0:0:0:
291,22,156150,2,0,P|373:134|317:304,1,255
211,328,156491,1,0,0:0:0:0:
173,135,156662,1,0,0:0:0:0:
388,355,156832,1,0,0:0:0:0:
370,52,157003,6,0,P|277:26|200:64,1,170
85,335,157344,2,0,P|178:361|255:323,1,170
449,128,157685,1,0,0:0:0:0:
57,194,157855,1,0,0:0:0:0:
484,352,158025,1,0,0:0:0:0:
484,352,158366,6,0,L|463:179,1,170
73,217,158707,2,0,P|161:310|314:243,1,255
344,218,159048,1,0,0:0:0:0:
195,42,159219,1,0,0:0:0:0:
34,340,159389,1,0,0:0:0:0:
247,197,159560,1,0,0:0:0:0:
484,352,159730,6,0,L|303:332,1,170
0,227,160071,2,0,L|181:207,1,170
470,185,160412,1,0,0:0:0:0:
100,36,160582,1,0,0:0:0:0:
265,322,160753,1,0,0:0:0:0:
265,322,161094,6,0,P|365:276|350:117,1,255
271,76,161435,1,0,0:0:0:0:
212,326,161605,2,0,P|348:315|406:210,1,255
271,76,161946,1,0,0:0:0:0:
48,211,162116,2,0,L|224:231,1,170
448,92,162457,6,0,P|346:54|289:184,1,255
331,251,162798,1,0,0:0:0:0:
504,167,162969,1,0,0:0:0:0:
159,109,163139,1,0,0:0:0:0:
159,109,163310,1,0,0:0:0:0:
476,336,163480,1,0,0:0:0:0:
476,336,163821,6,0,L|339:321,1,127.500004863739
349,322,164503,2,0,L|263:336,2,63.7500024318696
349,322,165185,1,0,0:0:0:0:
445,246,165355,2,0,L|355:232,1,63.7500024318696
289,203,165696,2,0,L|199:217,1,63.7500024318696
151,278,166037,1,0,0:0:0:0:
151,278,166207,1,0,0:0:0:0:
151,278,166548,6,0,L|140:198,2,63.7500024318696
231,333,167060,1,0,0:0:0:0:
306,281,167230,2,0,L|317:201,1,63.7500024318696
269,131,167571,1,0,0:0:0:0:
269,131,167912,5,0,0:0:0:0:
331,227,168082,2,0,P|372:239|402:233,1,63.7500024318696
269,131,168423,2,0,P|226:130|198:143,1,63.7500024318696
172,244,168764,1,0,0:0:0:0:
172,244,168935,1,0,0:0:0:0:
172,244,169275,6,0,L|154:106,1,127.500004863739
155,117,169957,2,0,L|163:53,2,63.7500024318696
155,117,170639,1,0,0:0:0:0:
223,187,170810,2,0,L|304:176,1,63.7500024318696
388,266,171150,2,0,L|307:255,1,63.7500024318696
190,340,171491,1,0,0:0:0:0:
285,326,171662,1,0,0:0:0:0:
285,326,172003,6,0,P|295:294|284:256,2,63.7500024318696
190,340,172514,1,0,0:0:0:0:
223,195,172685,2,0,P|251:177|290:177,1,63.7500024318696
364,219,173025,1,0,0:0:0:0:
289,265,173196,1,0,0:0:0:0:
275,140,173366,6,0,L|266:63,1,63.7500024318696
147,138,173707,2,0,L|138:215,1,63.7500024318696
36,96,174048,1,0,0:0:0:0:
94,18,174219,1,0,0:0:0:0:
54,251,174389,1,0,0:0:0:0:
54,251,174730,6,0,P|126:208|223:224,1,170
208,216,175412,2,0,P|245:225|278:218,2,63.7500024318696
208,216,176094,1,0,0:0:0:0:
130,41,176264,2,0,L|119:114,1,63.7500024318696
208,216,176605,2,0,L|197:143,1,63.7500024318696
126,280,176946,1,0,0:0:0:0:
218,200,177116,2,0,L|201:90,1,95.6250036478044
212,74,177457,6,0,P|263:57|310:73,2,85
130,151,177969,1,0,0:0:0:0:
231,210,178139,2,0,L|308:215,1,63.7500024318696
464,301,178480,2,0,L|357:309,1,95.6250036478044
319,326,178821,1,0,0:0:0:0:
100,255,178991,2,0,L|177:260,1,63.7500024318696
286,190,179332,2,0,L|208:195,1,63.7500024318696
268,288,179673,1,0,0:0:0:0:
327,174,179844,2,0,L|231:180,1,95.6250036478044
188,162,180185,6,0,P|161:103|236:19,1,170
405,233,180866,2,0,P|432:292|357:376,1,170
257,96,181548,2,0,L|436:82,1,170
341,298,182230,2,0,L|162:284,1,170
112,110,182912,6,0,P|149:95|201:111,1,85
383,327,183253,2,0,P|346:342|294:326,1,85
404,53,183594,2,0,P|419:90|403:142,1,85
134,345,183935,2,0,P|119:308|135:256,1,85
286,32,184275,5,0,0:0:0:0:
402,227,184446,1,0,0:0:0:0:
217,348,184616,1,0,0:0:0:0:
101,153,184787,1,0,0:0:0:0:
404,53,184957,5,0,0:0:0:0:
126,333,185128,1,0,0:0:0:0:
126,333,185213,1,0,0:0:0:0:
126,333,185298,1,0,0:0:0:0:
126,333,185639,5,0,0:0:0:0:
217,229,185980,1,0,0:0:0:0:
45,260,186150,1,0,0:0:0:0:
67,257,186236,1,0,0:0:0:0:
88,253,186321,1,0,0:0:0:0:
110,249,186406,1,0,0:0:0:0:
131,245,186491,1,0,0:0:0:0:
366,202,186662,1,0,0:0:0:0:
304,329,187003,5,0,0:0:0:0:
179,170,187344,1,0,0:0:0:0:
366,202,187514,1,0,0:0:0:0:
344,199,187600,1,0,0:0:0:0:
323,195,187685,1,0,0:0:0:0:
301,191,187770,1,0,0:0:0:0:
280,187,187855,1,0,0:0:0:0:
58,142,188025,1,0,0:0:0:0:
136,302,188281,5,0,0:0:0:0:
136,302,188366,1,0,0:0:0:0:
368,201,188707,1,0,0:0:0:0:
334,376,188878,1,0,0:0:0:0:
337,354,188964,1,0,0:0:0:0:
341,333,189049,1,0,0:0:0:0:
345,311,189134,1,0,0:0:0:0:
349,290,189219,1,0,0:0:0:0:
397,66,189389,1,0,0:0:0:0:
151,196,189730,6,0,P|119:143|119:106,1,72.2500013780594
247,273,190071,2,0,P|194:305|157:305,1,72.2500013780594
223,113,190412,2,0,P|276:81|313:81,1,72.2500013780594
435,202,190753,1,0,0:0:0:0:
301,169,190923,1,0,0:0:0:0:
463,356,191094,5,0,0:0:0:0:
463,356,191435,2,0,L|479:269,1,53.125
435,202,191605,2,0,L|419:115,1,53.125
482,47,191775,2,0,P|434:92|284:67,1,212.5
145,163,192457,5,0,0:0:0:0:
145,163,192798,2,0,L|56:146,1,63.7500024318696
268,264,192969,2,0,L|205:275,1,63.7500024318696
26,350,193139,2,0,P|-10:250|95:148,1,255.000009727478
334,344,193821,5,0,0:0:0:0:
334,344,194162,2,0,L|350:241,1,74.3750007092953
240,71,194332,2,0,L|256:174,1,74.3750007092953
220,343,194503,2,0,P|224:200|348:132,1,297.500002837181
462,202,195014,1,0,0:0:0:0:
172,270,195185,6,0,P|97:260|26:174,1,148.750001418591
309,191,195525,2,0,P|337:260|298:364,1,148.750001418591
175,122,195866,1,0,0:0:0:0:
175,122,195952,1,0,0:0:0:0:
175,122,196037,1,0,0:0:0:0:
406,173,196207,1,0,0:0:0:0:
212,354,196378,1,0,0:0:0:0:
375,68,196548,6,0,P|451:77|450:258,1,255
479,315,196889,1,0,0:0:0:0:
435,331,196974,1,0,0:0:0:0:
389,331,197059,1,0,0:0:0:0:
346,314,197144,1,0,0:0:0:0:
287,265,197230,5,0,0:0:0:0:
243,249,197315,1,0,0:0:0:0:
197,249,197400,1,0,0:0:0:0:
154,266,197485,1,0,0:0:0:0:
109,281,197571,1,0,0:0:0:0:
64,266,197656,1,0,0:0:0:0:
39,226,197741,1,0,0:0:0:0:
42,178,197827,1,0,0:0:0:0:
74,144,197912,1,0,0:0:0:0:
119,132,197997,1,0,0:0:0:0:
164,143,198082,2,0,B|191:149|191:149|217:145,1,46.7500014266968
309,108,198253,2,0,B|336:102|336:102|362:106,1,46.7500014266968
447,183,198423,1,0,0:0:0:0:
441,215,198508,1,0,0:0:0:0:
389,265,198594,5,0,0:0:0:0:
344,277,198679,1,0,0:0:0:0:
299,261,198765,1,0,0:0:0:0:
269,224,198850,1,0,0:0:0:0:
264,177,198935,1,0,0:0:0:0:
279,133,199020,1,0,0:0:0:0:
301,92,199105,1,0,0:0:0:0:
294,45,199191,1,0,0:0:0:0:
258,15,199275,6,0,B|231:12|231:12|199:23,1,46.7500014266968
95,79,199446,1,0,0:0:0:0:
68,117,199531,1,0,0:0:0:0:
70,163,199616,1,0,0:0:0:0:
86,207,199702,1,0,0:0:0:0:
103,250,199787,1,0,0:0:0:0:
101,296,199872,1,0,0:0:0:0:
54,355,199957,5,0,0:0:0:0:
94,331,200042,1,0,0:0:0:0:
140,320,200128,1,0,0:0:0:0:
186,325,200213,1,0,0:0:0:0:
229,341,200298,1,0,0:0:0:0:
272,357,200383,1,0,0:0:0:0:
319,358,200469,1,0,0:0:0:0:
364,346,200554,1,0,0:0:0:0:
394,310,200639,6,0,L|417:193,1,93.5000028533936
299,268,200980,1,0,0:0:0:0:
512,185,201150,1,0,0:0:0:0:
301,42,201321,1,0,0:0:0:0:
61,99,201491,1,0,0:0:0:0:
66,130,201576,1,0,0:0:0:0:
72,161,201661,1,0,0:0:0:0:
78,193,201746,1,0,0:0:0:0:
84,224,201831,1,0,0:0:0:0:
475,184,202003,6,0,P|470:75|277:53,1,280.500008560181
210,61,202344,2,0,L|194:167,1,95.6250036478044
287,370,202514,2,0,L|271:264,1,95.6250036478044
196,20,202685,2,0,B|176:138|176:138|187:189|187:189|171:309,1,286.875010943413
124,372,203025,1,0,0:0:0:0:
282,29,203196,1,0,0:0:0:0:
465,370,203366,6,0,B|448:250|448:250|459:199|459:199|443:79,1,286.875010943413
353,42,203707,2,0,L|370:155,1,95.6250036478044
360,279,203878,2,0,L|377:392,1,95.6250036478044
75,325,204048,2,0,B|92:232|92:232|173:176|173:176|282:198,1,286.875010943413
380,186,204389,1,0,0:0:0:0:
213,341,204560,1,0,0:0:0:0:
46,90,204730,6,0,B|14:32|14:32|119:52|119:52|139:70|139:70|232:87,1,286.875010943413
398,34,205071,2,0,L|388:139,1,95.6250036478044
286,344,205241,2,0,L|277:248,1,95.6250036478044
413,22,205412,2,0,B|401:143|401:143|374:183|374:183|361:326,1,286.875010943413
269,359,205753,1,0,0:0:0:0:
2,180,205923,1,0,0:0:0:0:
279,89,206094,6,0,L|456:124,1,127.500004863739
475,32,206435,1,0,0:0:0:0:
194,153,206605,1,0,0:0:0:0:
428,354,206775,1,0,0:0:0:0:
416,291,206860,1,0,0:0:0:0:
403,228,206945,1,0,0:0:0:0:
283,22,207116,1,0,0:0:0:0:
156,343,207287,1,0,0:0:0:0:
497,157,207457,6,0,P|411:107|289:203,1,255
236,252,207798,1,0,0:0:0:0:
192,268,207883,1,0,0:0:0:0:
144,264,207969,1,0,0:0:0:0:
102,242,208054,1,0,0:0:0:0:
62,173,208139,5,0,0:0:0:0:
62,126,208224,1,0,0:0:0:0:
87,86,208310,1,0,0:0:0:0:
130,69,208395,1,0,0:0:0:0:
176,72,208480,1,0,0:0:0:0:
210,103,208565,1,0,0:0:0:0:
248,129,208650,1,0,0:0:0:0:
292,145,208736,1,0,0:0:0:0:
338,145,208821,1,0,0:0:0:0:
380,124,208906,1,0,0:0:0:0:
416,95,208991,2,0,B|444:81|444:81|486:86,1,46.7500014266968
435,228,209162,2,0,B|405:218|405:218|379:184,1,46.7500014266968
335,276,209332,1,0,0:0:0:0:
288,269,209417,1,0,0:0:0:0:
197,330,209503,5,0,0:0:0:0:
173,290,209588,1,0,0:0:0:0:
177,243,209673,1,0,0:0:0:0:
201,203,209758,1,0,0:0:0:0:
229,164,209844,1,0,0:0:0:0:
230,117,209929,1,0,0:0:0:0:
212,74,210014,1,0,0:0:0:0:
175,44,210099,1,0,0:0:0:0:
80,37,210185,6,0,P|10:103|62:263,1,255
124,305,210525,1,0,0:0:0:0:
168,319,210611,1,0,0:0:0:0:
214,317,210696,1,0,0:0:0:0:
256,298,210781,1,0,0:0:0:0:
310,234,210866,5,0,0:0:0:0:
352,214,210952,1,0,0:0:0:0:
398,212,211037,1,0,0:0:0:0:
441,228,211122,1,0,0:0:0:0:
457,271,211207,1,0,0:0:0:0:
438,313,211292,1,0,0:0:0:0:
392,325,211378,1,0,0:0:0:0:
346,313,211463,1,0,0:0:0:0:
280,237,211548,6,0,P|252:144|378:32,1,255
460,54,211889,1,0,0:0:0:0:
483,94,211974,1,0,0:0:0:0:
490,140,212060,1,0,0:0:0:0:
480,185,212145,1,0,0:0:0:0:
449,220,212230,2,0,B|371:231|371:231|341:245|341:245|250:257,1,191.250007295609
170,218,212571,1,0,0:0:0:0:
105,190,212656,1,0,0:0:0:0:
40,217,212741,2,0,B|23:253|23:253|32:321,1,63.7500024318696
147,355,212912,6,0,P|201:272|129:123,1,255
0,64,213253,2,0,L|95:71,1,95.6250036478044
258,159,213423,2,0,L|353:151,1,95.6250036478044
511,95,213594,2,0,B|412:105|412:105|344:137|344:137|211:148,1,286.875010943413
105,190,213935,1,0,0:0:0:0:
471,264,214105,1,0,0:0:0:0:
18,355,214275,6,0,B|117:345|117:345|185:313|185:313|318:302,1,286.875010943413
385,321,214616,2,0,L|400:192,1,95.6250036478044
272,19,214787,2,0,L|287:148,1,95.6250036478044
406,351,214957,2,0,B|412:279|412:279|438:238|438:238|442:175|442:175|420:130|420:130|425:46,1,286.875010943413
493,22,215298,1,0,0:0:0:0:
254,204,215469,1,0,0:0:0:0:
19,22,215639,6,0,P|83:67|62:262,1,255
49,311,215980,2,0,L|199:326,1,95.6250036478044
449,245,216150,2,0,L|299:260,1,95.6250036478044
27,327,216321,2,0,B|152:338|152:338|225:316|225:316|333:322,1,286.875010943413
387,363,216662,1,0,0:0:0:0:
170,197,216832,1,0,0:0:0:0:
466,48,217003,1,0,0:0:0:0:
51,24,218025,5,0,0:0:0:0:
45,349,218366,6,0,B|146:332|146:332|239:345|239:345|371:323,1,293.2500055933
435,334,218707,2,0,L|454:198,1,97.7500018644333
284,18,218878,2,0,L|303:154,1,97.7500018644333
270,269,219048,1,0,0:0:0:0:
440,123,219219,1,0,0:0:0:0:
123,60,219389,1,0,0:0:0:0:
272,355,219560,1,0,0:0:0:0:
445,35,219730,2,0,B|323:25|323:25|262:50|262:50|131:41,1,293.2500055933
54,120,220071,2,0,L|185:130,1,97.7500018644333
327,112,220241,2,0,L|455:125,1,97.7500018644333
508,215,220412,1,0,0:0:0:0:
216,348,220582,1,0,0:0:0:0:
97,22,220753,1,0,0:0:0:0:
329,213,220923,1,0,0:0:0:0:
46,325,221094,6,0,B|119:317|119:317|160:330|160:330|220:326|220:326|251:302|251:302|337:294,1,293.2500055933
426,224,221435,2,0,L|280:206,1,97.7500018644333
45,245,221605,2,0,L|191:227,1,97.7500018644333
512,200,221775,6,0,B|439:192|439:192|395:207|395:207|338:201|338:201|307:177|307:177|221:169,1,293.2500055933
139,110,222116,1,0,0:0:0:0:
350,33,222287,1,0,0:0:0:0:
353,347,222457,5,0,0:0:0:0:
251,87,222628,1,0,0:0:0:0:
369,344,222798,1,0,0:0:0:0:
137,87,222969,1,0,0:0:0:0:
388,340,223139,1,0,0:0:0:0:
56,172,223310,1,0,0:0:0:0:
405,336,223480,2,0,L|189:306,1,195.500003728867
36,43,223821,6,0,B|102:73|102:73|267:47|267:47|341:72,1,293.2500055933
409,128,224162,2,0,L|396:224,1,97.7500018644333
280,369,224332,2,0,L|267:272,1,97.7500018644333
323,73,224503,1,0,0:0:0:0:
507,276,224673,1,0,0:0:0:0:
149,173,224844,1,0,0:0:0:0:
507,373,225014,1,0,0:0:0:0:
41,272,225185,6,0,B|145:287|145:287|239:268|239:268|346:284,1,293.2500055933
459,219,225525,2,0,L|334:198,1,97.7500018644333
14,184,225696,2,0,L|110:200,1,97.7500018644333
280,358,225866,1,0,0:0:0:0:
387,100,226037,1,0,0:0:0:0:
164,285,226207,1,0,0:0:0:0:
512,154,226378,1,0,0:0:0:0:
13,67,226548,6,0,B|136:47|136:47|201:61|201:61|377:37,1,293.2500055933
474,129,226889,2,0,L|324:153,1,97.7500018644333
41,208,227060,2,0,L|180:232,1,97.7500018644333
512,283,227230,6,0,B|389:303|389:303|324:289|324:289|148:313,1,293.2500055933
136,367,227571,1,0,0:0:0:0:
388,219,227741,1,0,0:0:0:0:
150,41,227912,5,0,0:0:0:0:
50,348,228082,1,0,0:0:0:0:
120,36,228253,1,0,0:0:0:0:
186,364,228423,1,0,0:0:0:0:
90,31,228594,1,0,0:0:0:0:
309,321,228764,1,0,0:0:0:0:
452,34,228935,1,0,0:0:0:0:
65,187,229105,1,0,0:0:0:0:
472,340,229275,6,0,B|397:254|397:254|423:34,1,318.75
338,23,229616,2,0,L|322:147,1,106.25
248,319,229787,2,0,L|232:195,1,106.25
139,86,229957,1,0,0:0:0:0:
336,263,230128,1,0,0:0:0:0:
34,337,230298,1,0,0:0:0:0:
124,1,230469,1,0,0:0:0:0:
489,156,230639,6,0,B|391:196|391:196|181:157,1,318.75
84,222,230980,2,0,L|211:246,1,106.25
322,100,231150,2,0,L|217:80,1,106.25
26,136,231321,1,0,0:0:0:0:
217,349,231491,1,0,0:0:0:0:
360,26,231662,1,0,0:0:0:0:
121,151,231832,1,0,0:0:0:0:
436,350,232003,6,0,B|448:222|448:222|426:165|426:165|437:21,1,318.75
355,42,232344,2,0,L|343:175,1,106.25
249,339,232514,2,0,L|236:205,1,106.25
159,15,232685,6,0,B|171:143|171:143|149:200|149:200|160:344,1,318.75
94,384,233025,1,0,0:0:0:0:
4,82,233196,1,0,0:0:0:0:
382,158,233366,5,0,0:0:0:0:
41,236,233537,1,0,0:0:0:0:
442,254,233707,1,0,0:0:0:0:
33,199,233878,1,0,0:0:0:0:
416,367,234048,1,0,0:0:0:0:
25,162,234219,1,0,0:0:0:0:
404,27,234389,2,0,L|365:257,1,212.5
137,350,234730,6,0,B|91:255|91:255|135:18,1,318.75
248,51,235071,2,0,L|291:147,1,106.25
242,354,235241,2,0,L|198:257,1,106.25
384,86,235412,1,0,0:0:0:0:
335,320,235582,1,0,0:0:0:0:
310,0,235753,1,0,0:0:0:0:
242,354,235923,1,0,0:0:0:0:
0,143,236094,6,0,B|95:97|95:97|332:141,1,318.75
348,232,236435,2,0,L|243:211,1,106.25
171,27,236605,2,0,L|276:48,1,106.25
410,155,236775,1,0,0:0:0:0:
156,231,236946,1,0,0:0:0:0:
512,206,237116,1,0,0:0:0:0:
79,75,237287,1,0,0:0:0:0:
467,348,237457,6,0,B|338:336|338:336|278:305|278:305|143:289,1,318.75
70,204,237798,2,0,L|175:215,1,106.25
439,181,237969,2,0,L|334:170,1,106.25
45,36,238139,6,0,B|174:48|174:48|234:79|234:79|365:88,1,318.75
439,33,238480,1,0,0:0:0:0:
136,135,238650,1,0,0:0:0:0:
375,357,238821,5,0,0:0:0:0:
498,125,238991,1,0,0:0:0:0:
91,237,239162,1,0,0:0:0:0:
391,365,239332,5,0,0:0:0:0:
498,111,239502,1,0,0:0:0:0:
83,265,239673,1,0,0:0:0:0:
420,369,239844,5,0,0:0:0:0:
343,40,240014,1,0,0:0:0:0:
159,348,240185,6,0,L|200:343,1,21.25
146,344,240355,1,0,0:0:0:0:
43,30,240525,6,0,P|102:35|154:70,1,106.25
216,156,240696,2,0,P|226:222|196:289,1,106.25
64,308,240866,1,0,0:0:0:0:
281,62,241037,1,0,0:0:0:0:
455,345,241207,6,0,L|423:341,1,21.25
209,272,241378,2,0,L|219:241,1,21.25
351,6,241548,2,0,L|364:78,1,63.75
295,331,241889,6,0,P|245:369|140:328,1,106.25
115,199,242060,2,0,P|165:161|270:202,1,106.25
384,271,242230,1,0,0:0:0:0:
52,348,242400,1,0,0:0:0:0:
96,37,242571,6,0,L|132:42,1,21.25
431,94,242741,2,0,L|395:99,1,21.25
30,106,242912,2,0,L|95:115,1,63.75
322,180,243253,6,0,P|336:136|305:60,1,106.25
71,194,243423,2,0,P|57:238|88:314,1,106.25
183,367,243594,1,0,0:0:0:0:
452,297,243764,1,0,0:0:0:0:
208,121,243935,2,0,L|199:84,1,21.25
427,35,244105,2,0,L|418:72,1,21.25
209,235,244275,6,0,P|186:160|220:78,1,106.25
460,185,244446,2,0,P|483:260|449:342,1,106.25
336,354,244616,1,0,0:0:0:0:
90,181,244787,1,0,0:0:0:0:
357,46,244957,1,0,0:0:0:0:
280,278,245128,1,0,0:0:0:0:
180,79,245298,1,0,0:0:0:0:
78,342,245469,1,0,0:0:0:0:
425,303,245639,6,0,L|385:293,1,21.25
443,297,245810,1,0,0:0:0:0:
216,347,245980,6,0,P|166:303|130:180,1,106.25
134,163,246150,2,0,P|153:114|186:73,1,106.25
326,79,246321,1,0,0:0:0:0:
53,226,246491,1,0,0:0:0:0:
407,359,246662,6,0,L|432:334,1,21.25
371,175,246832,2,0,L|344:155,1,21.25
125,335,247003,2,0,L|198:322,1,63.75
450,251,247344,6,0,P|479:177|453:110,1,106.25
286,98,247514,2,0,P|257:172|283:239,1,106.25
351,301,247685,1,0,0:0:0:0:
478,55,247855,1,0,0:0:0:0:
76,172,248025,6,0,L|42:178,1,21.25
357,207,248196,2,0,L|391:213,1,21.25
62,248,248366,2,0,L|-5:259,1,63.75
273,354,248707,6,0,P|289:272|247:192,1,106.25
68,73,248878,2,0,P|52:155|94:235,1,106.25
190,284,249048,1,0,0:0:0:0:
431,145,249219,1,0,0:0:0:0:
147,22,249389,2,0,P|93:125|241:295,1,318.75
289,340,249730,1,0,0:0:0:0:
289,340,249815,1,0,0:0:0:0:
289,340,249900,2,0,P|336:319|376:319,1,63.7500024318696
204,74,250071,1,0,0:0:0:0:
204,74,250156,1,0,0:0:0:0:
204,74,250241,2,0,P|251:95|291:95,1,63.7500024318696
116,359,250412,1,0,0:0:0:0:
116,359,250497,1,0,0:0:0:0:
116,359,250582,2,0,P|146:317|180:297,1,63.7500024318696
69,25,250753,1,0,0:0:0:0:
14,357,250923,1,0,0:0:0:0:
428,240,251094,5,0,0:0:0:0:
428,240,251264,1,0,0:0:0:0:
66,115,251435,5,0,0:0:0:0:
66,115,251605,1,0,0:0:0:0:
456,44,251775,5,0,0:0:0:0:
456,44,251946,1,0,0:0:0:0:
172,181,252116,5,0,0:0:0:0:
172,181,252287,1,0,0:0:0:0:
309,353,252457,5,0,0:0:0:0:
386,59,252628,1,0,0:0:0:0:
41,183,252798,1,0,0:0:0:0:
424,230,252969,1,0,0:0:0:0:
140,48,253139,5,0,0:0:0:0:
403,358,253310,1,0,0:0:0:0:
15,259,253480,2,0,B|251:210|251:210|379:237,1,350.625003343821
481,307,253821,5,0,0:0:0:0:
481,307,253991,1,0,0:0:0:0:
97,167,254162,5,0,0:0:0:0:
97,167,254332,1,0,0:0:0:0:
473,66,254503,5,0,0:0:0:0:
473,66,254673,1,0,0:0:0:0:
206,298,254844,5,0,0:0:0:0:
206,298,255014,1,0,0:0:0:0:
338,30,255185,5,0,0:0:0:0:
47,201,255355,1,0,0:0:0:0:
426,121,255525,1,0,0:0:0:0:
50,181,255696,1,0,0:0:0:0:
454,234,255866,1,0,0:0:0:0:
53,161,256037,1,0,0:0:0:0:
401,355,256207,2,0,P|244:232|272:75,1,350.625003343821
341,31,256548,5,0,0:0:0:0:
341,31,256719,1,0,0:0:0:0:
139,343,256889,5,0,0:0:0:0:
139,343,257060,1,0,0:0:0:0:
200,11,257230,5,0,0:0:0:0:
200,11,257400,1,0,0:0:0:0:
395,317,257571,5,0,0:0:0:0:
395,317,257741,1,0,0:0:0:0:
126,73,257912,5,0,0:0:0:0:
66,341,258082,1,0,0:0:0:0:
402,141,258253,1,0,0:0:0:0:
84,180,258423,1,0,0:0:0:0:
322,354,258594,5,0,0:0:0:0:
181,26,258764,1,0,0:0:0:0:
491,272,258935,2,0,B|376:291|376:291|92:209,1,350.625003343821
51,113,259275,6,0,P|132:38|420:107,1,350.625003343821
484,232,259616,1,0,0:0:0:0:
41,183,259787,2,0,P|120:66|326:51,1,350.625003343821
443,311,260128,1,0,0:0:0:0:
24,269,260298,2,0,L|271:328,1,233.750002229214
447,155,260639,6,0,P|365:49|106:130,1,350.625003343821
41,183,260980,1,0,0:0:0:0:
447,273,261150,1,0,0:0:0:0:
447,273,261321,1,0,0:0:0:0:
139,71,261491,1,0,0:0:0:0:
222,361,261662,1,0,0:0:0:0:
237,359,261748,1,0,0:0:0:0:
252,358,261833,1,0,0:0:0:0:
267,356,261918,1,0,0:0:0:0:
294,336,262003,5,0,0:0:0:0:
