osu file format v14

[General]
AudioFilename: audio.mp3
AudioLeadIn: 0
PreviewTime: 195754
Countdown: 0
SampleSet: Normal
StackLeniency: 0.3
Mode: 0
LetterboxInBreaks: 0
WidescreenStoryboard: 0

[Editor]
Bookmarks: 11093,21976,32885,43794,54703,64589,76521,87430,120158,141975,163793,174703,185612,196521,218339,240157,249703,261976,265385,272885,283794,294703
DistanceSpacing: 1.6
BeatDivisor: 4
GridSize: 4
TimelineZoom: 1.6

[Metadata]
Title:Sky Fracture
TitleUnicode:Sky Fracture
Artist:Getsix
ArtistUnicode:Getsix
Creator:Zer0-
Version:Collapse
Source:
Tags:dnb drumstep drum n bass dancefloor heavy drs059
BeatmapID:1212419
BeatmapSetID:572146

[Difficulty]
HPDrainRate:7
CircleSize:4
OverallDifficulty:8.5
ApproachRate:9.4
SliderMultiplier:1.8
SliderTickRate:1

[Events]
//Background and Video events
0,0,"lulbg.jpg",0,0
//Break Periods
//Storyboard Layer 0 (Background)
//Storyboard Layer 1 (Fail)
//Storyboard Layer 2 (Pass)
//Storyboard Layer 3 (Foreground)
//Storyboard Sound Samples

[TimingPoints]
184,340.909090909091,4,2,0,55,1,0
184,-100,4,2,0,55,0,0
21293,340.909090909091,4,2,0,55,1,0
21293,-100,4,1,1,55,0,0
21976,340.909090909091,4,1,1,55,1,0
21976,-76.9230769230769,4,1,1,55,0,0
22998,-90.9090909090909,4,1,1,55,0,0
32885,-83.3333333333333,4,1,1,55,0,0
43794,-76.9230769230769,4,1,1,55,0,0
92885,-100,4,1,1,55,0,0
96976,-76.9230769230769,4,1,1,55,0,0
97657,-76.9230769230769,4,1,1,55,0,0
98339,-90.9090909090909,4,1,1,55,0,0
98680,-66.6666666666667,4,1,1,55,0,0
103283,-100,4,1,1,55,0,0
103453,-66.6666666666667,4,1,1,55,0,0
103794,-100,4,1,1,55,0,0
104135,-66.6666666666667,4,1,1,55,0,0
108567,-100,4,1,1,55,0,0
108908,-66.6666666666667,4,1,1,55,0,0
109248,-100,4,1,1,55,0,0
109589,-66.6666666666667,4,1,1,55,0,0
111976,-100,4,1,1,55,0,0
112317,-66.6666666666667,4,1,1,55,0,0
113339,-100,4,1,1,55,0,0
113680,-66.6666666666667,4,1,1,55,0,0
114362,-100,4,1,1,55,0,0
114533,-66.6666666666667,4,1,1,55,0,0
114703,-100,4,1,1,55,0,0
115044,-66.6666666666667,4,1,1,55,0,0
117430,-100,4,1,1,55,0,0
117771,-66.6666666666667,4,1,1,55,0,0
118794,-100,4,1,1,55,0,0
119135,-66.6666666666667,4,1,1,55,0,0
119476,-100,4,1,1,55,0,0
119817,-66.6666666666667,4,1,1,55,0,0
139248,-66.6666666666667,4,1,1,55,0,0
141634,-100,4,1,1,55,0,0
141976,-66.6666666666667,4,1,1,55,0,1
163794,-111.111111111111,4,1,1,55,0,0
174703,-83.3333333333333,4,1,1,55,0,0
191066,-100,4,1,1,55,0,0
195839,-76.9230769230769,4,1,1,55,0,0
196521,-90.9090909090909,4,1,1,55,0,0
196862,-83.3333333333333,4,1,1,55,0,0
201976,-100,4,1,1,55,0,0
202316,-66.6666666666667,4,1,1,55,0,0
206748,-100,4,1,1,55,0,0
207089,-66.6666666666667,4,1,1,55,0,0
207430,-100,4,1,1,55,0,0
207771,-83.3333333333333,4,1,1,55,0,0
210157,-100,4,1,1,55,0,0
210498,-83.3333333333333,4,1,1,55,0,0
211521,-100,4,1,1,55,0,0
211862,-83.3333333333333,4,1,1,55,0,0
212544,-100,4,1,1,55,0,0
212714,-66.6666666666667,4,1,1,55,0,0
212885,-100,4,1,1,55,0,0
213226,-66.6666666666667,4,1,1,55,0,0
215612,-100,4,1,1,55,0,0
215953,-66.6666666666667,4,1,1,55,0,0
217998,-133.333333333333,4,1,1,55,0,0
218339,-66.6666666666667,4,1,1,55,0,0
249703,-100,4,1,1,55,0,0
249873,-66.6666666666667,4,1,1,55,0,0
261635,-100,4,2,1,55,0,0
305612,-500,4,2,1,55,0,0
307743,-100,4,2,1,55,0,0
307998,-500,4,2,1,55,0,0

[Colours]
Combo1 : 233,140,16
Combo2 : 1,109,182
Combo3 : 207,10,88
Combo4 : 27,163,214

[HitObjects]
126,227,184,5,0,0:0:0:0:
208,156,354,1,0,0:0:0:0:
205,329,524,1,0,0:0:0:0:
205,329,695,1,0,0:0:0:0:
208,156,865,2,0,P|253:148|307:159,1,90
346,246,1206,2,0,P|301:254|247:243,1,90
295,36,1547,5,0,0:0:0:0:
381,10,1718,1,0,0:0:0:0:
289,124,1888,1,0,0:0:0:0:
289,124,2059,1,0,0:0:0:0:
289,124,2229,2,0,L|378:121,1,90
254,215,2570,2,0,L|164:212,1,90
70,291,2911,5,0,0:0:0:0:
133,373,3081,1,0,0:0:0:0:
164,212,3252,1,0,0:0:0:0:
164,212,3422,1,0,0:0:0:0:
89,66,3593,2,0,P|79:114|93:162,1,90
239,55,3934,2,0,P|195:78|168:119,1,90
164,212,4274,5,0,0:0:0:0:
203,304,4445,1,0,0:0:0:0:
273,176,4615,1,0,0:0:0:0:
273,176,4786,1,0,0:0:0:0:
273,176,4956,2,0,L|376:172,1,90
452,263,5297,2,0,L|349:259,1,90
273,176,5638,5,0,0:0:0:0:
194,117,5809,1,0,0:0:0:0:
213,274,5979,1,0,0:0:0:0:
213,274,6149,1,0,0:0:0:0:
76,159,6320,2,0,P|62:111|72:61,1,90
164,212,6661,2,0,P|129:248|81:264,1,90
159,123,7002,5,0,0:0:0:0:
229,45,7172,1,0,0:0:0:0:
276,191,7343,1,0,0:0:0:0:
276,191,7513,1,0,0:0:0:0:
276,191,7684,2,0,P|324:186|370:157,1,90
424,232,8024,2,0,P|451:192|458:138,1,90
337,277,8365,5,0,0:0:0:0:
389,377,8536,1,0,0:0:0:0:
227,340,8706,1,0,0:0:0:0:
227,340,8877,1,0,0:0:0:0:
227,340,9047,2,0,L|220:237,1,90
314,206,9388,2,0,L|230:145,1,90
117,276,9729,5,0,0:0:0:0:
220,250,9899,1,0,0:0:0:0:
145,117,10070,1,0,0:0:0:0:
145,117,10240,1,0,0:0:0:0:
234,71,10411,2,0,P|281:81|317:119,1,90
379,47,10752,2,0,P|401:89|395:141,1,90
346,203,11093,5,0,0:0:0:0:
264,240,11263,1,0,0:0:0:0:
184,196,11434,2,0,P|137:182|82:198,1,90
115,371,11774,1,0,0:0:0:0:
136,267,11945,1,0,0:0:0:0:
285,344,12115,1,0,0:0:0:0:
264,240,12286,1,0,0:0:0:0:
435,98,12456,5,0,0:0:0:0:
456,185,12627,1,0,0:0:0:0:
436,272,12797,2,0,P|390:278|339:268,1,90
280,139,13138,1,0,0:0:0:0:
264,240,13309,1,0,0:0:0:0:
120,166,13479,1,0,0:0:0:0:
136,267,13650,1,0,0:0:0:0:
386,368,13820,5,0,0:0:0:0:
298,347,13990,1,0,0:0:0:0:
211,372,14161,2,0,L|206:270,1,90
290,137,14502,1,0,0:0:0:0:
387,160,14672,1,0,0:0:0:0:
182,138,14843,1,0,0:0:0:0:
85,161,15013,1,0,0:0:0:0:
290,137,15184,5,0,0:0:0:0:
297,47,15354,1,0,0:0:0:0:
377,7,15524,2,0,P|424:1|470:7,1,90
381,213,15865,1,0,0:0:0:0:
381,103,16036,1,0,0:0:0:0:
486,276,16206,1,0,0:0:0:0:
486,166,16377,1,0,0:0:0:0:
213,222,16547,5,0,0:0:0:0:
299,248,16718,1,0,0:0:0:0:
381,213,16888,2,0,P|386:167|376:107,1,90
253,52,17229,1,0,0:0:0:0:
268,153,17399,1,0,0:0:0:0:
139,108,17570,1,0,0:0:0:0:
124,209,17740,1,0,0:0:0:0:
29,313,17911,5,0,0:0:0:0:
110,350,18081,1,0,0:0:0:0:
199,338,18252,2,0,P|245:326|296:337,1,90
358,173,18593,1,0,0:0:0:0:
377,283,18763,1,0,0:0:0:0:
495,224,18934,1,0,0:0:0:0:
476,334,19104,1,0,0:0:0:0:
358,173,19274,5,0,0:0:0:0:
273,141,19445,1,0,0:0:0:0:
187,168,19615,2,0,P|141:176|87:166,1,90
17,340,19956,1,0,0:0:0:0:
55,240,20127,1,0,0:0:0:0:
225,268,20297,1,0,0:0:0:0:
187,168,20468,1,0,0:0:0:0:
168,367,20638,5,0,0:0:0:0:
258,373,20809,1,0,0:0:0:0:
335,327,20979,2,0,L|374:329,6,22.5
307,317,21294,2,0,L|304:216,1,90,2|0,1:0|2:0,0:0:0:0:
224,161,21633,5,2,3:1:0:0:
272,127,21748,5,2,3:1:0:0:
331,127,21862,5,2,3:1:0:0:
381,159,21976,6,0,B|417:119|417:119|452:69|416:27|416:27|375:70|417:119|417:119|453:182|431:228,1,350.999983932496,2|0,0:0|0:0,0:0:0:0:
429,331,22658,1,0,0:0:0:0:
210,303,22828,1,0,0:0:0:0:
323,235,22998,2,0,L|320:341,1,99.0000030212403
207,89,23339,6,0,L|205:35,2,49.5000015106202
210,303,23680,1,0,0:0:0:0:
131,139,23851,1,0,0:0:0:0:
252,181,24021,1,0,0:0:0:0:
88,260,24192,1,0,0:0:0:0:
261,178,24362,1,0,0:0:0:0:
80,264,24533,1,0,0:0:0:0:
303,341,24703,6,0,P|351:351|407:331,1,99.0000030212403
342,162,25044,2,0,P|332:210|352:266,1,99.0000030212403,0|0,0:0|0:0,0:0:0:0:
437,159,25385,2,0,P|421:112|376:73,1,99.0000030212403
262,214,25726,2,0,P|308:198|347:153,1,99.0000030212403
254,23,26067,2,0,P|244:70|264:127,1,99.0000030212403
258,117,26408,5,0,0:0:0:0:
202,318,26578,1,0,0:0:0:0:
157,176,26748,1,0,0:0:0:0:
316,221,26918,1,2,0:0:0:0:
149,173,27089,2,0,P|142:124|159:71,1,99.0000030212403,0|0,0:0|0:0,0:0:0:0:
296,196,27430,6,0,P|314:85|234:164,1,297.000009063721
444,297,28112,1,0,0:0:0:0:
419,125,28283,1,2,0:0:0:0:
302,346,28453,2,0,P|247:354|194:338,1,99.0000030212403,0|0,0:0|0:0,0:0:0:0:
68,246,28794,6,0,L|179:249,1,99.0000030212403
333,161,29135,2,0,L|222:164,1,99.0000030212403,0|0,0:0|0:0,0:0:0:0:
113,156,29476,1,0,0:0:0:0:
269,274,29646,1,0,0:0:0:0:
103,136,29817,1,0,0:0:0:0:
278,293,29987,1,0,0:0:0:0:
187,11,30158,6,0,L|182:124,1,99.0000030212403,2|0,0:0|0:0,0:0:0:0:
278,293,30498,2,0,L|273:180,1,99.0000030212403,0|0,0:0|0:0,0:0:0:0:
69,139,30839,1,0,0:0:0:0:
170,272,31010,1,0,0:0:0:0:
299,152,31180,2,0,P|346:139|397:156,1,99.0000030212403,0|0,0:0|0:0,0:0:0:0:
357,326,31521,6,0,B|346:303|346:303|347:225,1,99.0000030212403,2|0,0:0|0:0,0:0:0:0:
119,211,31862,2,0,P|165:225|212:212,1,99.0000030212403,0|0,0:0|0:0,0:0:0:0:
166,126,32203,1,0,0:0:0:0:
6,197,32373,1,2,0:0:0:0:
202,345,32544,2,0,L|306:340,1,99.0000030212403,8|0,0:0|0:0,0:0:0:0:
416,214,32885,6,0,P|359:200|291:208,1,107.999996704102,2|0,0:0|0:0,0:0:0:0:
168,219,33226,1,0,0:0:0:0:
88,85,33396,2,0,B|79:113|91:143|91:143|81:175|81:175|91:213|83:256,1,161.999995056153
93,248,33737,2,0,B|99:217|89:179|89:179|99:147|99:147|87:117,1,107.999996704102
311,204,34078,1,0,0:0:0:0:
386,16,34248,5,2,0:0:0:0:
419,182,34419,1,0,0:0:0:0:
293,95,34589,1,0,0:0:0:0:
476,106,34760,1,0,0:0:0:0:
311,204,34930,1,0,0:0:0:0:
386,16,35101,1,0,0:0:0:0:
464,243,35271,2,0,B|475:283|475:283|465:362,1,107.999996704102
218,327,35612,6,0,P|272:331|343:316,1,107.999996704102,2|0,0:0|0:0,0:0:0:0:
334,157,35953,1,0,0:0:0:0:
160,68,36123,2,0,B|155:130|155:130|166:177|166:177|159:237,1,161.999995056153
169,228,36464,2,0,B|174:176|174:176|163:129|163:129|165:98,1,107.999996704102
55,204,36805,1,0,0:0:0:0:
258,197,36976,5,2,0:0:0:0:
160,68,37146,1,0,0:0:0:0:
217,296,37317,1,0,0:0:0:0:
305,119,37487,1,0,0:0:0:0:
435,246,37658,2,0,P|440:218|437:184,1,53.9999983520508
420,34,37828,2,0,P|425:62|422:96,1,53.9999983520508
420,242,37998,2,0,B|425:214|422:182|422:182|376:223|390:290,1,161.999995056153
438,333,38339,6,0,B|408:315|408:315|328:330,1,107.999996704102,2|0,0:0|0:0,0:0:0:0:
251,249,38680,1,0,0:0:0:0:
209,177,38851,1,0,0:0:0:0:
161,249,39021,2,0,B|158:139,1,107.999996704102,2|0,0:0|0:0,0:0:0:0:
326,112,39362,1,0,0:0:0:0:
394,59,39533,1,0,0:0:0:0:
317,32,39703,6,0,L|434:26,1,107.999996704102,2|0,0:0|0:0,0:0:0:0:
482,131,40044,1,0,0:0:0:0:
419,182,40214,1,0,0:0:0:0:
490,221,40385,2,0,L|382:215,1,107.999996704102,2|0,0:0|0:0,0:0:0:0:
258,272,40726,1,0,0:0:0:0:
305,347,40896,1,0,0:0:0:0:
215,161,41067,6,0,P|236:127|247:56,1,107.999996704102,2|0,0:0|0:0,0:0:0:0:
300,193,41408,2,0,P|279:159|268:88,1,107.999996704102,2|0,0:0|0:0,0:0:0:0:
182,261,41748,2,0,P|203:227|214:156,1,107.999996704102,2|0,0:0|0:0,0:0:0:0:
332,293,42089,2,0,P|311:259|300:188,1,107.999996704102,2|0,0:0|0:0,0:0:0:0:
382,161,42430,5,2,0:0:0:0:
309,350,42601,1,2,0:0:0:0:
172,215,42771,1,2,0:0:0:0:
446,267,42942,1,2,0:0:0:0:
267,156,43112,1,2,0:0:0:0:
280,105,43197,1,2,0:0:0:0:
328,85,43282,1,2,0:0:0:0:
373,110,43367,1,2,0:0:0:0:
382,161,43453,5,8,0:0:0:0:
366,140,43538,1,0,0:0:0:0:
360,113,43623,1,0,0:0:0:0:
365,87,43708,1,0,0:0:0:0:
380,65,43794,6,0,B|342:61|342:61|306:72|306:72|245:72,1,116.999994644165,2|0,0:0|0:0,0:0:0:0:
117,288,44135,2,0,B|155:292|155:292|191:281|191:281|252:281,1,116.999994644165,8|0,0:0|0:0,0:0:0:0:
362,282,44476,1,0,0:0:0:0:
218,156,44646,1,2,0:0:0:0:
204,363,44817,1,8,0:0:0:0:
224,181,44987,1,0,0:0:0:0:
429,203,45157,6,0,B|436:165|436:165|423:89,1,116.999994644165,2|0,0:0|0:0,0:0:0:0:
112,192,45498,2,0,P|175:200|227:180,1,116.999994644165,8|0,0:0|0:0,0:0:0:0:
128,96,45839,1,0,0:0:0:0:
182,303,46010,1,2,0:0:0:0:
246,43,46180,1,8,0:0:0:0:
112,192,46351,1,0,0:0:0:0:
345,271,46521,6,0,B|384:283|384:283|480:264,1,116.999994644165,2|0,0:0|0:0,0:0:0:0:
319,129,46862,2,0,B|281:133|281:133|245:122|245:122|184:122,1,116.999994644165,8|0,0:0|0:0,0:0:0:0:
423,94,47203,1,0,0:0:0:0:
353,269,47373,1,2,0:0:0:0:
270,44,47544,1,8,0:0:0:0:
393,169,47714,1,0,0:0:0:0:
204,122,47885,6,0,B|166:126|166:126|130:115|130:115|69:115,1,116.999994644165,2|0,0:0|0:0,0:0:0:0:
390,0,48226,2,0,B|428:-4|428:-4|464:7|464:7|525:7,1,116.999994644165,8|0,0:0|0:0,0:0:0:0:
344,235,48567,1,0,0:0:0:0:
247,47,48737,1,2,0:0:0:0:
477,130,48907,1,8,0:0:0:0:
257,164,49078,1,0,0:0:0:0:
390,0,49248,6,0,B|400:39|400:39|383:135,1,116.999994644165,2|0,0:0|0:0,0:0:0:0:
266,281,49589,2,0,L|257:159,1,116.999994644165,8|0,0:0|0:0,0:0:0:0:
155,269,49930,1,0,0:0:0:0:
374,224,50101,1,2,0:0:0:0:
247,47,50271,1,8,0:0:0:0:
167,255,50442,1,0,0:0:0:0:
374,224,50612,6,0,P|429:241|484:225,1,116.999994644165,2|0,0:0|0:0,0:0:0:0:
165,153,50953,2,0,P|110:136|55:152,1,116.999994644165,8|0,0:0|0:0,0:0:0:0:
106,268,51294,1,0,0:0:0:0:
257,164,51464,1,2,0:0:0:0:
83,53,51635,1,8,0:0:0:0:
108,225,51805,1,0,0:0:0:0:
365,268,51976,6,0,B|365:227|365:227|354:191|354:191|358:153,1,116.999994644165,2|0,0:0|0:0,0:0:0:0:
158,37,52317,2,0,B|158:79|158:79|169:115|169:115|165:153,1,116.999994644165,8|0,0:0|0:0,0:0:0:0:
245,62,52658,1,0,0:0:0:0:
46,141,52828,1,2,0:0:0:0:
218,278,52998,1,8,0:0:0:0:
241,75,53169,1,0,0:0:0:0:
28,344,53339,6,0,B|66:348|66:348|102:337|102:337|163:337,1,116.999994644165,2|0,0:0|0:0,0:0:0:0:
280,160,53680,2,0,B|239:160|239:160|203:149|203:149|165:153,1,116.999994644165,8|0,0:0|0:0,0:0:0:0:
392,165,54021,1,0,0:0:0:0:
255,36,54192,1,2,0:0:0:0:
194,245,54362,1,8,0:0:0:0:
194,245,54533,1,0,3:0:0:0:
467,339,54703,6,0,B|479:307|479:307|467:201,1,116.999994644165,2|0,0:0|0:0,0:0:0:0:
194,245,55044,2,0,B|226:257|226:257|332:245,1,116.999994644165,8|0,0:0|0:0,0:0:0:0:
250,153,55385,1,0,0:0:0:0:
223,384,55555,1,2,0:0:0:0:
419,287,55726,1,8,0:0:0:0:
258,162,55896,1,0,0:0:0:0:
502,319,56067,6,0,B|516:287|503:254|503:254|515:230|515:230|502:184|514:145,1,175.499991966248,2|0,0:0|0:0,0:0:0:0:
509,126,56408,2,0,B|468:118|468:118|438:125|438:125|380:120,1,116.999994644165,8|0,0:0|0:0,0:0:0:0:
288,115,56748,1,0,0:0:0:0:
383,0,56919,1,2,0:0:0:0:
425,229,57089,2,0,B|390:245|390:245|292:225,1,116.999994644165,8|0,0:0|0:0,0:0:0:0:
61,75,57430,6,0,B|59:124|59:124|64:152|64:152|61:213,1,116.999994644165,2|0,0:0|0:0,0:0:0:0:
288,115,57771,2,0,B|239:113|239:113|211:118|211:118|150:115,1,116.999994644165,8|0,0:0|0:0,0:0:0:0:
248,208,58112,1,0,0:0:0:0:
434,296,58283,1,2,0:0:0:0:
417,90,58453,1,8,0:0:0:0:
236,213,58623,1,0,0:0:0:0:
336,352,58794,6,0,B|338:303|338:303|333:275|333:275|336:214,1,116.999994644165,2|0,0:0|0:0,0:0:0:0:
176,32,59135,2,0,B|174:81|174:81|179:109|179:109|176:170,1,116.999994644165,8|0,0:0|0:0,0:0:0:0:
175,261,59476,1,0,0:0:0:0:
296,111,59646,1,2,0:0:0:0:
299,320,59817,1,8,0:0:0:0:
284,156,59987,1,0,0:0:0:0:
184,356,60158,6,0,B|67:354,1,116.999994644165,2|0,0:0|0:0,0:0:0:0:
334,235,60498,2,0,B|450:233,1,116.999994644165,8|0,0:0|0:0,0:0:0:0:
344,145,60839,1,0,0:0:0:0:
275,321,61010,1,2,0:0:0:0:
204,100,61180,1,8,0:0:0:0:
267,289,61351,1,0,0:0:0:0:
99,18,61521,6,0,B|132:8|169:19|169:19|199:8|199:8|241:22|286:1,1,175.499991966248,2|0,0:0|0:0,0:0:0:0:
293,7,61862,2,0,B|292:49|292:49|304:75|304:75|300:130,1,116.999994644165,8|0,0:0|0:0,0:0:0:0:
292,229,62203,1,0,0:0:0:0:
107,127,62373,1,2,0:0:0:0:
163,361,62544,2,0,B|199:365|199:365|226:357|226:357|285:361,1,116.999994644165,8|0,0:0|0:0,0:0:0:0:
107,127,62885,6,0,B|103:163|103:163|111:190|111:190|107:249,1,116.999994644165,2|0,0:0|0:0,0:0:0:0:
292,229,63226,2,0,B|296:192|296:192|288:165|288:165|292:106,1,116.999994644165,8|0,0:0|0:0,0:0:0:0:
208,299,63567,1,0,0:0:0:0:
431,242,63737,1,2,0:0:0:0:
244,31,63908,1,8,0:0:0:0:
292,229,64078,1,0,0:0:0:0:
445,118,64248,6,0,B|408:107|408:107|317:116,1,116.999994644165,2|0,0:0|0:0,0:0:0:0:
107,242,64589,2,0,B|144:253|144:253|235:244,1,116.999994644165,8|0,0:0|0:0,0:0:0:0:
359,255,64930,1,0,0:0:0:0:
194,100,65101,1,2,0:0:0:0:
375,270,65271,1,8,0:0:0:0:
177,84,65442,1,0,0:0:0:0:
329,116,65612,5,2,0:0:0:0:
329,116,65783,1,0,3:0:0:0:
177,84,65953,2,0,B|173:118|173:118|180:145|180:145|175:212,1,116.999994644165,8|0,0:0|0:0,0:0:0:0:
81,167,66294,1,0,0:0:0:0:
282,78,66464,1,2,0:0:0:0:
245,328,66635,1,8,0:0:0:0:
179,142,66805,1,0,0:0:0:0:
397,261,66976,6,0,B|431:265|431:265|458:258|458:258|525:263,1,116.999994644165,2|0,0:0|0:0,0:0:0:0:
397,76,67317,2,0,B|363:80|363:80|336:73|336:73|269:78,1,116.999994644165,8|0,0:0|0:0,0:0:0:0:
150,83,67658,1,0,0:0:0:0:
335,191,67828,1,2,0:0:0:0:
92,220,67998,1,8,0:0:0:0:
311,185,68169,1,0,0:0:0:0:
175,199,68339,6,0,B|171:233|171:233|178:260|178:260|173:327,1,116.999994644165,2|0,0:0|0:0,0:0:0:0:
397,261,68680,2,0,B|401:227|401:227|394:200|394:200|399:133,1,116.999994644165,8|0,0:0|0:0,0:0:0:0:
408,42,69021,1,0,0:0:0:0:
488,184,69192,1,2,0:0:0:0:
308,228,69362,1,8,0:0:0:0:
469,189,69533,1,0,0:0:0:0:
289,313,69703,6,0,B|255:317|255:317|228:310|228:310|161:315,1,116.999994644165,2|0,0:0|0:0,0:0:0:0:
46,141,70044,2,0,B|80:145|80:145|107:138|107:138|174:143,1,116.999994644165,8|0,0:0|0:0,0:0:0:0:
269,155,70385,1,0,0:0:0:0:
74,59,70555,1,2,0:0:0:0:
173,314,70726,1,8,0:0:0:0:
161,142,70896,1,0,0:0:0:0:
173,314,71067,6,0,B|207:318|207:318|234:311|234:311|301:316,1,116.999994644165,2|0,0:0|0:0,0:0:0:0:
162,26,71408,2,0,B|158:60|158:60|165:87|165:87|160:154,1,116.999994644165,8|0,0:0|0:0,0:0:0:0:
60,113,71748,1,0,0:0:0:0:
263,36,71919,1,2,0:0:0:0:
200,237,72089,1,8,0:0:0:0:
258,59,72260,1,0,0:0:0:0:
488,184,72430,6,0,B|454:188|454:188|427:181|427:181|359:186,1,116.999994644165,2|0,0:0|0:0,0:0:0:0:
170,280,72771,2,0,B|204:276|204:276|231:283|231:283|298:278,1,116.999994644165,8|0,0:0|0:0,0:0:0:0:
414,303,73112,1,0,0:0:0:0:
225,129,73283,1,2,0:0:0:0:
287,373,73453,1,8,0:0:0:0:
372,185,73623,1,0,0:0:0:0:
225,129,73794,6,0,B|229:163|229:163|222:190|222:190|226:244,1,116.999994644165,2|0,0:0|0:0,0:0:0:0:
408,381,74135,2,0,B|404:347|404:347|411:320|411:320|406:265,1,116.999994644165,8|0,0:0|0:0,0:0:0:0:
267,314,74476,1,0,0:0:0:0:
512,359,74646,1,2,0:0:0:0:
452,135,74817,1,8,0:0:0:0:
498,346,74987,1,0,0:0:0:0:
296,60,75158,6,0,B|330:56|330:56|357:63|357:63|412:58,1,116.999994644165,2|0,0:0|0:0,0:0:0:0:
338,207,75498,2,0,B|304:211|304:211|277:204|277:204|222:208,1,116.999994644165,8|0,0:0|0:0,0:0:0:0:
260,315,75839,1,0,0:0:0:0:
296,60,76010,1,2,0:0:0:0:
116,165,76180,1,8,3:1:0:0:
123,193,76265,1,0,3:0:0:0:
130,221,76350,1,0,3:0:0:0:
138,249,76435,1,0,3:0:0:0:
145,277,76521,6,0,B|182:274|182:274|202:281|202:281|267:278,1,116.999994644165,2|0,0:0|0:0,0:0:0:0:
438,117,76862,2,0,B|401:120|401:120|381:113|381:113|316:116,1,116.999994644165,8|0,0:0|0:0,0:0:0:0:
361,246,77203,1,0,0:0:0:0:
423,6,77373,1,2,0:0:0:0:
219,127,77544,1,8,0:0:0:0:
361,246,77714,1,0,0:0:0:0:
235,36,77885,6,0,P|151:62|131:158,1,175.499991966248,2|0,0:0|0:0,0:0:0:0:
127,233,78226,2,0,P|71:219|38:173,1,116.999994644165,8|0,0:0|0:0,0:0:0:0:
304,166,78567,1,8,0:0:0:0:
180,355,78738,1,0,1:0:0:0:
349,248,78908,1,8,0:0:0:0:
219,127,79078,1,2,0:0:0:0:
307,325,79248,6,0,B|427:316,1,116.999994644165,2|0,0:0|0:0,0:0:0:0:
219,127,79589,2,0,P|207:187|232:239,1,116.999994644165,8|0,0:0|0:0,0:0:0:0:
304,174,79930,1,0,0:0:0:0:
249,9,80101,1,2,0:0:0:0:
161,287,80271,1,8,0:0:0:0:
371,265,80442,1,0,0:0:0:0:
203,76,80612,6,0,B|173:67|173:67|136:73,1,58.4999973220826,2|0,0:0|0:0,0:0:0:0:
167,156,80782,2,0,B|148:181|148:181|141:217,1,58.4999973220826,2|0,0:0|0:0,0:0:0:0:
231,217,80953,2,0,B|248:243|248:243|280:262,1,58.4999973220826,2|0,0:0|0:0,0:0:0:0:
311,179,81123,2,0,B|341:171|341:171|370:148,1,58.4999973220826,2|0,0:0|0:0,0:0:0:0:
301,91,81294,2,0,B|304:59|304:59|292:24,1,58.4999973220826,2|0,0:0|0:0,0:0:0:0:
159,39,81464,1,2,0:0:0:0:
229,236,81635,1,8,0:0:0:0:
60,179,81805,1,0,0:0:0:0:
316,78,81976,6,0,B|353:73|353:73|381:83|381:83|443:77,1,116.999994644165,2|0,0:0|0:0,0:0:0:0:
229,236,82317,2,0,B|191:241|191:241|164:231|164:231|102:237,1,116.999994644165,8|0,0:0|0:0,0:0:0:0:
36,200,82658,1,8,0:0:0:0:
138,322,82828,1,2,0:0:0:0:
159,134,82998,1,0,0:0:0:0:
49,297,83169,1,0,0:0:0:0:
67,71,83339,6,0,B|97:65|128:76|128:76|164:62|164:62|206:74|255:59,1,175.499991966248,2|0,0:0|0:0,0:0:0:0:
384,70,83680,2,0,P|310:25|236:66,1,175.499991966248,8|0,0:0|0:0,0:0:0:0:
179,207,84021,1,0,0:0:0:0:
308,110,84192,1,2,0:0:0:0:
398,324,84362,1,8,0:0:0:0:
434,189,84533,1,0,0:0:0:0:
280,342,84703,6,0,B|250:353|220:343|220:343|181:331|144:343,1,116.999994644165,2|0,0:0|0:0,0:0:0:0:
35,203,85044,2,0,B|65:192|95:202|95:202|134:214|171:202,1,116.999994644165,8|0,0:0|0:0,0:0:0:0:
277,272,85385,1,0,0:0:0:0:
62,307,85555,1,2,0:0:0:0:
140,103,85726,1,8,0:0:0:0:
76,292,85896,1,2,0:0:0:0:
310,52,86067,5,2,0:0:0:0:
272,329,86237,1,8,0:0:0:0:
272,329,86408,1,8,0:0:0:0:
226,119,86578,5,2,0:0:0:0:
416,317,86748,1,8,0:0:0:0:
416,317,86919,1,10,0:0:0:0:
226,119,87089,2,0,B|182:98|137:119|137:119|91:147|43:119,1,175.499991966248,8|0,0:0|0:0,0:0:0:0:
256,192,87430,12,0,88794,0:0:0:0:
256,192,88964,12,0,92373,0:0:0:0:
234,146,92885,6,0,L|137:141,1,90,8|0,0:0|0:0,0:0:0:0:
229,252,93226,1,8,0:0:0:0:
341,109,93396,1,0,0:0:0:0:
224,64,93567,1,8,0:0:0:0:
336,207,93737,1,0,0:0:0:0:
336,207,93908,2,0,L|433:202,1,90,8|0,0:0|0:0,0:0:0:0:
343,308,94248,6,0,L|246:303,1,90,8|0,0:0|0:0,0:0:0:0:
153,160,94589,1,8,0:0:0:0:
186,334,94760,1,0,0:0:0:0:
21,192,94930,1,8,0:0:0:0:
97,352,95101,1,0,0:0:0:0:
97,352,95271,2,0,L|104:253,1,90,8|0,0:0|0:0,0:0:0:0:
235,53,95612,5,8,0:0:0:0:
247,270,95783,1,8,0:0:0:0:
340,119,95953,1,8,0:0:0:0:
141,204,96124,1,8,0:0:0:0:
340,201,96294,1,8,0:0:0:0:
140,121,96465,1,8,0:0:0:0:
352,267,96635,2,0,B|361:238|341:200|341:200|325:237|332:265,1,135
172,334,96976,5,0,0:0:0:0:
145,332,97061,1,0,0:0:0:0:
118,331,97146,1,0,0:0:0:0:
352,267,97317,1,0,0:0:0:0:
383,265,97402,1,0,0:0:0:0:
414,263,97487,1,0,0:0:0:0:
230,79,97658,5,8,0:0:0:0:
267,101,97743,1,8,0:0:0:0:
285,142,97828,1,2,0:0:0:0:
276,185,97913,1,2,0:0:0:0:
243,215,97998,2,0,P|208:220|169:215,1,58.4999973220826,8|0,0:0|0:0,0:0:0:0:
66,64,98169,2,0,P|101:59|140:64,1,58.4999973220826,2|0,0:0|0:0,0:0:0:0:
111,289,98339,6,0,P|83:228|108:150,1,148.50000453186,6|0,0:0|0:0,0:0:0:0:
209,55,98680,2,0,P|244:52|286:59,1,67.5000025749208,8|0,0:0|0:0,0:0:0:0:
428,178,98851,2,0,P|461:181|494:176,1,67.5000025749208
346,125,99021,2,0,B|334:175|334:175|354:265,1,135.000005149842,0|2,0:0|0:0,0:0:0:0:
245,346,99362,2,0,P|254:311|250:271,1,67.5000025749208,8|0,0:0|0:0,0:0:0:0:
172,137,99533,2,0,P|163:102|167:62,1,67.5000025749208
243,178,99703,6,0,P|192:217|125:205,1,135.000005149842,2|0,0:0|0:0,0:0:0:0:
346,125,100044,2,0,P|360:163|357:197,1,67.5000025749208,8|0,0:0|0:0,0:0:0:0:
466,239,100214,2,0,P|445:274|417:293,1,67.5000025749208
298,384,100385,2,0,B|295:366|300:342|300:342|293:317|293:317|303:284|296:241,1,135.000005149842,0|2,0:0|0:0,0:0:0:0:
140,276,100726,2,0,P|173:280|208:275,1,67.5000025749208,8|0,0:0|0:0,0:0:0:0:
270,124,100896,2,0,P|250:150|236:183,1,67.5000025749208
424,279,101067,6,0,P|364:249|297:250,1,135.000005149842,2|0,0:0|0:0,0:0:0:0:
140,276,101408,2,0,B|134:240|134:240|138:205,1,67.5000025749208,8|0,0:0|0:0,0:0:0:0:
50,155,101578,2,0,B|73:127|73:127|103:107,1,67.5000025749208
327,115,101748,2,0,B|288:134|288:134|190:137,1,135.000005149842,0|2,0:0|0:0,0:0:0:0:
418,76,102089,2,0,P|425:115|420:148,1,67.5000025749208,8|0,0:0|0:0,0:0:0:0:
367,265,102260,2,0,P|360:304|365:337,1,67.5000025749208
507,232,102430,6,0,L|413:219,1,67.5000025749208,2|0,0:0|0:0,0:0:0:0:
239,216,102601,2,0,L|333:203,1,67.5000025749208
506,213,102771,2,0,L|412:200,1,67.5000025749208,8|0,0:0|0:0,0:0:0:0:
240,197,102942,2,0,L|334:184,1,67.5000025749208
505,194,103112,2,0,L|411:181,1,67.5000025749208
171,141,103283,1,2,0:0:0:0:
153,181,103368,1,2,0:0:0:0:
157,226,103453,2,0,P|119:221|88:228,1,67.5000025749208,8|0,0:0|0:0,0:0:0:0:
275,293,103623,2,0,P|313:298|344:291,1,67.5000025749208
309,65,103794,6,0,B|303:114|303:114|311:137|311:137|307:199,1,135.000005149842,6|0,0:0|0:0,0:0:0:0:
466,104,104135,2,0,B|449:98|449:98|399:100,1,67.5000025749208,8|0,0:0|0:0,0:0:0:0:
152,155,104305,2,0,B|169:161|169:161|218:158,1,67.5000025749208
98,73,104476,2,0,P|56:132|64:199,1,135.000005149842,0|2,0:0|0:0,0:0:0:0:
55,304,104817,2,0,P|90:302|131:273,1,67.5000025749208,8|0,0:0|0:0,0:0:0:0:
204,357,104987,2,0,P|224:328|229:278,1,67.5000025749208
340,276,105158,6,0,P|313:213|254:184,1,135.000005149842,2|0,0:0|0:0,0:0:0:0:
152,155,105498,2,0,B|147:191|147:191|152:225,1,67.5000025749208,8|0,0:0|0:0,0:0:0:0:
195,66,105669,2,0,B|200:30|200:30|195:-4,1,67.5000025749208
282,102,105839,2,0,B|351:111|351:111|416:102,1,135.000005149842,0|2,0:0|0:0,0:0:0:0:
351,29,106180,2,0,L|280:20,1,67.5000025749208,8|0,0:0|0:0,0:0:0:0:
366,189,106351,2,0,L|437:180,1,67.5000025749208
256,184,106521,6,0,B|255:226|255:226|262:249|262:249|259:319,1,135.000005149842,2|0,0:0|0:0,0:0:0:0:
126,351,106862,2,0,P|134:317|131:283,1,67.5000025749208,8|0,0:0|0:0,0:0:0:0:
67,134,107033,2,0,P|59:100|62:66,1,67.5000025749208
144,162,107203,2,0,P|89:213|24:203,1,135.000005149842,0|2,0:0|0:0,0:0:0:0:
148,73,107544,2,0,B|184:67|184:67|235:71,1,67.5000025749208,8|0,0:0|0:0,0:0:0:0:
432,180,107714,2,0,B|396:186|396:186|345:182,1,67.5000025749208
252,251,107885,6,0,L|256:176,1,67.5000025749208,2|0,0:0|0:0,0:0:0:0:
344,30,108055,2,0,L|348:105,1,67.5000025749208
237,252,108226,2,0,L|241:177,1,67.5000025749208,8|0,0:0|0:0,0:0:0:0:
329,29,108396,2,0,L|333:104,1,67.5000025749208,2|0,0:0|0:0,0:0:0:0:
354,309,108567,1,8,0:0:0:0:
385,277,108652,1,8,0:0:0:0:
428,266,108737,1,2,0:0:0:0:
472,276,108822,1,2,0:0:0:0:
505,306,108908,2,0,P|511:346|503:383,1,67.5000025749208,8|0,0:0|0:0,0:0:0:0:
421,101,109078,2,0,P|415:61|423:24,1,67.5000025749208,0|0,3:0|0:0,0:0:0:0:
492,160,109248,6,0,P|435:192|370:178,1,135,6|0,0:0|0:0,0:0:0:0:
277,108,109589,2,0,B|253:103|253:103|206:109,1,67.5000025749208,8|0,0:0|0:0,0:0:0:0:
83,282,109760,2,0,B|106:286|106:286|154:281,1,67.5000025749208
116,57,109930,2,0,B|106:103|106:103|118:198,1,135.000005149842,0|2,0:0|0:0,0:0:0:0:
278,204,110271,2,0,P|239:197|205:207,1,67.5000025749208,8|0,0:0|0:0,0:0:0:0:
365,323,110442,2,0,P|404:330|438:320,1,67.5000025749208
401,108,110612,6,0,P|378:172|399:233,1,135.000005149842,2|0,0:0|0:0,0:0:0:0:
441,29,110953,2,0,P|407:19|368:28,1,67.5000025749208,8|0,0:0|0:0,0:0:0:0:
192,113,111123,2,0,P|161:122|127:117,1,67.5000025749208
292,79,111294,2,0,B|296:126|296:126|287:149|287:149|289:245,1,135.000005149842,0|2,0:0|0:0,0:0:0:0:
286,350,111635,2,0,P|249:342|215:347,1,67.5000025749208,8|0,0:0|0:0,0:0:0:0:
184,250,111805,2,0,P|147:257|113:253,1,67.5000025749208
0,331,111976,6,0,P|21:268|0:204,1,135,2|0,0:0|0:0,0:0:0:0:
99,120,112317,2,0,B|132:111|132:111|170:121,1,67.5000025749208,8|0,0:0|0:0,0:0:0:0:
334,227,112487,2,0,B|367:236|367:236|405:226,1,67.5000025749208
285,144,112658,2,0,P|244:196|248:262,1,135.000005149842,0|2,0:0|0:0,0:0:0:0:
152,340,112998,2,0,P|157:308|151:272,1,67.5000025749208,8|0,0:0|0:0,0:0:0:0:
99,120,113169,2,0,P|94:88|100:52,1,67.5000025749208
157,173,113339,6,0,P|96:198|37:168,1,135,2|0,0:0|0:0,0:0:0:0:
220,79,113680,2,0,P|252:106|265:145,1,67.5000025749208,8|0,0:0|0:0,0:0:0:0:
377,117,113851,2,0,P|376:158|355:193,1,67.5000025749208
278,362,114021,2,0,B|282:335|275:312|275:312|280:288|280:288|273:254|278:213,1,135.000005149842
144,268,114362,1,8,0:0:0:0:
99,276,114447,1,8,0:0:0:0:
51,258,114533,2,0,P|45:297|50:330,1,67.5000025749208,2|0,0:0|0:0,0:0:0:0:
102,183,114703,6,0,P|102:114|56:53,1,135.000005149842,6|0,0:0|0:0,0:0:0:0:
196,40,115044,2,0,P|230:36|277:41,1,67.5000025749208,8|0,0:0|0:0,0:0:0:0:
431,121,115214,2,0,P|465:125|512:120,1,67.5000025749208
388,41,115385,2,0,P|342:93|349:158,1,135.000005149842,0|2,0:0|0:0,0:0:0:0:
336,273,115726,2,0,P|298:265|258:274,1,67.5000025749208,8|0,0:0|0:0,0:0:0:0:
130,320,115896,2,0,P|155:291|168:251,1,67.5000025749208
202,53,116067,6,0,P|188:118|221:176,1,135.000005149842,2|0,0:0|0:0,0:0:0:0:
347,108,116408,2,0,L|278:106,1,67.5000025749208,8|0,0:0|0:0,0:0:0:0:
60,210,116578,2,0,L|129:208,1,67.5000025749208
225,309,116748,2,0,B|226:269|226:269|219:246|219:246|220:164,1,135.000005149842,0|2,0:0|0:0,0:0:0:0:
407,291,117089,2,0,P|413:325|407:358,1,67.5000025749208,8|0,0:0|0:0,0:0:0:0:
316,229,117260,2,0,P|310:195|315:161,1,67.5000025749208
509,145,117430,6,0,P|465:194|400:196,1,135,2|0,0:0|0:0,0:0:0:0:
429,45,117771,2,0,L|434:116,1,67.5000025749208,8|0,0:0|0:0,0:0:0:0:
407,291,117942,2,0,L|402:362,1,67.5000025749208
169,313,118112,2,0,B|202:318|202:318|232:313|232:313|323:318,1,135.000005149842,0|2,0:0|0:0,0:0:0:0:
82,272,118453,2,0,P|76:313|82:354,1,67.5000025749208,8|0,0:0|0:0,0:0:0:0:
173,108,118623,2,0,P|179:67|173:26,1,67.5000025749208
88,153,118794,6,0,P|140:199|223:190,1,135.000005149842,2|0,0:0|0:0,0:0:0:0:
328,60,119135,2,0,P|319:101|293:133,1,67.5000025749208,8|0,0:0|0:0,0:0:0:0:
369,210,119305,2,0,P|331:229|290:230,1,67.5000025749208,2|0,0:0|0:0,0:0:0:0:
280,337,119476,1,8,0:0:0:0:
238,319,119561,1,8,0:0:0:0:
209,286,119646,1,2,0:0:0:0:
196,243,119731,1,2,0:0:0:0:
202,199,119817,2,0,P|207:162|201:123,1,67.5000025749208,8|0,0:0|0:0,0:0:0:0:
48,25,119987,2,0,P|43:62|49:101,1,67.5000025749208,0|0,3:0|0:0,0:0:0:0:
82,272,120157,5,2,0:0:0:0:
139,61,120328,1,0,0:0:0:0:
82,272,120498,2,0,P|121:277|162:271,1,67.5000025749208,8|0,0:0|0:0,0:0:0:0:
205,376,120668,2,0,P|234:350|256:314,1,67.5000025749208
364,349,120839,2,0,P|363:310|350:270,1,67.5000025749208
255,191,121010,1,2,0:0:0:0:
337,110,121180,2,0,P|357:137|368:170,1,67.5000025749208,8|0,0:0|0:0,0:0:0:0:
144,170,121350,2,0,P|154:138|174:111,1,67.5000025749208
255,54,121521,5,2,0:0:0:0:
373,251,121691,1,0,0:0:0:0:
160,271,121862,2,0,P|124:266|94:275,1,67.5000025749208,8|0,0:0|0:0,0:0:0:0:
249,326,122032,2,0,P|285:331|315:322,1,67.5000025749208
394,379,122203,2,0,P|420:354|433:325,1,67.5000025749208
491,48,122373,1,2,0:0:0:0:
501,253,122543,2,0,P|469:222|426:209,1,67.5000025749208,8|0,0:0|0:0,0:0:0:0:
318,159,122714,2,0,P|360:146|393:116,1,67.5000025749208
325,14,122884,5,2,0:0:0:0:
71,119,123055,1,0,0:0:0:0:
249,326,123225,1,8,0:0:0:0:
212,99,123396,1,2,0:0:0:0:
342,235,123566,1,0,0:0:0:0:
115,272,123737,1,2,0:0:0:0:
401,160,123907,2,0,B|363:141|363:141|256:156,1,135.000005149842,8|0,0:0|0:0,0:0:0:0:
115,272,124248,5,2,0:0:0:0:
86,39,124418,1,0,0:0:0:0:
172,350,124589,1,8,0:0:0:0:
200,109,124759,1,2,0:0:0:0:
342,235,124930,1,0,0:0:0:0:
276,0,125100,1,2,0:0:0:0:
44,178,125271,2,0,B|90:180|90:180|120:171|120:171|192:179,1,135.000005149842,8|0,0:0|0:0,0:0:0:0:
53,32,125612,5,2,0:0:0:0:
115,272,125782,1,0,0:0:0:0:
235,62,125953,2,0,P|256:93|262:132,1,67.5000025749208,8|0,0:0|0:0,0:0:0:0:
364,135,126123,2,0,P|353:171|327:200,1,67.5000025749208
390,280,126293,2,0,P|355:295|316:294,1,67.5000025749208
217,243,126464,1,2,0:0:0:0:
89,333,126634,2,0,P|90:289|105:248,1,67.5000025749208,8|0,0:0|0:0,0:0:0:0:
139,135,126805,2,0,P|98:119|65:91,1,67.5000025749208
235,62,126975,5,2,0:0:0:0:
247,339,127146,1,0,0:0:0:0:
369,143,127316,2,0,P|360:176|345:206,1,67.5000025749208,8|0,0:0|0:0,0:0:0:0:
246,338,127487,2,0,P|222:315|204:287,1,67.5000025749208
138,135,127657,2,0,P|171:124|204:124,1,67.5000025749208
359,311,127828,1,2,0:0:0:0:
101,306,127998,2,0,P|103:271|113:239,1,67.5000025749208,8|0,0:0|0:0,0:0:0:0:
304,108,128169,2,0,P|301:142|291:174,1,67.5000025749208
247,339,128339,5,2,0:0:0:0:
211,76,128509,1,0,0:0:0:0:
399,287,128680,1,8,0:0:0:0:
399,58,128850,1,2,0:0:0:0:
276,187,129021,1,0,0:0:0:0:
505,187,129191,1,2,0:0:0:0:
291,334,129362,2,0,B|255:348|255:348|155:332,1,135.000005149842,8|0,0:0|0:0,0:0:0:0:
155,77,129703,5,2,0:0:0:0:
68,281,129873,1,0,0:0:0:0:
242,188,130043,1,8,0:0:0:0:
80,34,130213,1,2,0:0:0:0:
154,258,130384,1,0,0:0:0:0:
367,199,130554,1,2,0:0:0:0:
178,64,130725,2,0,B|174:44|161:32|161:32|188:47|215:43|215:43|244:40|267:48,1,135.000005149842,8|0,0:0|0:0,0:0:0:0:
256,45,131066,6,0,P|222:111|245:181,1,135.000005149842,2|0,0:0|0:0,0:0:0:0:
388,121,131407,2,0,P|353:128|318:121,1,67.5000025749208,8|0,0:0|0:0,0:0:0:0:
127,52,131578,2,0,P|92:45|57:52,1,67.5000025749208
97,338,131748,2,0,B|115:290|96:236|96:236|73:186|96:120,1,202.500007724762
256,189,132089,2,0,L|172:181,1,67.5000025749208,8|0,0:0|0:0,0:0:0:0:
375,301,132259,2,0,L|459:293,1,67.5000025749208
354,11,132430,6,0,B|359:53|348:84|348:84|357:132|357:132|344:168|350:221,1,202.500007724762,2|0,0:0|0:0,0:0:0:0:
512,95,132771,2,0,B|486:86|486:86|441:87,1,67.5000025749208,8|0,0:0|0:0,0:0:0:0:
197,127,132941,2,0,B|223:136|223:136|268:135,1,67.5000025749208
506,127,133112,2,0,B|480:118|480:118|435:119,1,67.5000025749208
191,159,133282,2,0,B|217:168|217:168|262:167,1,67.5000025749208,2|0,0:0|0:0,0:0:0:0:
494,181,133453,1,8,0:0:0:0:
318,5,133623,1,0,0:0:0:0:
253,285,133793,6,0,B|211:300|169:285|169:285|129:273|86:285|86:285|120:251,1,202.500007724762,2|0,0:0|0:0,0:0:0:0:
110,262,134134,2,0,P|116:229|115:196,1,67.5000025749208,8|0,0:0|0:0,0:0:0:0:
60,97,134305,2,0,P|122:80|189:114,1,135.000005149842,2|0,0:0|0:0,0:0:0:0:
253,285,134646,1,2,0:0:0:0:
35,373,134816,1,8,0:0:0:0:
115,196,134987,1,0,0:0:0:0:
378,303,135157,6,0,L|428:357,1,67.5000025749208,2|0,0:0|0:0,0:0:0:0:
403,207,135328,2,0,L|477:203,1,67.5000025749208
345,121,135498,2,0,L|389:61,1,67.5000025749208,8|0,0:0|0:0,0:0:0:0:
247,117,135668,2,0,L|230:44,1,67.5000025749208,2|0,0:0|0:0,0:0:0:0:
176,187,135839,2,0,L|109:153,1,67.5000025749208
296,246,136009,1,2,0:0:0:0:
460,324,136180,2,0,P|440:259|469:203,1,135.000005149842,8|0,0:0|0:0,0:0:0:0:
335,340,136521,6,0,B|299:348|299:348|182:341,1,135.000005149842,2|0,0:0|0:0,0:0:0:0:
78,309,136862,2,0,P|76:346|84:386,1,67.5000025749208,8|0,0:0|0:0,0:0:0:0:
178,121,137032,2,0,P|180:84|172:44,1,67.5000025749208
31,215,137203,2,0,B|76:190|128:213|128:213|178:237|240:212,1,202.500007724762
355,110,137543,2,0,P|315:102|276:109,1,67.5000025749208,8|0,0:0|0:0,0:0:0:0:
436,293,137714,2,0,P|476:301|515:294,1,67.5000025749208
416,196,137884,6,0,P|341:259|363:355,1,202.500007724762,2|0,0:0|0:0,0:0:0:0:
253,353,138225,2,0,P|216:354|180:351,1,67.5000025749208,8|0,0:0|0:0,0:0:0:0:
1,309,138396,2,0,P|33:320|66:329,1,67.5000025749208
251,336,138566,2,0,P|214:337|178:334,1,67.5000025749208
0,292,138737,2,0,P|31:303|64:312,1,67.5000025749208,2|0,0:0|0:0,0:0:0:0:
206,190,138907,1,8,0:0:0:0:
206,190,138993,1,0,0:0:0:0:
206,190,139078,2,0,L|202:115,1,67.5000025749208
183,334,139248,6,0,B|168:292|183:250|183:250|195:210|183:167|183:167|217:201,1,202.500007724762,2|0,0:0|0:0,0:0:0:0:
258,228,139589,2,0,P|225:213|200:174,1,67.5000025749208,8|0,0:0|0:0,0:0:0:0:
121,29,139759,1,2,0:0:0:0:
355,110,139930,1,0,0:0:0:0:
76,209,140100,1,2,0:0:0:0:
253,10,140271,2,0,B|305:16|360:10|360:10|334:32,1,135.000005149842,8|0,0:0|0:0,0:0:0:0:
205,189,140612,5,2,0:0:0:0:
121,29,140782,1,0,0:0:0:0:
11,187,140953,1,8,0:0:0:0:
232,116,141123,1,2,0:0:0:0:
34,175,141293,1,0,0:0:0:0:
117,355,141464,2,0,B|157:363|157:363|192:358,1,67.5000025749208,2|0,0:0|0:0,0:0:0:0:
341,334,141634,1,8,3:1:0:0:
306,308,141719,1,0,3:0:0:0:
294,266,141804,1,0,3:0:0:0:
309,224,141889,1,0,3:0:0:0:
348,201,141976,6,0,B|502:200|502:200|463:172,1,202.500007724762,6|0,0:0|0:0,0:0:0:0:
300,52,142316,1,8,0:0:0:0:
341,334,142487,2,0,B|304:370|304:370|226:343|132:366,1,202.500007724762
52,285,142828,1,2,0:0:0:0:
194,101,142998,2,0,P|223:162|198:225,1,135.000005149842,8|0,0:0|0:0,0:0:0:0:
138,165,143339,5,0,0:0:0:0:
275,36,143509,1,2,0:0:0:0:
308,260,143680,1,8,0:0:0:0:
194,101,143850,1,0,0:0:0:0:
409,170,144021,1,0,0:0:0:0:
200,221,144191,1,2,0:0:0:0:
356,24,144362,2,0,P|422:5|481:39,1,135.000005149842,8|0,0:0|0:0,0:0:0:0:
411,261,144703,6,0,B|426:219|411:177|411:177|399:137|411:94|411:94|377:128,1,202.500007724762,2|0,0:0|0:0,0:0:0:0:
303,220,145043,1,8,0:0:0:0:
496,96,145214,2,0,P|450:13|355:23,1,202.500007724762
253,115,145555,1,2,0:0:0:0:
188,302,145725,2,0,B|242:304|242:304|265:298|265:298|299:309|336:301,1,135.000005149842,8|0,0:0|0:0,0:0:0:0:
166,132,146066,5,0,0:0:0:0:
89,313,146237,1,2,0:0:0:0:
264,299,146407,1,8,0:0:0:0:
68,156,146578,1,0,0:0:0:0:
175,384,146748,1,0,0:0:0:0:
240,154,146918,1,2,0:0:0:0:
24,328,147089,2,0,P|16:255|63:200,1,135.000005149842,8|0,0:0|0:0,0:0:0:0:
311,294,147430,6,0,B|263:290|263:290|239:296|239:296|108:285,1,202.500007724762,2|0,0:0|0:0,0:0:0:0:
0,215,147771,1,8,0:0:0:0:
315,154,147941,2,0,B|258:148|258:148|226:158|226:158|115:151,1,202.500007724762
419,301,148282,1,2,0:0:0:0:
468,134,148453,2,0,L|476:-6,1,135.000005149842,8|0,0:0|0:0,0:0:0:0:
316,155,148793,5,0,0:0:0:0:
387,41,148964,1,2,0:0:0:0:
479,207,149134,1,8,0:0:0:0:
300,57,149305,1,0,0:0:0:0:
378,288,149475,1,0,0:0:0:0:
466,111,149646,1,2,0:0:0:0:
256,227,149816,2,0,P|189:244|122:192,1,135.000005149842,8|0,0:0|0:0,0:0:0:0:
153,43,150157,6,0,B|187:55|222:30|222:30|191:95|203:160,1,202.500007724762,2|0,0:0|0:0,0:0:0:0:
262,326,150498,1,8,0:0:0:0:
344,11,150668,2,0,B|317:27|317:27|256:8|221:31|221:31|187:54|153:43,1,202.500007724762
67,5,151009,1,2,0:0:0:0:
272,133,151180,2,0,B|268:190|268:190|275:219|275:219|270:266,1,135.000005149842,8|0,0:0|0:0,0:0:0:0:
160,308,151521,5,0,0:0:0:0:
404,185,151691,1,2,0:0:0:0:
222,30,151862,1,8,0:0:0:0:
270,266,152032,1,0,0:0:0:0:
98,169,152203,1,0,0:0:0:0:
396,89,152373,1,2,0:0:0:0:
152,281,152543,1,8,0:0:0:0:
152,281,152713,1,0,3:0:0:0:
98,169,152884,6,0,P|161:160|233:184,1,135.000005149842,2|0,0:0|0:0,0:0:0:0:
19,305,153226,2,0,B|7:272|7:272|5:168,1,135.000005149842,8|0,0:0|0:0,0:0:0:0:
133,0,153566,1,0,0:0:0:0:
6,173,153737,1,2,0:0:0:0:
209,204,153907,1,8,0:0:0:0:
28,82,154078,1,0,0:0:0:0:
35,310,154248,6,0,P|114:243|116:215,1,135.000005149842,2|0,0:0|0:0,0:0:0:0:
291,114,154589,2,0,P|212:181|210:209,1,135.000005149842,8|0,0:0|0:0,0:0:0:0:
283,355,154930,1,0,0:0:0:0:
319,215,155100,1,2,0:0:0:0:
180,327,155271,2,0,B|199:352|199:352|382:359,1,202.500007724762,8|0,0:0|0:0,0:0:0:0:
452,382,155612,6,0,B|458:357|451:326|451:326|463:288|463:288|440:237|459:182,1,202.500007724762,2|0,0:0|0:0,0:0:0:0:
291,114,155953,1,8,0:0:0:0:
167,293,156123,2,0,B|239:291|265:291|294:290|369:289,1,202.500007724762
458,184,156464,1,2,0:0:0:0:
201,191,156634,2,0,L|54:188,1,135.000005149842,8|0,0:0|0:0,0:0:0:0:
185,48,156975,5,2,0:0:0:0:
277,234,157146,1,0,0:0:0:0:
73,272,157316,1,8,0:0:0:0:
264,117,157487,1,0,0:0:0:0:
180,332,157657,1,0,0:0:0:0:
79,104,157828,1,2,0:0:0:0:
275,232,157998,2,0,P|340:251|398:222,1,135.000005149842,8|0,0:0|0:0,0:0:0:0:
384,43,158339,6,0,P|336:87|331:153,1,135.000005149842,2|0,0:0|0:0,0:0:0:0:
154,243,158680,2,0,P|216:262|275:233,1,135.000005149842,8|0,0:0|0:0,0:0:0:0:
419,127,159021,1,0,0:0:0:0:
190,49,159191,1,2,0:0:0:0:
307,333,159362,1,8,0:0:0:0:
263,136,159532,1,0,0:0:0:0:
154,243,159703,6,0,B|122:238|93:249|93:249|57:263|21:249,1,135.000005149842,2|0,0:0|0:0,0:0:0:0:
307,333,160043,2,0,B|338:329|367:340|367:340|403:354|439:340,1,135.000005149842,8|0,0:0|0:0,0:0:0:0:
512,234,160384,1,0,0:0:0:0:
332,153,160555,1,2,0:0:0:0:
307,333,160725,2,0,P|240:364|135:294,1,202.500007724762,8|0,0:0|0:0,0:0:0:0:
143,180,161066,6,0,B|150:240|150:240|137:275|137:275|142:380,1,202.500007724762,2|0,0:0|0:0,0:0:0:0:
30,225,161407,1,8,0:0:0:0:
249,130,161578,2,0,B|314:115|404:121|404:121|354:94,1,202.500007724762
259,39,161918,1,2,0:0:0:0:
143,180,162089,1,8,0:0:0:0:
294,235,162259,1,0,0:0:0:0:
46,52,162430,6,0,B|39:112|39:112|52:147|52:147|47:252,1,202.500007724762,2|0,0:0|0:0,0:0:0:0:
121,328,162771,1,8,0:0:0:0:
235,114,162941,1,0,0:0:0:0:
227,317,163112,1,8,0:0:0:0:
135,87,163282,1,2,0:0:0:0:
305,200,163453,1,8,0:0:0:0:
364,120,163623,1,0,0:0:0:0:
366,21,163794,6,0,P|452:98|401:210,1,242.999992584229,2|0,0:0|0:0,0:0:0:0:
336,234,164476,1,0,0:0:0:0:
389,294,164646,1,0,0:0:0:0:
466,318,164816,2,0,B|449:352|449:352|393:381,1,80.9999975280763
329,366,165157,6,0,L|277:380,2,40.4999987640381
318,285,165498,1,0,0:0:0:0:
240,307,165668,1,0,0:0:0:0:
191,196,165838,1,0,0:0:0:0:
312,177,166010,1,0,0:0:0:0:
204,231,166179,1,0,0:0:0:0:
301,156,166351,1,0,0:0:0:0:
216,69,166520,6,0,P|202:107|205:147,1,80.9999975280763
233,73,166862,2,0,P|219:111|222:151,1,80.9999975280763
307,238,167203,2,0,P|320:199|317:159,1,80.9999975280763
290,234,167545,2,0,P|303:195|300:155,1,80.9999975280763
202,86,167884,6,0,P|188:124|191:164,1,80.9999975280763
216,284,168226,1,0,0:0:0:0:
98,252,168396,1,0,0:0:0:0:
216,284,168566,1,0,0:0:0:0:
131,372,168737,1,0,0:0:0:0:
216,283,168907,2,0,P|253:270|293:277,1,80.9999975280763
371,300,169248,6,0,P|389:198|267:183,1,242.999992584229
206,218,169930,1,0,0:0:0:0:
236,100,170101,1,0,0:0:0:0:
183,209,170271,2,0,P|147:226|107:226,1,80.9999975280763
124,130,170612,5,0,0:0:0:0:
180,22,170782,1,0,0:0:0:0:
58,33,170953,1,0,0:0:0:0:
124,130,171123,1,0,0:0:0:0:
242,101,171294,1,0,0:0:0:0:
322,191,171464,1,0,0:0:0:0:
261,85,171635,1,0,0:0:0:0:
302,198,171805,1,0,0:0:0:0:
399,124,171976,6,0,L|394:223,1,80.9999975280763
404,132,172316,2,0,L|399:231,1,80.9999975280763
306,211,172657,6,0,L|311:310,1,80.9999975280763
301,219,172998,2,0,L|306:318,1,80.9999975280763
179,194,173339,5,0,0:0:0:0:
198,314,173510,1,0,0:0:0:0:
179,194,173680,1,0,0:0:0:0:
301,219,173851,1,0,0:0:0:0:
280,111,174021,1,0,0:0:0:0:
404,132,174191,1,0,0:0:0:0:
280,111,174362,2,0,B|177:120,1,80.9999975280763
36,190,174703,6,0,P|51:109|27:24,1,161.999995056153,2|0,0:0|0:0,0:0:0:0:
31,33,175044,2,0,P|84:40|165:16,1,107.999996704102
189,108,175385,1,0,0:0:0:0:
138,206,175555,1,0,0:0:0:0:
189,304,175726,2,0,P|240:312|295:283,1,107.999996704102
467,195,176066,6,0,P|447:271|472:350,1,161.999995056153,2|0,0:0|0:0,0:0:0:0:
471,348,176407,2,0,P|395:336|358:349,1,107.999996704102
361,252,176748,1,0,0:0:0:0:
264,107,176919,1,0,0:0:0:0:
365,259,177089,1,0,0:0:0:0:
259,99,177260,1,0,0:0:0:0:
144,291,177430,6,0,P|219:258|301:303,1,161.999995056153,2|0,0:0|0:0,0:0:0:0:
288,287,177771,2,0,P|266:229|288:187,1,107.999996704102
360,108,178112,1,0,0:0:0:0:
263,45,178282,1,0,0:0:0:0:
166,108,178453,2,0,P|108:127|51:109,1,107.999996704102
108,33,178794,6,0,P|131:126|93:200,1,161.999995056153,2|0,0:0|0:0,0:0:0:0:
106,184,179135,2,0,B|138:176|138:176|220:197,1,107.999996704102
305,247,179476,1,0,0:0:0:0:
212,301,179646,1,0,0:0:0:0:
211,194,179816,1,0,0:0:0:0:
304,140,179987,1,0,0:0:0:0:
458,261,180157,6,0,P|372:232|289:253,1,161.999995056153,2|0,0:0|0:0,0:0:0:0:
304,246,180498,2,0,P|353:222|386:162,1,107.999996704102
117,159,180839,2,0,P|191:130|271:143,1,161.999995056153,2|0,0:0|0:0,0:0:0:0:
271,143,181180,2,0,P|222:119|193:75,1,107.999996704102
2,269,181521,6,0,P|76:297|156:284,1,161.999995056153,2|0,0:0|0:0,0:0:0:0:
156,283,181862,2,0,P|107:306|78:350,1,107.999996704102
456,122,182203,2,0,P|381:150|301:137,1,161.999995056153,2|0,0:0|0:0,0:0:0:0:
302,138,182544,2,0,P|350:161|379:205,1,107.999996704102
86,74,182885,6,0,P|146:117|195:116,1,107.999996704102,2|0,0:0|0:0,0:0:0:0:
162,205,183226,2,0,P|222:162|271:163,1,107.999996704102,2|0,0:0|0:0,0:0:0:0:
238,74,183566,2,0,P|298:117|347:116,1,107.999996704102,2|0,0:0|0:0,0:0:0:0:
314,205,183907,2,0,P|374:162|423:163,1,107.999996704102,2|0,0:0|0:0,0:0:0:0:
264,288,184248,5,2,0:0:0:0:
70,286,184419,1,2,0:0:0:0:
168,74,184589,1,2,0:0:0:0:
176,326,184760,1,2,0:0:0:0:
65,125,184930,1,2,0:0:0:0:
315,242,185101,1,2,0:0:0:0:
315,242,185186,1,2,0:0:0:0:
315,242,185271,2,0,P|281:167|321:86,1,161.999995056153,8|0,0:0|0:0,0:0:0:0:
256,192,185612,12,0,186976,0:0:0:0:
256,192,187146,12,0,190555,0:0:0:0:
132,142,191066,6,0,L|221:146,1,90,8|0,0:0|0:0,0:0:0:0:
137,36,191407,1,8,0:0:0:0:
25,179,191577,1,0,0:0:0:0:
142,224,191748,1,8,0:0:0:0:
311,151,191918,1,0,0:0:0:0:
311,151,192089,2,0,L|214:146,1,90,8|0,0:0|0:0,0:0:0:0:
321,233,192430,6,0,L|231:228,1,90,8|0,0:0|0:0,0:0:0:0:
316,339,192771,1,8,0:0:0:0:
428,196,192941,1,0,0:0:0:0:
311,151,193112,1,8,0:0:0:0:
142,224,193282,1,0,0:0:0:0:
142,224,193453,2,0,L|239:229,1,90,8|0,0:0|0:0,0:0:0:0:
219,61,193793,5,8,0:0:0:0:
231,228,193964,1,8,0:0:0:0:
325,37,194134,1,8,0:0:0:0:
126,95,194305,1,8,0:0:0:0:
225,321,194475,1,8,0:0:0:0:
287,140,194646,1,8,0:0:0:0:
113,237,194816,2,0,P|57:236|101:210,1,135
287,140,195157,5,0,0:0:0:0:
285,167,195242,1,0,0:0:0:0:
284,194,195327,1,0,0:0:0:0:
475,342,195498,1,0,0:0:0:0:
473,311,195583,1,0,0:0:0:0:
471,280,195668,1,0,0:0:0:0:
206,254,195839,5,8,0:0:0:0:
236,284,195924,1,8,0:0:0:0:
278,297,196009,1,2,0:0:0:0:
321,290,196094,1,2,0:0:0:0:
356,265,196180,2,0,P|364:229|355:187,1,58.4999973220826,8|0,0:0|0:0,0:0:0:0:
229,78,196351,2,0,P|221:114|230:156,1,58.4999973220826,2|0,0:0|0:0,0:0:0:0:
438,125,196521,6,0,P|365:98|292:119,1,148.50000453186,6|0,0:0|0:0,0:0:0:0:
44,321,196862,5,0,0:0:0:0:
45,294,196947,1,0,0:0:0:0:
12,267,197032,5,0,0:0:0:0:
12,240,197117,1,0,0:0:0:0:
33,148,197203,5,8,0:0:0:0:
70,187,197288,1,0,0:0:0:0:
121,205,197373,1,0,0:0:0:0:
174,197,197458,1,0,0:0:0:0:
218,167,197543,1,0,0:0:0:0:
243,120,197629,1,0,0:0:0:0:
245,67,197714,1,0,0:0:0:0:
222,18,197799,1,0,0:0:0:0:
211,42,197885,5,0,0:0:0:0:
210,69,197970,1,0,0:0:0:0:
219,94,198055,2,0,P|187:98|151:93,1,53.9999983520508,2|0,0:0|0:0,0:0:0:0:
327,42,198226,2,0,P|359:38|395:43,1,53.9999983520508,2|0,0:0|0:0,0:0:0:0:
357,158,198396,5,0,0:0:0:0:
355,131,198481,1,0,0:0:0:0:
462,127,198566,5,8,0:0:0:0:
463,180,198651,1,0,0:0:0:0:
439,228,198736,1,0,0:0:0:0:
396,258,198821,1,0,0:0:0:0:
342,265,198906,1,0,0:0:0:0:
293,245,198992,1,0,0:0:0:0:
259,204,199077,1,0,0:0:0:0:
248,152,199162,1,0,0:0:0:0:
263,100,199248,6,0,P|291:96|317:98,1,53.9999983520508,2|0,0:0|0:0,0:0:0:0:
131,175,199419,1,0,0:0:0:0:
78,177,199504,1,0,0:0:0:0:
34,147,199589,1,0,0:0:0:0:
17,97,199674,1,0,0:0:0:0:
35,47,199759,1,0,0:0:0:0:
80,18,199845,1,0,0:0:0:0:
106,100,199930,5,8,0:0:0:0:
101,126,200015,1,0,0:0:0:0:
97,153,200100,1,0,0:0:0:0:
93,180,200185,1,0,0:0:0:0:
89,206,200270,1,0,0:0:0:0:
85,233,200356,1,0,0:0:0:0:
81,260,200441,1,0,0:0:0:0:
77,286,200526,1,0,0:0:0:0:
73,313,200612,6,0,L|11:327,1,53.9999983520508
163,190,200782,2,0,L|182:128,1,53.9999983520508,2|0,0:0|0:0,0:0:0:0:
225,329,200953,2,0,L|268:376,1,53.9999983520508,2|0,0:0|0:0,0:0:0:0:
79,101,201123,2,0,L|15:99,1,53.9999983520508
274,236,201294,2,0,L|338:234,1,53.9999983520508
235,134,201464,5,0,0:0:0:0:
190,164,201549,1,0,0:0:0:0:
166,211,201634,1,0,0:0:0:0:
168,265,201719,1,0,0:0:0:0:
195,311,201805,2,0,P|161:308|133:317,1,53.9999983520508
327,234,201976,6,0,P|352:173|330:105,1,135,6|0,0:0|0:0,0:0:0:0:
117,31,202316,2,0,B|89:37|89:37|38:33,1,67.5000025749208,8|0,0:0|0:0,0:0:0:0:
190,164,202487,2,0,B|218:170|218:170|268:166,1,67.5000025749208
73,240,202657,2,0,B|68:289|68:289|75:314|75:314|70:386,1,135.000005149842,0|2,0:0|0:0,0:0:0:0:
242,268,202998,2,0,P|201:263|160:271,1,67.5000025749208,8|0,0:0|0:0,0:0:0:0:
350,348,203169,2,0,P|391:353|432:345,1,67.5000025749208
465,137,203339,6,0,P|438:201|474:264,1,135.000005149842,2|0,0:0|0:0,0:0:0:0:
346,43,203680,2,0,P|319:72|304:108,1,67.5000025749208,8|0,0:0|0:0,0:0:0:0:
197,90,203851,2,0,P|201:129|219:163,1,67.5000025749208
314,342,204021,2,0,B|322:305|322:305|317:185,1,135.000005149842,0|2,0:0|0:0,0:0:0:0:
158,301,204362,2,0,L|233:293,1,67.5000025749208,8|0,0:0|0:0,0:0:0:0:
476,195,204532,2,0,L|401:187,1,67.5000025749208
95,154,204703,6,0,P|160:144|196:89,1,135.000005149842,2|0,0:0|0:0,0:0:0:0:
11,108,205044,2,0,P|1:142|4:187,1,67.5000025749208,8|0,0:0|0:0,0:0:0:0:
283,133,205214,2,0,P|292:98|290:54,1,67.5000025749208
63,262,205385,2,0,B|105:270|105:270|212:257,1,135.000005149842,0|2,0:0|0:0,0:0:0:0:
446,355,205726,2,0,P|441:319|446:281,1,67.5000025749208,8|0,0:0|0:0,0:0:0:0:
368,210,205896,2,0,P|373:174|368:136,1,67.5000025749208
215,170,206066,6,0,L|291:173,1,67.5000025749208,2|0,0:0|0:0,0:0:0:0:
493,69,206237,2,0,L|417:72,1,67.5000025749208
215,159,206407,2,0,L|291:162,1,67.5000025749208,8|0,0:0|0:0,0:0:0:0:
493,58,206578,2,0,L|417:61,1,67.5000025749208,2|0,0:0|0:0,0:0:0:0:
122,89,206748,5,8,0:0:0:0:
94,123,206833,1,8,0:0:0:0:
86,167,206918,1,2,0:0:0:0:
103,208,207003,1,2,0:0:0:0:
138,236,207089,2,0,P|145:198|135:157,1,67.5000025749208,8|0,0:0|0:0,0:0:0:0:
12,318,207260,2,0,P|5:356|15:397,1,67.5000025749208,0|0,3:0|0:0,0:0:0:0:
236,353,207430,6,0,B|196:351|196:351|165:360|165:360|95:355,1,135.000005149842,6|0,0:0|0:0,0:0:0:0:
316,235,207771,5,0,0:0:0:0:
342,234,207856,1,0,0:0:0:0:
378,269,207941,5,0,0:0:0:0:
404,270,208026,1,0,0:0:0:0:
481,200,208112,5,8,0:0:0:0:
497,149,208197,1,0,0:0:0:0:
488,96,208282,1,0,0:0:0:0:
454,54,208367,1,0,0:0:0:0:
405,33,208452,1,0,0:0:0:0:
352,37,208538,1,0,0:0:0:0:
307,66,208623,1,0,0:0:0:0:
281,112,208708,1,0,0:0:0:0:
307,114,208793,5,0,0:0:0:0:
333,116,208879,1,0,0:0:0:0:
359,118,208964,2,0,L|357:53,1,53.9999983520508,2|0,0:0|0:0,0:0:0:0:
205,304,209135,2,0,L|202:369,1,53.9999983520508,2|0,0:0|0:0,0:0:0:0:
290,213,209305,5,0,0:0:0:0:
263,211,209390,1,0,0:0:0:0:
330,304,209476,5,8,0:0:0:0:
381,317,209561,1,0,0:0:0:0:
433,304,209646,1,0,0:0:0:0:
471,266,209731,1,0,0:0:0:0:
486,215,209816,1,0,0:0:0:0:
473,163,209902,1,0,0:0:0:0:
436,124,209987,1,0,0:0:0:0:
385,109,210072,1,0,0:0:0:0:
330,119,210157,6,0,P|348:66|385:109,1,135,2|0,0:0|0:0,0:0:0:0:
398,237,210498,5,0,0:0:0:0:
348,216,210583,1,0,0:0:0:0:
294,214,210668,1,0,0:0:0:0:
244,233,210753,1,0,0:0:0:0:
151,310,210839,5,8,0:0:0:0:
100,325,210924,1,0,0:0:0:0:
49,308,211009,1,0,0:0:0:0:
18,265,211094,1,0,0:0:0:0:
17,212,211179,1,0,0:0:0:0:
46,168,211265,1,0,0:0:0:0:
96,149,211351,2,0,P|125:145|162:152,1,53.9999983520508,2|0,0:0|0:0,0:0:0:0:
184,346,211521,6,0,P|154:278|178:217,1,135,2|0,0:0|0:0,0:0:0:0:
225,165,211862,1,2,0:0:0:0:
243,138,211947,1,0,0:0:0:0:
254,108,212032,1,0,0:0:0:0:
255,75,212117,1,0,0:0:0:0:
245,44,212203,2,0,B|265:43|287:47|287:47|321:41|321:41|364:51|413:40,1,161.999995056153
486,195,212544,1,8,0:0:0:0:
485,239,212629,1,8,0:0:0:0:
484,283,212714,2,0,P|448:286|413:277,1,67.5000025749208,2|0,0:0|0:0,0:0:0:0:
206,225,212885,6,0,B|170:219|136:230|136:230|107:214|70:214,1,135,2|0,0:0|0:0,0:0:0:0:
180,384,213226,2,0,P|185:349|180:312,1,67.5000025749208,8|0,0:0|0:0,0:0:0:0:
139,135,213396,2,0,P|134:100|139:63,1,67.5000025749208
354,102,213566,2,0,P|290:118|224:101,1,135.000005149842,0|2,0:0|0:0,0:0:0:0:
445,66,213907,2,0,P|450:101|445:138,1,67.5000025749208,8|0,0:0|0:0,0:0:0:0:
379,287,214078,2,0,P|374:322|379:359,1,67.5000025749208
456,254,214248,6,0,P|405:206|339:210,1,135.000005149842,2|0,0:0|0:0,0:0:0:0:
238,306,214589,2,0,P|215:271|207:232,1,67.5000025749208,8|0,0:0|0:0,0:0:0:0:
115,241,214760,2,0,P|127:200|151:169,1,67.5000025749208
85,104,214930,2,0,P|151:86|217:125,1,135.000005149842,0|2,0:0|0:0,0:0:0:0:
293,194,215271,2,0,P|330:197|370:193,1,67.5000025749208,8|0,0:0|0:0,0:0:0:0:
437,24,215441,2,0,P|415:54|399:91,1,67.5000025749208
470,295,215612,6,0,B|459:262|468:229|468:229|479:193|467:150,1,135.000005149842,2|0,0:0|0:0,0:0:0:0:
360,315,215953,2,0,L|280:315,1,67.5000025749208,8|0,0:0|0:0,0:0:0:0:
182,361,216123,2,0,L|102:361,1,67.5000025749208
21,296,216294,2,0,B|20:257|20:257|31:226|31:226|27:159,1,135.000005149842,0|2,0:0|0:0,0:0:0:0:
87,17,216635,2,0,P|48:38|23:72,1,67.5000025749208,8|0,0:0|0:0,0:0:0:0:
186,127,216805,2,0,P|155:112|122:109,1,67.5000025749208
137,213,216976,5,2,0:0:0:0:
340,337,217998,1,0,3:0:0:0:
340,337,218339,6,0,B|307:348|307:348|199:327,1,135.000005149842,6|0,0:0|0:0,0:0:0:0:
272,129,218680,2,0,P|313:190|298:260,1,135.000005149842,8|0,0:0|0:0,0:0:0:0:
208,328,219021,1,0,0:0:0:0:
71,120,219191,1,2,0:0:0:0:
208,207,219362,1,8,0:0:0:0:
69,343,219532,1,0,0:0:0:0:
61,42,219703,6,0,B|86:91|63:141|63:141|39:190|62:247,1,202.500007724762,2|0,0:0|0:0,0:0:0:0:
283,196,220044,2,0,B|241:193|241:193|208:199|208:199|141:192,1,135.000005149842,8|0,0:0|0:0,0:0:0:0:
245,289,220385,1,0,0:0:0:0:
383,118,220555,1,2,0:0:0:0:
187,99,220726,1,8,0:0:0:0:
247,274,220896,1,0,0:0:0:0:
387,253,221066,6,0,L|383:102,1,135.000005149842,2|0,0:0|0:0,0:0:0:0:
319,326,221407,2,0,P|383:352|451:331,1,135.000005149842,8|0,0:0|0:0,0:0:0:0:
219,97,221748,1,0,0:0:0:0:
199,363,221919,1,2,0:0:0:0:
322,206,222089,1,8,0:0:0:0:
92,273,222260,1,0,0:0:0:0:
446,295,222430,6,0,P|473:274|491:228,1,67.5000025749208,2|0,0:0|0:0,0:0:0:0:
405,222,222601,2,0,P|406:187|382:144,1,67.5000025749208
322,206,222771,2,0,P|296:183|248:173,1,67.5000025749208,8|0,0:0|0:0,0:0:0:0:
256,259,222941,2,0,P|222:263|183:294,1,67.5000025749208
322,368,223112,2,0,P|340:339|341:289,1,67.5000025749208
340,78,223282,1,2,0:0:0:0:
194,281,223453,1,8,0:0:0:0:
446,295,223623,1,0,0:0:0:0:
232,19,223794,6,0,B|227:59|227:59|236:88|236:88|231:121|239:166,1,135.000005149842,2|0,0:0|0:0,0:0:0:0:
441,49,224135,2,0,P|381:23|319:44,1,135.000005149842,8|0,0:0|0:0,0:0:0:0:
194,228,224476,1,0,0:0:0:0:
357,161,224646,1,2,0:0:0:0:
162,79,224816,1,8,0:0:0:0:
337,165,224987,1,0,0:0:0:0:
154,357,225157,6,0,B|129:308|154:254|154:254|145:203|145:203|154:150,1,202.500007724762,2|0,0:0|0:0,0:0:0:0:
374,310,225498,2,0,L|239:307,1,135.000005149842,8|0,0:0|0:0,0:0:0:0:
381,171,225839,1,0,0:0:0:0:
450,367,226010,1,2,0:0:0:0:
239,174,226180,1,8,0:0:0:0:
463,88,226351,1,0,0:0:0:0:
374,310,226521,6,0,B|343:327|343:327|243:305,1,135.000005149842,2|0,0:0|0:0,0:0:0:0:
178,60,226862,2,0,B|208:78|208:78|239:175,1,135.000005149842,8|0,0:0|0:0,0:0:0:0:
158,362,227203,1,0,0:0:0:0:
52,170,227373,1,2,0:0:0:0:
295,231,227544,1,8,0:0:0:0:
136,270,227714,1,0,0:0:0:0:
305,97,227885,6,0,L|447:103,1,135.000005149842,2|0,0:0|0:0,0:0:0:0:
136,270,228226,2,0,L|278:264,1,135.000005149842,8|0,0:0|0:0,0:0:0:0:
151,125,228566,1,0,0:0:0:0:
123,361,228737,1,2,0:0:0:0:
305,97,228907,1,8,0:0:0:0:
333,333,229078,1,2,0:0:0:0:
43,31,229248,6,0,P|19:93|54:166,1,135.000005149842,2|0,0:0|0:0,0:0:0:0:
223,302,229589,2,0,P|247:236|219:173,1,135.000005149842,8|0,0:0|0:0,0:0:0:0:
136,79,229930,1,0,0:0:0:0:
359,154,230101,1,2,0:0:0:0:
223,302,230271,1,8,0:0:0:0:
292,48,230441,1,0,0:0:0:0:
472,357,230612,6,0,B|455:319|477:269|477:269|501:222|477:161,1,202.500007724762,2|0,0:0|0:0,0:0:0:0:
267,212,230953,2,0,P|352:230|400:216,1,135.000005149842,8|0,0:0|0:0,0:0:0:0:
91,47,231294,1,0,0:0:0:0:
139,270,231464,1,2,0:0:0:0:
224,77,231635,1,8,0:0:0:0:
45,179,231805,1,0,0:0:0:0:
139,270,231976,6,0,B|144:228|144:228|137:198|137:198|144:123,1,135.000005149842,2|0,0:0|0:0,0:0:0:0:
199,340,232316,2,0,L|349:331,1,135.000005149842,8|0,0:0|0:0,0:0:0:0:
417,171,232657,1,0,0:0:0:0:
237,192,232828,1,2,0:0:0:0:
421,338,232998,1,8,0:0:0:0:
447,84,233169,1,0,0:0:0:0:
247,10,233339,6,0,P|206:-2|166:7,1,67.5000025749208,2|0,0:0|0:0,0:0:0:0:
200,99,233510,2,0,P|164:122|146:159,1,67.5000025749208
237,192,233680,2,0,P|232:234|248:271,1,67.5000025749208,8|0,0:0|0:0,0:0:0:0:
332,223,233851,2,0,P|361:253|400:265,1,67.5000025749208
376,80,234021,2,0,P|334:89|305:118,1,67.5000025749208
115,243,234191,1,2,0:0:0:0:
383,262,234362,1,8,0:0:0:0:
200,99,234532,1,0,0:0:0:0:
375,157,234703,6,0,P|444:166|509:151,1,135.000005149842,2|0,0:0|0:0,0:0:0:0:
189,13,235044,2,0,P|120:4|55:19,1,135.000005149842,8|0,0:0|0:0,0:0:0:0:
320,47,235385,1,0,0:0:0:0:
252,250,235555,1,2,0:0:0:0:
189,13,235726,1,8,0:0:0:0:
304,160,235896,1,0,0:0:0:0:
75,107,236066,6,0,B|71:175|71:175|80:207|80:207|78:328,1,202.500007724762,2|0,0:0|0:0,0:0:0:0:
215,384,236407,2,0,L|218:232,1,135.000005149842,8|0,0:0|0:0,0:0:0:0:
227,78,236748,1,0,0:0:0:0:
78,308,236919,1,2,0:0:0:0:
359,268,237089,1,8,0:0:0:0:
150,163,237260,1,0,0:0:0:0:
191,368,237430,6,0,L|325:363,1,135.000005149842,2|0,0:0|0:0,0:0:0:0:
150,163,237771,2,0,L|15:158,1,135.000005149842,8|0,0:0|0:0,0:0:0:0:
167,300,238112,1,0,0:0:0:0:
327,132,238282,1,2,0:0:0:0:
131,40,238453,1,8,0:0:0:0:
245,234,238623,1,0,0:0:0:0:
300,28,238794,5,2,0:0:0:0:
150,163,238964,1,0,0:0:0:0:
387,213,239135,1,8,0:0:0:0:
208,69,239305,1,0,0:0:0:0:
251,311,239476,1,0,0:0:0:0:
382,54,239646,1,2,0:0:0:0:
150,163,239816,1,8,0:0:0:0:
387,213,239987,1,0,0:0:0:0:
251,311,240157,6,0,B|231:307|213:298|213:298|183:313|183:313|145:304|103:312,1,135.000005149842,2|0,0:0|0:0,0:0:0:0:
122,309,240498,2,0,L|135:155,1,135.000005149842,8|0,0:0|0:0,0:0:0:0:
237,71,240839,1,0,0:0:0:0:
320,266,241010,1,2,0:0:0:0:
463,22,241180,2,0,L|468:114,1,67.5000025749208,8|0,0:0|0:0,0:0:0:0:
370,134,241351,2,0,L|365:226,1,67.5000025749208
449,377,241521,6,0,B|449:318|449:318|464:268|464:268|462:172,1,202.500007724762,2|0,0:0|0:0,0:0:0:0:
361,20,241862,1,8,0:0:0:0:
168,170,242032,1,0,0:0:0:0:
308,241,242203,1,0,0:0:0:0:
143,63,242373,1,2,0:0:0:0:
71,323,242544,2,0,P|105:328|150:323,1,67.5000025749208,8|0,0:0|0:0,0:0:0:0:
308,241,242714,2,0,P|342:236|387:241,1,67.5000025749208
258,323,242885,6,0,P|209:230|262:155,1,202.500007724762,2|0,0:0|0:0,0:0:0:0:
405,57,243226,1,8,0:0:0:0:
308,241,243396,1,0,0:0:0:0:
257,14,243566,1,0,0:0:0:0:
447,208,243737,1,2,0:0:0:0:
153,88,243907,2,0,L|64:87,1,67.5000025749208,8|0,0:0|0:0,0:0:0:0:
308,241,244078,2,0,L|397:240,1,67.5000025749208
257,14,244248,5,2,0:0:0:0:
136,222,244419,1,0,0:0:0:0:
338,57,244589,1,8,0:0:0:0:
235,290,244760,1,0,0:0:0:0:
153,88,244930,1,0,0:0:0:0:
374,197,245101,1,2,0:0:0:0:
138,322,245271,1,8,0:0:0:0:
164,101,245441,1,0,0:0:0:0:
363,291,245612,6,0,B|343:287|325:278|325:278|295:293|295:293|257:284|215:292,1,135.000005149842,2|0,0:0|0:0,0:0:0:0:
91,193,245953,2,0,L|239:190,1,135.000005149842,8|0,0:0|0:0,0:0:0:0:
102,68,246294,1,0,0:0:0:0:
93,285,246464,1,2,0:0:0:0:
265,129,246635,2,0,L|268:53,1,67.5000025749208,8|0,0:0|0:0,0:0:0:0:
334,262,246805,2,0,L|331:338,1,67.5000025749208
335,175,246976,6,0,B|404:152|473:175|473:175|444:192|410:181,1,202.500007724762,2|0,0:0|0:0,0:0:0:0:
257,217,247316,2,0,P|190:224|124:209,1,135.000005149842,8|0,0:0|0:0,0:0:0:0:
264,70,247657,1,0,0:0:0:0:
188,312,247828,1,2,0:0:0:0:
108,18,247998,2,0,L|32:10,1,67.5000025749208,8|0,0:0|0:0,0:0:0:0:
196,62,248169,2,0,L|263:69,1,67.5000025749208
70,112,248339,6,0,B|68:165|68:165|80:221|80:221|66:273|77:322,1,202.500007724762,2|0,0:0|0:0,0:0:0:0:
310,291,248680,2,0,P|238:277|168:283,1,135.000005149842,8|0,0:0|0:0,0:0:0:0:
276,370,249021,1,0,0:0:0:0:
348,102,249191,1,2,0:0:0:0:
174,146,249362,1,8,0:0:0:0:
407,269,249532,1,0,0:0:0:0:
183,233,249703,5,8,3:1:0:0:
172,277,249788,1,0,3:0:0:0:
181,321,249873,2,0,P|194:287|178:237,1,67.5000025749208,0|0,3:0|3:0,3:0:0:0:
138,97,250044,5,8,3:1:0:0:
105,66,250129,1,0,3:0:0:0:
62,51,250214,2,0,P|84:79|136:90,1,67.5000025749208,0|0,3:0|3:0,3:0:0:0:
279,126,250385,5,8,3:1:0:0:
322,113,250470,1,0,3:0:0:0:
356,83,250555,2,0,P|320:88|284:127,1,67.5000025749208,0|0,3:0|3:0,3:0:0:0:
78,216,250726,5,8,0:0:0:0:
305,327,250896,1,2,0:0:0:0:
187,51,251066,6,0,L|184:204,1,135.000005149842,2|0,0:0|0:0,0:0:0:0:
394,274,251407,2,0,L|391:121,1,135.000005149842,8|0,0:0|0:0,0:0:0:0:
187,51,251748,1,2,0:0:0:0:
262,266,251919,1,0,0:0:0:0:
500,169,252089,1,8,0:0:0:0:
356,11,252260,1,0,0:0:0:0:
262,266,252430,6,0,B|330:299|410:261|410:261|380:245|350:257,1,202.500007724762,2|0,0:0|0:0,0:0:0:0:
97,184,252771,2,0,P|84:244|97:318,1,135.000005149842,8|0,0:0|0:0,0:0:0:0:
261,147,253112,1,2,0:0:0:0:
26,56,253282,1,0,0:0:0:0:
177,248,253453,1,8,0:0:0:0:
161,68,253623,1,0,0:0:0:0:
93,342,253794,6,0,L|301:332,1,202.500007724762,2|0,0:0|0:0,0:0:0:0:
393,324,254135,1,8,0:0:0:0:
228,67,254305,1,0,0:0:0:0:
222,254,254476,1,2,0:0:0:0:
325,118,254646,1,0,0:0:0:0:
106,177,254816,1,8,0:0:0:0:
354,227,254987,1,0,0:0:0:0:
147,71,255157,5,2,0:0:0:0:
169,308,255328,1,0,0:0:0:0:
236,116,255498,1,8,0:0:0:0:
178,322,255669,1,0,0:0:0:0:
50,168,255839,1,2,0:0:0:0:
259,266,256010,1,0,0:0:0:0:
139,82,256180,1,8,0:0:0:0:
95,261,256351,1,0,0:0:0:0:
247,335,256521,6,0,B|287:349|287:349|396:330,1,135.000005149842,2|0,0:0|0:0,0:0:0:0:
312,146,256862,2,0,B|272:132|272:132|163:151,1,135.000005149842,8|0,0:0|0:0,0:0:0:0:
68,174,257203,1,2,0:0:0:0:
257,257,257373,1,0,0:0:0:0:
146,23,257544,1,8,0:0:0:0:
250,62,257714,1,0,0:0:0:0:
68,174,257885,6,0,B|45:226|67:277|67:277|87:328|66:383,1,202.500007724762,2|0,0:0|0:0,0:0:0:0:
155,157,258226,2,0,P|120:100|57:84,1,135.000005149842,8|0,0:0|0:0,0:0:0:0:
167,249,258566,1,2,0:0:0:0:
242,91,258737,1,0,0:0:0:0:
321,318,258907,2,0,P|369:233|329:145,1,202.500007724762,8|0,0:0|0:0,0:0:0:0:
239,123,259248,6,0,P|337:117|366:15,1,202.500007724762,2|0,0:0|0:0,0:0:0:0:
134,6,259589,1,8,0:0:0:0:
223,257,259760,1,0,0:0:0:0:
285,46,259930,1,2,0:0:0:0:
98,190,260101,1,0,0:0:0:0:
374,229,260271,2,0,L|522:213,1,135.000005149842,8|0,0:0|0:0,0:0:0:0:
239,123,260612,6,0,B|235:166|250:198|250:198|239:230|239:230|256:281|241:332,1,202.500007724762,2|0,0:0|0:0,0:0:0:0:
128,284,260953,1,8,0:0:0:0:
335,136,261123,1,0,0:0:0:0:
330,383,261294,1,2,0:0:0:0:
146,79,261464,1,2,0:0:0:0:
422,59,261635,1,8,3:1:0:0:
423,85,261720,1,0,3:0:0:0:
425,112,261805,1,0,3:0:0:0:
426,139,261890,1,0,3:0:0:0:
428,166,261976,6,0,P|385:174|337:164,1,90,2|0,0:0|0:0,0:0:0:0:
276,102,262316,1,0,0:0:0:0:
186,94,262487,1,0,0:0:0:0:
113,147,262657,2,0,L|109:247,1,90
156,313,262998,1,0,0:0:0:0:
226,326,263169,1,0,0:0:0:0:
292,298,263339,6,0,P|336:287|397:292,1,90
425,282,263680,1,0,0:0:0:0:
428,237,263851,1,0,0:0:0:0:
447,196,264021,2,0,L|346:195,1,90
326,114,264362,1,0,0:0:0:0:
326,114,264532,1,0,0:0:0:0:
326,114,264703,6,0,L|319:214,1,90
230,215,265044,1,0,0:0:0:0:
230,215,265214,1,0,0:0:0:0:
230,215,265385,2,0,L|237:315,1,90
129,150,265726,2,0,L|136:50,1,90
241,17,266066,5,0,0:0:0:0:
367,66,266237,1,0,0:0:0:0:
286,105,266407,1,0,0:0:0:0:
286,105,266578,1,0,0:0:0:0:
426,220,266748,2,0,L|433:113,1,90
511,333,267089,2,0,L|506:244,1,90
381,301,267430,5,0,0:0:0:0:
230,340,267601,1,0,0:0:0:0:
313,372,267771,1,0,0:0:0:0:
313,372,267941,1,0,0:0:0:0:
166,174,268112,2,0,P|160:222|168:285,1,90
260,97,268453,2,0,P|266:49|258:-14,1,90
171,70,268794,5,0,0:0:0:0:
247,218,268964,1,0,0:0:0:0:
330,183,269135,1,0,0:0:0:0:
330,183,269305,1,0,0:0:0:0:
153,68,269476,2,0,L|56:58,1,90
247,218,269816,2,0,L|150:228,1,90
309,325,270157,5,0,0:0:0:0:
472,310,270328,1,0,0:0:0:0:
400,256,270498,1,0,0:0:0:0:
400,256,270669,1,0,0:0:0:0:
305,177,270839,2,0,L|294:82,1,90
400,256,271180,2,0,L|411:161,1,90
468,322,271521,5,0,0:0:0:0:
281,358,271691,1,0,0:0:0:0:
327,280,271862,1,0,0:0:0:0:
327,280,272032,1,0,0:0:0:0:
143,166,272203,2,0,L|256:162,1,90
384,90,272544,2,0,L|271:86,1,90
444,158,272885,5,0,0:0:0:0:
451,247,273055,1,0,0:0:0:0:
428,334,273226,2,0,P|380:342|329:330,1,90
269,245,273566,1,0,0:0:0:0:
288,113,273737,1,0,0:0:0:0:
156,239,273907,1,0,0:0:0:0:
175,371,274078,1,0,0:0:0:0:
184,137,274248,5,0,0:0:0:0:
94,126,274419,1,0,0:0:0:0:
18,175,274589,2,0,P|13:226|31:275,1,90
216,228,274930,1,0,0:0:0:0:
112,210,275101,1,0,0:0:0:0:
267,303,275271,1,0,0:0:0:0:
371,285,275442,1,0,0:0:0:0:
307,200,275612,5,0,0:0:0:0:
315,110,275782,1,0,0:0:0:0:
299,21,275953,2,0,L|195:25,1,90
100,57,276294,1,0,0:0:0:0:
119,218,276464,1,0,0:0:0:0:
245,117,276635,1,0,0:0:0:0:
226,278,276805,1,0,0:0:0:0:
321,188,276976,5,0,0:0:0:0:
410,195,277146,1,0,0:0:0:0:
491,157,277316,2,0,L|495:59,1,90
329,61,277657,1,0,0:0:0:0:
434,23,277828,1,0,0:0:0:0:
328,162,277998,1,0,0:0:0:0:
223,124,278169,1,0,0:0:0:0:
411,289,278339,5,0,0:0:0:0:
438,202,278510,1,0,0:0:0:0:
409,116,278680,2,0,L|299:110,1,90
217,186,279021,1,0,0:0:0:0:
234,295,279191,1,0,0:0:0:0:
149,110,279362,1,0,0:0:0:0:
166,1,279532,1,0,0:0:0:0:
61,106,279703,5,0,0:0:0:0:
62,195,279873,1,0,0:0:0:0:
89,280,280044,2,0,L|201:277,1,90
285,192,280385,1,0,0:0:0:0:
308,330,280555,1,0,0:0:0:0:
425,105,280726,1,0,0:0:0:0:
402,243,280896,1,0,0:0:0:0:
334,46,281066,5,0,0:0:0:0:
416,8,281237,1,0,0:0:0:0:
493,52,281407,2,0,L|498:150,1,90
453,265,281748,1,0,0:0:0:0:
339,187,281919,1,0,0:0:0:0:
335,327,282089,2,0,L|333:375,5,30
309,302,282430,6,0,L|209:298,1,90,8|0,3:3|0:0,0:0:0:0:
224,161,282771,5,8,3:3:0:0:
272,127,282884,5,8,3:3:0:0:
331,127,282998,5,8,3:3:0:0:
381,159,283112,5,8,3:3:0:0:
184,139,283453,5,8,3:3:0:0:
256,88,283566,5,8,3:3:0:0:
344,88,283680,5,8,3:3:0:0:
419,136,283794,6,0,P|507:122|413:108,1,270,10|0,0:1|0:0,0:0:0:0:
367,240,284476,1,0,0:0:0:0:
496,231,284646,1,0,0:0:0:0:
438,355,284817,2,0,B|341:369,1,90
232,322,285158,6,0,L|230:376,2,45
180,239,285499,1,0,0:0:0:0:
268,236,285669,1,0,0:0:0:0:
131,112,285839,1,0,0:0:0:0:
300,93,286011,1,0,0:0:0:0:
122,116,286180,1,0,0:0:0:0:
308,90,286352,1,0,0:0:0:0:
131,30,286521,6,0,P|117:80|131:135,1,90
308,90,286862,2,0,P|258:76|203:90,1,90
248,267,287203,2,0,P|262:217|248:162,1,90
71,207,287544,2,0,P|121:221|176:207,1,90
199,301,287885,6,0,L|94:292,1,90
248,228,288227,1,0,0:0:0:0:
321,277,288397,1,0,0:0:0:0:
272,350,288567,1,0,0:0:0:0:
199,301,288738,1,0,0:0:0:0:
321,277,288908,2,0,P|367:263|415:281,1,90
498,318,289249,6,0,L|496:206,2,90
393,263,289761,1,0,0:0:0:0:
225,298,289931,1,0,0:0:0:0:
277,145,290102,1,0,0:0:0:0:
393,263,290272,2,0,P|404:218|389:165,1,90
174,151,290613,5,0,0:0:0:0:
188,253,290783,1,0,0:0:0:0:
299,214,290953,1,0,0:0:0:0:
285,316,291123,1,0,0:0:0:0:
91,236,291295,1,0,0:0:0:0:
220,150,291465,1,0,0:0:0:0:
82,242,291636,1,0,0:0:0:0:
228,145,291806,1,0,0:0:0:0:
82,242,291977,6,0,L|87:143,1,90
77,234,292317,2,0,L|82:135,1,90
228,145,292658,6,0,L|233:244,1,90
223,153,292999,2,0,L|228:252,1,90,0|0,0:0|0:0,0:0:0:0:
251,341,293340,5,0,0:0:0:0:
145,231,293511,1,0,0:0:0:0:
309,271,293681,1,0,0:0:0:0:
223,153,293852,1,0,0:0:0:0:
309,261,294022,1,0,0:0:0:0:
356,93,294192,1,0,0:0:0:0:
309,271,294363,2,0,B|281:289|281:289|204:271,1,90,0|0,0:0|0:0,0:0:0:0:
405,214,294704,6,0,P|418:270|393:345,1,135,4|0,0:0|0:0,0:0:0:0:
394,342,295045,2,0,P|434:336|485:344,1,90,0|0,0:0|0:0,0:0:0:0:
303,266,295386,1,0,0:0:0:0:
252,168,295556,1,0,0:0:0:0:
303,70,295726,2,0,P|354:62|409:91,1,90,0|0,0:0|0:0,0:0:0:0:
141,220,296066,6,0,P|128:164|153:89,1,135,4|0,0:0|0:0,0:0:0:0:
151,91,296407,2,0,P|111:97|60:89,1,90,0|0,0:0|0:0,0:0:0:0:
216,160,296748,1,0,0:0:0:0:
111,19,296920,1,0,0:0:0:0:
220,167,297090,1,0,0:0:0:0:
106,11,297261,1,0,0:0:0:0:
220,302,297430,6,0,L|220:153,1,135,4|0,0:0|0:0,0:0:0:0:
220,167,297771,2,0,B|266:180|266:180|323:167,1,90,0|0,0:0|0:0,0:0:0:0:
377,87,298112,1,0,0:0:0:0:
280,24,298283,1,0,0:0:0:0:
183,87,298454,2,0,P|136:94|72:74,1,90,0|0,0:0|0:0,0:0:0:0:
182,197,298794,6,0,P|225:188|270:193,1,90
365,216,299135,2,0,P|366:171|345:132,1,90
405,44,299477,1,0,0:0:0:0:
494,103,299646,1,0,0:0:0:0:
435,192,299816,1,0,0:0:0:0:
346,133,299987,1,0,0:0:0:0:
512,181,300157,6,0,L|510:323,1,135,4|0,0:0|0:0,0:0:0:0:
510,315,300498,2,0,P|460:307|413:318,1,90,0|0,0:0|0:0,0:0:0:0:
316,337,300839,1,0,0:0:0:0:
232,268,301010,1,0,0:0:0:0:
214,161,301180,2,0,L|124:168,1,90,0|0,0:0|0:0,0:0:0:0:
297,84,301521,6,0,L|431:95,1,135,4|0,0:0|0:0,0:0:0:0:
431,95,301862,2,0,P|419:145|439:192,1,90,0|0,0:0|0:0,0:0:0:0:
494,139,302203,1,0,0:0:0:0:
341,179,302373,1,0,0:0:0:0:
499,137,302544,1,0,0:0:0:0:
335,180,302714,1,0,0:0:0:0:
229,341,302885,6,0,P|241:274|226:209,1,135,4|0,0:0|0:0,0:0:0:0:
195,191,303226,2,0,P|186:144|195:94,1,90
115,39,303566,2,0,L|16:41,1,90
192,102,303907,2,0,L|291:104,1,90
377,292,304248,5,0,0:0:0:0:
317,202,304419,1,0,0:0:0:0:
212,228,304589,1,0,0:0:0:0:
200,336,304760,1,0,0:0:0:0:
297,384,304930,1,0,0:0:0:0:
285,295,305102,5,2,0:1:0:0:
285,295,305272,2,0,P|306:232|275:174,1,135,8|0,0:1|0:0,0:0:0:0:
227,239,305612,6,0,B|263:236|263:236|292:246|292:246|327:239|327:239|363:249|363:249|403:237|403:237|445:251,1,225,2|0,0:1|0:0,0:0:0:0:
451,219,307828,1,0,0:0:0:0:
449,174,307913,1,0,0:0:0:0:
431,133,307998,6,0,L|463:130,1,27,2|0,0:1|0:0,0:0:0:0:
410,102,308339,6,0,L|374:97,1,36,2|0,0:1|0:0,0:0:0:0:
