osu file format v14

[General]
AudioFilename: audio.mp3
AudioLeadIn: 0
PreviewTime: -1
Countdown: 1
SampleSet: Soft
StackLeniency: 0.7
Mode: 0
LetterboxInBreaks: 0
WidescreenStoryboard: 1

[Editor]
Bookmarks: 203,21991,32900,43809,54718,87445,98354,120172,141991,163809,185627,196536,218354,240172,261991
DistanceSpacing: 0.6
BeatDivisor: 4
GridSize: 4
TimelineZoom: 1

[Metadata]
Title:Sky Fracture
TitleUnicode:Sky Fracture
Artist:Getsix
ArtistUnicode:Getsix
Creator:Haipur
Version:Shattered
Source:
Tags:haipur getsix sky fracture broken
BeatmapID:1510880
BeatmapSetID:613510

[Difficulty]
HPDrainRate:6
CircleSize:4
OverallDifficulty:9
ApproachRate:10
SliderMultiplier:2.2
SliderTickRate:1

[Events]
//Background and Video events
0,0,"743895419749-dragon-sky-cloud.jpg",0,0
//Break Periods
//Storyboard Layer 0 (Background)
//Storyboard Layer 1 (Fail)
//Storyboard Layer 2 (Pass)
//Storyboard Layer 3 (Foreground)
//Storyboard Sound Samples

[TimingPoints]
-1160,340.909090909091,4,2,0,100,1,0
0,-200,4,2,0,100,0,0
21650,340.909090909091,4,2,0,100,1,0
21991,340.909090909091,4,2,0,100,1,0
21991,-200,4,2,0,100,0,0
23013,-133.333333333333,4,2,0,100,0,0
27445,-200,4,2,0,100,0,0
28468,-133.333333333333,4,2,0,100,0,0
32900,-200,4,2,0,100,0,0
36991,-133.333333333333,4,2,0,100,0,0
38354,-200,4,2,0,100,0,0
41081,-133.333333333333,4,2,0,100,0,0
41422,-111.111111111111,4,2,0,100,0,0
41763,-95.2380952380952,4,2,0,100,0,0
42104,-80,4,2,0,100,0,0
48922,-66.6666666666667,4,2,0,100,0,0
49263,-80,4,2,0,100,0,0
59491,-133.333333333333,4,2,0,100,0,0
60172,-80,4,2,0,100,0,0
64263,-200,4,2,0,100,0,0
200627,-100,4,2,0,100,0,0

[HitObjects]
256,192,196536,6,0,B|228:168|256:156|284:168|256:192,1,55
72,304,196877,5,0,0:0:0:0:
180,304,196962,1,0,0:0:0:0:
108,204,197047,5,0,0:0:0:0:
128,328,197133,1,0,0:0:0:0:
232,240,197218,5,0,0:0:0:0:
164,156,197303,1,0,0:0:0:0:
168,280,197388,5,0,0:0:0:0:
292,276,197473,1,0,0:0:0:0:
256,152,197559,5,0,0:0:0:0:
204,216,197644,1,0,0:0:0:0:
312,216,197729,5,0,0:0:0:0:
296,92,197814,1,0,0:0:0:0:
232,240,197900,5,0,0:0:0:0:
356,244,197985,1,0,0:0:0:0:
312,128,198070,5,0,0:0:0:0:
292,276,198155,1,0,0:0:0:0:
420,208,198241,5,0,0:0:0:0:
296,208,198326,1,0,0:0:0:0:
356,244,198411,5,0,0:0:0:0:
396,128,198496,1,0,0:0:0:0:
256,152,198581,5,0,0:0:0:0:
280,28,198667,1,0,0:0:0:0:
304,148,198752,5,0,0:0:0:0:
364,40,198837,1,0,0:0:0:0:
352,164,198922,5,0,0:0:0:0:
440,76,199008,1,0,0:0:0:0:
392,192,199093,5,0,0:0:0:0:
500,132,199178,1,0,0:0:0:0:
416,240,199263,5,0,0:0:0:0:
304,148,199348,1,0,0:0:0:0:
396,128,199434,1,0,0:0:0:0:
324,252,199519,1,0,0:0:0:0:
392,192,199604,5,0,0:0:0:0:
254,145,199689,1,0,0:0:0:0:
338,101,199775,1,0,0:0:0:0:
301,240,199860,1,0,0:0:0:0:
352,164,199945,5,0,0:0:0:0:
206,154,200030,1,0,0:0:0:0:
276,90,200116,1,0,0:0:0:0:
276,233,200201,1,0,0:0:0:0:
304,148,200286,5,0,0:0:0:0:
160,176,200371,1,0,0:0:0:0:
211,96,200457,1,0,0:0:0:0:
248,234,200542,1,0,0:0:0:0:
356,220,200627,6,0,P|384:217|408:204,1,55
264,40,200797,2,0,P|236:43|212:56,1,55
180,228,200968,2,0,P|183:255|196:280,1,55
359,136,201138,2,0,P|356:109|344:85,1,55
256,160,201309,5,0,0:0:0:0:
192,244,201479,1,0,0:0:0:0:
224,256,201564,1,0,0:0:0:0:
256,260,201650,1,0,0:0:0:0:
288,256,201735,1,0,0:0:0:0:
320,244,201820,1,0,0:0:0:0:
