osu file format v14

[General]
AudioFilename: audio.mp3
AudioLeadIn: 0
PreviewTime: -1
Countdown: 1
SampleSet: Soft
StackLeniency: 0.7
Mode: 0
LetterboxInBreaks: 0
WidescreenStoryboard: 0

[Editor]
Bookmarks: 203,21991,32900,43809,54718,87445,98354,120172,141991,163809,185627,196536,218354,240172,261991
DistanceSpacing: 1.5
BeatDivisor: 4
GridSize: 4
TimelineZoom: 1

[Metadata]
Title:Sky Fracture
TitleUnicode:Sky Fracture
Artist:Getsix
ArtistUnicode:Getsix
Creator:Haipur
Version:Broken
Source:
Tags:haipur getsix sky fracture broken
BeatmapID:1294384
BeatmapSetID:613510

[Difficulty]
HPDrainRate:6
CircleSize:4
OverallDifficulty:9
ApproachRate:9.3
SliderMultiplier:2.2
SliderTickRate:1

[Events]
//Background and Video events
0,0,"743895419749-dragon-sky-cloud.jpg",0,0
//Break Periods
//Storyboard Layer 0 (Background)
//Storyboard Layer 1 (Fail)
//Storyboard Layer 2 (Pass)
//Storyboard Layer 3 (Foreground)
//Storyboard Sound Samples

[TimingPoints]
-1160,340.909090909091,4,2,0,100,1,0
0,-200,4,2,0,100,0,0
21650,340.909090909091,4,2,0,100,1,0
21991,340.909090909091,4,2,0,100,1,0
21991,-200,4,2,0,100,0,0
23013,-133.333333333333,4,2,0,100,0,0
27445,-200,4,2,0,100,0,0
28468,-133.333333333333,4,2,0,100,0,0
32900,-200,4,2,0,100,0,0
36991,-133.333333333333,4,2,0,100,0,0
38354,-200,4,2,0,100,0,0
41081,-133.333333333333,4,2,0,100,0,0
41422,-111.111111111111,4,2,0,100,0,0
41763,-95.2380952380952,4,2,0,100,0,0
42104,-80,4,2,0,100,0,0
48922,-66.6666666666667,4,2,0,100,0,0
49263,-80,4,2,0,100,0,0
59491,-133.333333333333,4,2,0,100,0,0
60172,-80,4,2,0,100,0,0
64263,-200,4,2,0,100,0,0

[HitObjects]
0,96,203,6,0,P|32:84|72:88,1,55
124,104,544,1,0,0:0:0:0:
48,192,715,2,0,P|80:180|120:184,2,55
172,200,1226,1,0,0:0:0:0:
48,192,1396,1,0,0:0:0:0:
296,192,1567,6,0,P|264:180|224:184,1,55
172,200,1908,1,0,0:0:0:0:
248,288,2078,2,0,P|216:276|176:280,2,55
124,296,2590,1,0,0:0:0:0:
248,288,2760,1,0,0:0:0:0:
132,128,2930,6,0,P|122:160|130:200,1,55
152,248,3271,1,0,0:0:0:0:
229,165,3442,2,0,P|219:197|227:237,2,55
248,288,3953,1,0,0:0:0:0:
229,165,4124,1,0,0:0:0:0:
382,178,4294,6,0,P|391:211|383:251,1,55
364,299,4635,1,0,0:0:0:0:
283,217,4805,1,0,0:0:0:0:
300,284,4976,1,0,0:0:0:0:
264,152,5146,1,0,0:0:0:0:
264,340,5317,1,0,0:0:0:0:
283,217,5487,1,0,0:0:0:0:
455,113,5658,6,0,P|423:101|383:105,1,55
331,121,5999,1,0,0:0:0:0:
407,209,6169,2,0,P|375:197|335:201,2,55
283,217,6680,1,0,0:0:0:0:
407,209,6851,1,0,0:0:0:0:
159,209,7021,6,0,P|191:197|231:201,1,55
283,217,7362,1,0,0:0:0:0:
207,305,7533,2,0,P|239:293|279:297,2,55
331,313,8044,1,0,0:0:0:0:
207,305,8215,1,0,0:0:0:0:
323,145,8385,6,0,P|333:177|325:217,1,55
303,265,8726,1,0,0:0:0:0:
226,182,8896,2,0,P|236:214|228:254,2,55
207,305,9408,1,0,0:0:0:0:
226,182,9578,1,0,0:0:0:0:
112,124,9749,5,0,0:0:0:0:
172,12,9919,1,0,0:0:0:0:
196,108,10090,1,0,0:0:0:0:
220,204,10260,1,0,0:0:0:0:
112,124,10430,1,0,0:0:0:0:
340,12,10601,1,0,0:0:0:0:
262,52,10771,1,0,0:0:0:0:
286,148,10942,1,0,0:0:0:0:
458,44,11112,6,0,P|426:32|386:36,1,55
334,52,11453,1,0,0:0:0:0:
410,140,11624,2,0,P|378:128|338:132,2,55
286,148,12135,1,0,0:0:0:0:
410,140,12305,1,0,0:0:0:0:
162,140,12476,6,0,P|194:128|234:132,1,55
286,148,12817,1,0,0:0:0:0:
210,236,12987,2,0,P|242:224|282:228,2,55
334,244,13499,1,0,0:0:0:0:
210,236,13669,1,0,0:0:0:0:
326,76,13840,6,0,P|336:108|328:148,1,55
306,196,14180,1,0,0:0:0:0:
229,113,14351,2,0,P|239:145|231:185,2,55
210,236,14862,1,0,0:0:0:0:
229,113,15033,1,0,0:0:0:0:
76,126,15203,6,0,P|67:159|75:199,1,55
94,247,15544,1,0,0:0:0:0:
175,165,15715,1,0,0:0:0:0:
192,232,15885,1,0,0:0:0:0:
156,100,16055,1,0,0:0:0:0:
156,288,16226,1,0,0:0:0:0:
175,165,16396,1,0,0:0:0:0:
228,364,16567,6,0,P|260:362|296:340,1,55
340,312,16908,1,0,0:0:0:0:
456,288,17078,2,0,P|423:286|387:264,2,55
340,240,17590,1,0,0:0:0:0:
456,192,17760,1,0,0:0:0:0:
276,203,17930,6,0,P|244:201|208:179,1,55
164,151,18271,1,0,0:0:0:0:
48,127,18442,2,0,P|81:125|117:103,2,55
164,79,18953,1,0,0:0:0:0:
48,31,19124,1,0,0:0:0:0:
172,4,19294,6,0,P|204:6|240:28,1,55
340,56,19635,2,0,P|308:58|272:80,1,55
188,125,19976,2,0,P|210:139|226:169,1,55
323,166,20317,2,0,P|301:180|285:210,1,55
256,268,20658,5,0,0:0:0:0:
268,284,20743,1,0,0:0:0:0:
288,300,20828,1,0,0:0:0:0:
316,312,20913,1,0,0:0:0:0:
348,308,20999,1,0,0:0:0:0:
380,284,21084,1,0,0:0:0:0:
392,236,21169,1,0,0:0:0:0:
376,184,21254,1,0,0:0:0:0:
308,144,21340,1,0,0:0:0:0:
308,144,21650,5,0,0:0:0:0:
184,108,21764,1,0,0:0:0:0:
360,88,21878,1,0,0:0:0:0:
56,44,21991,6,0,B|34:102|42:147|42:147|57:160|57:160|43:191|43:191|42:199,1,165
196,196,22672,1,0,0:0:0:0:
152,112,22843,1,0,0:0:0:0:
96,252,23013,2,0,P|122:268|181:275,1,82.5000031471254
156,68,23354,6,0,L|192:56,2,20.6250007867813
264,28,23525,1,0,0:0:0:0:
64,0,23695,1,0,0:0:0:0:
240,92,23866,1,0,0:0:0:0:
88,140,24036,1,0,0:0:0:0:
196,160,24206,1,0,0:0:0:0:
120,236,24377,2,0,P|144:255|202:266,1,82.5000031471254
295,166,24718,5,0,0:0:0:0:
248,68,24888,1,0,0:0:0:0:
196,160,25059,2,0,P|201:190|234:238,1,82.5000031471254,0|0,2:0|2:0,2:0:0:0:
319,257,25400,1,0,0:0:0:0:
295,166,25570,1,0,0:0:0:0:
228,233,25741,1,0,0:0:0:0:
148,57,26081,5,0,0:0:0:0:
228,233,26252,1,0,0:0:0:0:
284,97,26422,1,0,0:0:0:0:
209,289,26593,1,0,0:0:0:0:
256,165,26763,1,0,0:0:0:0:
220,109,26934,1,0,0:0:0:0:
144,300,27104,1,0,0:0:0:0:
456,44,27445,6,0,B|477:102|469:147|469:147|454:160|454:160|468:191|468:191|469:199,1,165
316,196,28127,1,0,0:0:0:0:
360,112,28298,1,0,0:0:0:0:
416,252,28468,2,0,P|390:268|331:275,1,82.5000031471254
200,64,28809,6,0,B|208:124|208:124|220:104,1,82.5000031471254
368,84,29150,2,0,B|360:144|360:144|348:124,1,82.5000031471254
219,105,29491,1,0,0:0:0:0:
348,125,29661,1,0,0:0:0:0:
266,226,29831,1,0,0:0:0:0:
348,125,30002,1,0,0:0:0:0:
48,104,30172,6,0,P|79:78|119:66,1,82.5000031471254
200,64,30513,1,0,0:0:0:0:
122,206,30684,1,0,0:0:0:0:
161,135,30854,2,0,P|198:118|239:117,1,82.5000031471254
318,135,31195,1,0,0:0:0:0:
206,252,31366,1,0,0:0:0:0:
294,66,31536,5,0,0:0:0:0:
376,52,31706,1,0,0:0:0:0:
212,152,31877,2,0,L|192:148,2,20.6250007867813
294,166,32047,1,0,0:0:0:0:
100,236,32218,2,0,L|82:225,2,20.6250007867813
172,277,32388,1,0,0:0:0:0:
99,318,32559,1,0,0:0:0:0:
172,16,32900,6,0,B|168:64|196:100|196:100|208:84|208:64,1,110
340,16,33411,2,0,B|344:64|316:100|316:100|304:84|304:64,1,110
217,152,33922,1,0,0:0:0:0:
292,152,34093,1,0,0:0:0:0:
128,180,34263,2,0,P|142:211|173:236,1,55
228,240,34604,2,0,P|217:265|199:285,1,55
200,168,34945,2,0,P|221:151|247:142,1,55
312,168,35286,1,0,0:0:0:0:
130,43,35627,6,0,B|138:91|175:118|175:118|182:100|177:80,1,110
382,43,36138,2,0,B|374:91|337:118|337:118|330:100|335:80,1,110
200,168,36650,1,0,0:0:0:0:
312,168,36820,1,0,0:0:0:0:
104,180,36991,2,0,P|117:218|146:248,1,82.5000031471254
252,244,37331,6,0,B|247:259|235:271|235:271|246:268,1,41.2500015735627
168,324,37502,2,0,B|175:328|175:328|161:337|144:336,1,41.2500015735627
104,180,37672,2,0,B|108:164|120:152|120:152|109:155,1,41.2500015735627
188,100,37843,2,0,B|180:95|180:95|194:86|211:87,1,41.2500015735627
408,180,38013,1,0,0:0:0:0:
52,80,38354,6,0,B|72:124|115:141|115:141|117:121|107:104,1,110
460,80,39036,2,0,B|440:124|397:141|397:141|395:121|405:104,1,110
29,136,39718,2,0,B|60:173|106:179|106:179|103:159|89:145,1,110
482,136,40400,2,0,B|451:173|405:179|405:179|408:159|422:145,1,110
56,40,41081,6,0,P|92:20|132:12,1,82.5000031471254
104,88,41422,2,0,P|152:84|200:100,1,98.9999969787599
136,152,41763,2,0,P|188:184|216:232,1,115.49999647522
140,236,42104,2,0,P|164:300|160:368,1,137.5
32,316,42445,5,0,0:0:0:0:
4,276,42530,1,0,0:0:0:0:
8,228,42616,1,0,0:0:0:0:
32,188,42701,1,0,0:0:0:0:
80,160,42786,1,0,0:0:0:0:
136,168,42871,1,0,0:0:0:0:
184,208,42956,1,0,0:0:0:0:
240,236,43042,1,0,0:0:0:0:
308,224,43127,5,0,0:0:0:0:
360,168,43212,1,0,0:0:0:0:
344,88,43297,1,0,0:0:0:0:
268,40,43383,1,0,0:0:0:0:
180,12,43468,5,0,0:0:0:0:
147,12,43553,1,0,0:0:0:0:
120,17,43638,1,0,0:0:0:0:
107,22,43723,1,0,0:0:0:0:
96,28,43809,6,0,B|68:64|68:64|56:160,1,137.5
408,320,44150,2,0,B|436:284|436:284|448:188,1,137.5
112,340,44491,1,0,0:0:0:0:
352,268,44661,1,0,0:0:0:0:
55,185,44831,1,0,0:0:0:0:
448,162,45002,1,0,0:0:0:0:
47,102,45172,6,0,B|59:194|59:194|87:230,1,137.5
447,161,45513,2,0,B|436:70|436:70|408:34,1,137.5
332,260,45854,1,0,0:0:0:0:
284,68,46025,1,0,0:0:0:0:
224,308,46195,1,0,0:0:0:0:
164,32,46366,1,0,0:0:0:0:
112,328,46536,6,0,B|148:356|148:356|244:368,1,137.5
448,176,46877,2,0,B|412:148|412:148|316:136,1,137.5
428,340,47218,1,0,0:0:0:0:
200,176,47388,1,0,0:0:0:0:
404,108,47559,1,0,0:0:0:0:
204,280,47729,1,0,0:0:0:0:
312,20,47900,5,0,0:0:0:0:
428,340,48070,1,0,0:0:0:0:
104,212,48241,1,0,0:0:0:0:
404,108,48411,1,0,0:0:0:0:
356,80,48496,1,0,0:0:0:0:
300,68,48581,1,0,0:0:0:0:
240,64,48667,1,0,0:0:0:0:
184,76,48752,1,0,0:0:0:0:
56,304,48922,2,0,B|156:337|156:337|215:334,1,165.000006294251
416,28,49263,6,0,B|444:64|444:64|456:160,1,137.5
104,320,49604,2,0,B|76:284|76:284|64:188,1,137.5
308,304,49945,1,0,0:0:0:0:
240,20,50116,1,0,0:0:0:0:
184,344,50286,1,0,0:0:0:0:
344,56,50456,1,0,0:0:0:0:
380,344,50627,6,0,B|298:386|298:386|253:384,1,137.5
24,152,50968,2,0,B|105:109|105:109|150:111,1,137.5
40,356,51309,1,0,0:0:0:0:
308,304,51479,1,0,0:0:0:0:
64,252,51650,1,0,0:0:0:0:
392,144,51820,1,0,0:0:0:0:
96,40,51991,6,0,B|59:67|59:67|23:157,1,137.5
308,304,52332,2,0,B|344:276|344:276|380:186,1,137.5
156,244,52672,1,0,0:0:0:0:
304,228,52843,1,0,0:0:0:0:
216,108,53013,1,0,0:0:0:0:
284,312,53184,1,0,0:0:0:0:
440,104,53354,6,0,B|358:62|358:62|313:64,1,137.5
68,180,53695,1,0,0:0:0:0:
284,312,53866,1,0,0:0:0:0:
284,312,53951,1,0,0:0:0:0:
284,312,54036,1,0,0:0:0:0:
316,160,54206,1,0,0:0:0:0:
64,316,54377,1,0,0:0:0:0:
150,330,54547,1,0,0:0:0:0:
36,96,54718,6,0,B|72:68|72:68|168:56,1,137.5
330,180,55059,2,0,B|278:181|239:204|239:204|250:185|244:164,1,137.5
64,316,55400,2,0,B|117:314|156:291|156:291|145:310|150:330,1,137.5
467,303,55741,2,0,B|457:285|463:264|463:264|431:296|380:312,1,137.5
40,148,56081,2,0,B|73:208|135:244,1,137.5
468,187,56422,2,0,B|418:138|348:124,1,137.5
83,204,56763,2,0,B|133:253|204:268,1,137.5
412,148,57104,2,0,B|349:113|276:119,1,137.5
48,40,57445,6,0,B|25:129|25:129|37:172,1,137.5
244,308,57786,1,0,0:0:0:0:
178,88,57956,1,0,0:0:0:0:
372,336,58127,1,0,0:0:0:0:
308,112,58297,1,0,0:0:0:0:
472,248,58468,1,0,0:0:0:0:
192,148,58638,5,0,0:0:0:0:
308,112,58809,1,0,0:0:0:0:
178,88,58979,1,0,0:0:0:0:
321,52,59150,1,0,0:0:0:0:
164,28,59320,1,0,0:0:0:0:
396,100,59491,2,0,B|344:119|344:119|317:115,1,82.5000031471254
48,64,59831,1,0,0:0:0:0:
321,52,60002,1,0,0:0:0:0:
52,132,60172,6,0,B|64:224|64:224|92:260,1,137.5
448,68,60513,2,0,B|395:70|356:93|356:93|367:74|362:54,1,137.5
182,204,60854,2,0,B|234:203|273:180|273:180|262:199|268:220,1,137.5
448,316,61195,2,0,B|395:314|356:291|356:291|367:310|362:330,1,137.5
90,45,61536,2,0,B|89:114|125:176,1,137.5
442,293,61877,2,0,B|423:226|369:179,1,137.5
100,115,62218,2,0,B|118:183|172:231,1,137.5
413,231,62559,2,0,B|376:170|309:138,1,137.5
60,52,62900,6,0,B|32:88|32:88|20:184,1,137.5
268,308,63241,1,0,0:0:0:0:
334,88,63411,1,0,0:0:0:0:
140,336,63582,1,0,0:0:0:0:
204,112,63752,1,0,0:0:0:0:
40,248,63923,1,0,0:0:0:0:
412,232,64093,1,0,0:0:0:0:
334,88,64263,6,0,L|364:144,1,55
488,108,64604,2,0,L|456:160,1,55
204,108,64945,1,0,0:0:0:0:
412,232,65116,1,0,0:0:0:0:
296,16,65286,1,0,0:0:0:0:
136,340,65456,1,0,0:0:0:0:
488,108,65627,1,0,0:0:0:0:
