osu file format v14

[General]
AudioFilename: audio.mp3
AudioLeadIn: 0
PreviewTime: 61391
Countdown: 0
SampleSet: Soft
StackLeniency: 0.7
Mode: 0
LetterboxInBreaks: 0
WidescreenStoryboard: 1

[Editor]
Bookmarks: 16898,29974,32016,47134,62252,77336,84929,100047,115165,130283,145402,160520,175638,192646,207764,222882,236076
DistanceSpacing: 0.3
BeatDivisor: 4
GridSize: 32
TimelineZoom: 1.8

[Metadata]
Title:Jinsei no Hari
TitleUnicode:人生の針
Artist:Gesu no Kiwami Otome.
ArtistUnicode:ゲスの極み乙女。
Creator:Agatsu
Version:Hard
Source:
Tags:toybot vikala fixxis black man impurepug schoolboy komore japanese pop jpop j-pop needle of life lowest girl
BeatmapID:2693502
BeatmapSetID:1247336

[Difficulty]
HPDrainRate:4
CircleSize:4
OverallDifficulty:6
ApproachRate:8
SliderMultiplier:1.6
SliderTickRate:1

[Events]
//Background and Video events
0,0,"bg.jpg",0,0
//Break Periods
2,85095,91704
//Storyboard Layer 0 (Background)
//Storyboard Layer 1 (Fail)
//Storyboard Layer 2 (Pass)
//Storyboard Layer 3 (Foreground)
//Storyboard Layer 4 (Overlay)
//Storyboard Sound Samples

[TimingPoints]
-144,472.44094488189,4,2,2,65,1,0
1745,-100,4,2,1,65,0,0
3163,-100,4,2,2,65,0,0
3399,-100,4,2,1,65,0,0
5053,-100,4,2,2,65,0,0
5289,-100,4,2,1,65,0,0
6943,-100,4,2,2,65,0,0
7178,-100,4,2,1,65,0,0
8596,-100,4,2,1,75,0,0
8832,-100,4,2,2,75,0,0
9068,-100,4,2,1,75,0,0
9305,-100,4,2,2,75,0,0
9541,-100,4,2,1,75,0,0
13084,-100,4,2,2,75,0,0
13320,-100,4,2,1,75,0,0
14383,-100,4,2,2,75,0,0
14501,-100,4,2,1,75,0,0
14737,-100,4,2,2,75,0,0
14974,-100,4,2,2,75,0,0
15683,-100,4,2,2,75,0,0
16864,-125,4,2,1,55,0,0
17218,-125,4,2,2,60,0,0
18281,-125,4,2,3,60,0,0
18518,-125,4,2,2,60,0,0
20170,-125,4,2,3,60,0,0
20407,-125,4,2,2,60,0,0
22060,-125,4,2,3,60,0,0
22532,-100,4,2,1,70,0,0
24423,-100,4,2,1,80,0,0
24777,-100,4,2,2,80,0,0
24895,-100,4,2,1,80,0,0
26667,-100,4,2,2,80,0,0
26785,-100,4,2,1,80,0,0
28556,-100,4,2,2,80,0,0
28674,-100,4,2,1,80,0,0
29856,-100,4,2,2,80,0,0
30092,-100,4,2,1,80,0,0
31509,-100,4,2,1,80,0,0
31981,-125,4,2,1,65,0,0
43556,-125,4,2,2,65,0,0
43674,-125,4,2,1,65,0,0
44619,-125,4,2,2,65,0,0
45328,-125,4,2,1,65,0,0
45446,-125,4,2,2,65,0,0
45564,-125,4,2,1,65,0,0
47100,-111.111111111111,4,2,1,75,0,0
47572,-111.111111111111,4,2,1,75,0,0
47808,-111.111111111111,4,2,2,75,0,0
48281,-111.111111111111,4,2,1,75,0,0
51352,-111.111111111111,4,2,1,75,0,0
51588,-111.111111111111,4,2,2,75,0,0
52060,-111.111111111111,4,2,1,75,0,0
55131,-111.111111111111,4,2,1,75,0,0
55368,-111.111111111111,4,2,2,75,0,0
55840,-111.111111111111,4,2,1,75,0,0
58911,-111.111111111111,4,2,1,75,0,0
59147,-111.111111111111,4,2,2,75,0,0
59619,-111.111111111111,4,2,1,75,0,0
60801,-100,4,2,2,75,0,0
62218,-100,4,2,1,85,0,0
62926,-100,4,2,2,85,0,0
63044,-100,4,2,1,85,0,0
64108,-100,4,2,1,85,0,0
65289,-100,4,2,3,85,0,0
65525,-100,4,2,1,85,0,0
65761,-100,4,2,3,85,0,0
65879,-100,4,2,1,85,0,0
65997,-100,4,2,1,85,0,0
66706,-100,4,2,2,85,0,0
66824,-100,4,2,1,85,0,0
67887,-100,4,2,1,85,0,0
68123,-100,4,2,1,85,0,0
68360,-100,4,2,1,85,0,0
68596,-100,4,2,2,85,0,0
68714,-100,4,2,1,85,0,0
69305,-100,4,2,1,85,0,0
69541,-100,4,2,2,85,0,0
69659,-100,4,2,1,85,0,0
69777,-100,4,2,1,85,0,0
71667,-100,4,2,1,85,0,0
72139,-100,4,2,2,85,0,0
72493,-100,4,2,1,85,0,0
72848,-100,4,2,3,85,0,0
73084,-100,4,2,1,85,0,0
73320,-100,4,2,3,85,0,0
73438,-100,4,2,1,85,0,0
73556,-100,4,2,1,85,0,0
75446,-100,4,2,1,85,0,0
76155,-100,4,2,3,85,0,0
76391,-100,4,2,1,85,0,0
76627,-100,4,2,2,85,0,0
76745,-100,4,2,1,85,0,0
76863,-100,4,2,3,85,0,0
77100,-100,4,2,1,85,0,0
77336,-100,4,2,1,80,0,0
77690,-100,4,2,2,80,0,0
77808,-100,4,2,1,80,0,0
79580,-100,4,2,2,80,0,0
79698,-100,4,2,1,80,0,0
81470,-100,4,2,2,80,0,0
81588,-100,4,2,1,80,0,0
83005,-125,4,2,2,80,0,0
84895,-100,4,2,3,80,0,0
92454,-125,4,2,3,55,0,0
92690,-125,4,2,2,55,0,0
92926,-125,4,2,1,55,0,0
93163,-125,4,2,2,55,0,0
93399,-125,4,2,3,55,0,0
93871,-125,4,2,1,55,0,0
94344,-125,4,2,3,55,0,0
94580,-125,4,2,2,55,0,0
94816,-125,4,2,1,55,0,0
95053,-125,4,2,2,55,0,0
95289,-125,4,2,3,55,0,0
95761,-125,4,2,1,55,0,0
96233,-125,4,2,3,55,0,0
96469,-125,4,2,2,55,0,0
96705,-125,4,2,1,55,0,0
96942,-125,4,2,2,55,0,0
97178,-125,4,2,3,55,0,0
97533,-125,4,2,2,55,0,0
97650,-125,4,2,2,55,0,0
98123,-125,4,2,2,55,0,0
98596,-100,4,2,2,70,0,0
99304,-100,4,2,3,55,0,0
99541,-100,4,2,2,55,0,0
100013,-100,4,2,2,55,0,0
100040,472.44094488189,4,2,1,75,1,0
100984,-88.4955752212389,4,2,1,75,0,0
101194,472.44094488189,4,2,1,75,1,0
101902,472.44094488189,4,2,1,75,1,0
113004,-100,4,2,2,75,0,0
113713,-100,4,2,3,75,0,0
114185,-100,4,2,2,75,0,0
114421,-142.857142857143,4,2,3,75,0,0
114658,-100,4,2,2,75,0,0
114894,-100,4,2,3,75,0,0
115130,-100,4,2,1,85,0,0
115839,-100,4,2,2,85,0,0
115957,-100,4,2,1,85,0,0
117020,-100,4,2,1,85,0,0
118201,-100,4,2,3,85,0,0
118319,-100,4,2,1,85,0,0
118673,-100,4,2,3,85,0,0
118792,-100,4,2,1,85,0,0
118909,-100,4,2,1,85,0,0
119618,-100,4,2,2,85,0,0
119736,-100,4,2,1,85,0,0
120799,-100,4,2,1,85,0,0
121035,-100,4,2,1,85,0,0
121272,-100,4,2,1,85,0,0
121508,-100,4,2,1,85,0,0
122217,-100,4,2,1,85,0,0
122453,-100,4,2,2,85,0,0
122571,-100,4,2,1,85,0,0
122689,-100,4,2,1,85,0,0
123398,-100,4,2,2,85,0,0
123516,-100,4,2,1,85,0,0
124579,-100,4,2,1,85,0,0
124815,-100,4,2,3,85,0,0
125052,-100,4,2,1,85,0,0
125288,-100,4,2,3,85,0,0
125406,-100,4,2,1,85,0,0
125524,-100,4,2,1,85,0,0
126232,-100,4,2,2,85,0,0
126351,-100,4,2,1,85,0,0
126469,-100,4,2,1,85,0,0
126705,-100,4,2,2,85,0,0
126941,-100,4,2,1,85,0,0
127177,-100,4,2,2,85,0,0
127295,-100,4,2,1,85,0,0
127650,-100,4,2,2,85,0,0
127886,-100,4,2,1,85,0,0
128122,-100,4,2,2,85,0,0
128240,-100,4,2,1,85,0,0
128358,-100,4,2,1,85,0,0
129067,-100,4,2,3,85,0,0
129303,-100,4,2,1,85,0,0
129539,-100,4,2,3,85,0,0
129658,-100,4,2,1,85,0,0
129776,-100,4,2,3,85,0,0
129894,-100,4,2,1,85,0,0
130248,-100,4,2,1,85,0,0
130721,-100,4,2,1,85,0,0
130957,-100,4,2,2,85,0,0
131075,-100,4,2,1,85,0,0
132138,-100,4,2,1,85,0,0
133319,-100,4,2,3,85,0,0
133555,-100,4,2,1,85,0,0
133792,-100,4,2,3,85,0,0
133910,-100,4,2,1,85,0,0
134028,-100,4,2,1,85,0,0
134736,-100,4,2,2,85,0,0
134855,-100,4,2,1,85,0,0
135917,-100,4,2,1,85,0,0
136154,-100,4,2,1,85,0,0
136390,-100,4,2,1,85,0,0
136626,-100,4,2,2,85,0,0
136744,-100,4,2,1,85,0,0
138516,-100,4,2,2,85,0,0
138634,-100,4,2,1,85,0,0
139697,-100,4,2,1,85,0,0
139933,-100,4,2,3,85,0,0
140169,-100,4,2,1,85,0,0
140406,-100,4,2,3,85,0,0
140524,-100,4,2,1,85,0,0
140642,-100,4,2,1,85,0,0
141587,-100,4,2,1,85,0,0
142295,-100,4,2,2,85,0,0
142414,-100,4,2,1,85,0,0
143477,-100,4,2,1,85,0,0
143713,-100,4,2,1,85,0,0
143949,-100,4,2,3,85,0,0
144185,-100,4,2,1,85,0,0
145130,-100,4,2,2,85,0,0
145366,-111.111111111111,4,2,1,60,0,0
145721,-111.111111111111,4,2,3,60,0,0
145957,-111.111111111111,4,2,1,60,0,0
149500,-111.111111111111,4,2,2,60,0,0
149736,-111.111111111111,4,2,1,60,0,0
150563,-111.111111111111,4,2,2,60,0,0
151036,-111.111111111111,4,2,1,60,0,0
151390,-111.111111111111,4,2,3,60,0,0
151744,-111.111111111111,4,2,1,60,0,0
152926,-111.111111111111,4,2,3,60,0,0
153634,-111.111111111111,4,2,1,60,0,0
154343,-111.111111111111,4,2,1,60,0,0
154815,-111.111111111111,4,2,1,60,0,0
156705,-111.111111111111,4,2,1,60,0,0
156941,-111.111111111111,4,2,2,60,0,0
157177,-111.111111111111,4,2,1,60,0,0
157650,-111.111111111111,4,2,2,60,0,0
157768,-100,4,2,1,45,0,0
158122,-100,4,2,1,60,0,0
158359,-100,4,2,3,60,0,0
158595,-100,4,2,1,60,0,0
160366,-100,4,2,2,60,0,0
160484,-100,4,2,1,75,0,0
160839,-100,4,2,2,75,0,0
160957,-100,4,2,1,75,0,0
161311,-100,4,2,2,75,0,0
161547,-100,4,2,1,75,0,0
162374,-100,4,2,1,75,0,0
162729,-100,4,2,2,75,0,0
162847,-100,4,2,1,75,0,0
163201,-100,4,2,2,75,0,0
163437,-100,4,2,1,75,0,0
163555,-100,4,2,2,75,0,0
163792,-100,4,2,1,75,0,0
164028,-100,4,2,3,75,0,0
164146,-100,4,2,2,75,0,0
164264,-100,4,2,1,75,0,0
164618,-100,4,2,2,75,0,0
164736,-100,4,2,1,75,0,0
165091,-100,4,2,2,75,0,0
165327,-100,4,2,1,75,0,0
165682,-100,4,2,1,75,0,0
165799,-100,4,2,2,75,0,0
166154,-100,4,2,3,75,0,0
166508,-100,4,2,2,75,0,0
166626,-100,4,2,1,75,0,0
166980,-100,4,2,2,75,0,0
167335,-100,4,2,1,75,0,0
167571,-100,4,2,3,75,0,0
167807,-100,4,2,1,75,0,0
168398,-100,4,2,2,75,0,0
168516,-100,4,2,1,75,0,0
169461,-100,4,2,1,75,0,0
170051,-100,4,2,2,75,0,0
170288,-100,4,2,1,75,0,0
171587,-100,4,2,2,75,0,0
171705,-100,4,2,1,75,0,0
171823,-100,4,2,3,75,0,0
172177,-100,4,2,1,75,0,0
172296,-100,4,2,1,75,0,0
172532,-100,4,2,2,75,0,0
172650,-100,4,2,1,75,0,0
173241,-100,4,2,1,75,0,0
173713,-100,4,2,3,75,0,0
173949,-100,4,2,2,75,0,0
174067,-100,4,2,1,75,0,0
174894,-100,4,2,2,75,0,0
175130,-100,4,2,1,75,0,0
175603,-100,4,2,1,85,0,0
177493,-100,4,2,3,85,0,0
177729,-100,4,2,1,85,0,0
177847,-100,4,2,2,85,0,0
177965,-100,4,2,1,85,0,0
178673,-100,4,2,2,85,0,0
178791,-100,4,2,1,85,0,0
178988,-100,4,2,2,85,0,0
179264,-100,4,2,1,85,0,0
179382,-100,4,2,3,85,0,0
179618,-100,4,2,2,85,0,0
179736,-100,4,2,1,85,0,0
181508,-100,4,2,2,85,0,0
181744,-100,4,2,1,85,0,0
182217,-100,4,2,2,85,0,0
182335,-100,4,2,1,85,0,0
182453,-100,4,2,2,85,0,0
182689,-100,4,2,1,85,0,0
183516,-100,4,2,2,85,0,0
183634,-100,4,2,1,85,0,0
183988,-100,4,2,3,85,0,0
184343,-100,4,2,1,85,0,0
185524,-100,4,2,3,85,0,0
185642,-100,4,2,2,85,0,0
185760,-100,4,2,1,85,0,0
186469,-100,4,2,2,85,0,0
186587,-100,4,2,1,85,0,0
187295,-100,4,2,2,85,0,0
187413,-100,4,2,1,85,0,0
187768,-100,4,2,3,85,0,0
188004,-100,4,2,1,85,0,0
188831,-100,4,2,1,90,0,0
189304,-100,4,2,1,90,0,0
189540,-100,4,2,1,50,0,0
189776,-100,4,2,1,60,0,0
190012,-100,4,2,1,70,0,0
190248,-100,4,2,1,80,0,0
190484,-100,4,2,1,85,0,0
190721,-100,4,2,1,90,0,0
192611,-111.111111111111,4,2,2,60,0,0
193555,-111.111111111111,4,2,3,60,0,0
193792,-100,4,2,2,60,0,0
194028,-100,4,2,1,45,0,0
194382,-100,4,2,2,60,0,0
194500,-100,4,2,1,85,0,0
195209,-100,4,2,3,85,0,0
195445,-100,4,2,2,85,0,0
195563,-100,4,2,1,85,0,0
196390,-100,4,2,1,85,0,0
196744,-100,4,2,2,85,0,0
196862,-100,4,2,1,85,0,0
198280,-100,4,2,1,85,0,0
198516,-100,4,2,1,85,0,0
198752,-100,4,2,1,85,0,0
198988,-100,4,2,2,85,0,0
199106,-100,4,2,1,85,0,0
199697,-100,4,2,1,85,0,0
199933,-100,4,2,3,85,0,0
200051,-100,4,2,1,85,0,0
200170,-100,4,2,1,85,0,0
200524,-100,4,2,2,85,0,0
200642,-100,4,2,1,85,0,0
202059,-100,4,2,1,85,0,0
203949,-100,4,2,3,85,0,0
204658,-100,4,2,1,85,0,0
204894,-100,4,2,2,85,0,0
205366,-100,4,2,3,85,0,0
205603,-100,4,2,1,85,0,0
205839,-100,4,2,1,85,0,0
207020,-100,4,2,3,85,0,0
207138,-100,4,2,1,85,0,0
207729,-100,4,2,1,80,0,0
208083,-100,4,2,2,80,0,0
208201,-100,4,2,1,80,0,0
209382,-100,4,2,2,80,0,0
209500,-100,4,2,1,80,0,0
209855,-100,4,2,2,50,0,0
209933,-100,4,2,2,65,0,0
210012,-100,4,2,2,80,0,0
210091,-100,4,2,1,80,0,0
210327,-100,4,2,2,80,0,0
210445,-100,4,2,1,80,0,0
210977,-100,4,2,1,20,0,0
211036,-100,4,2,3,80,0,0
211213,-100,4,2,3,60,0,0
211272,-100,4,2,1,80,0,0
211331,-100,4,2,1,60,0,0
211390,-100,4,2,1,80,0,0
211449,-100,4,2,1,60,0,0
211508,-100,4,2,1,80,0,0
211862,-100,4,2,3,80,0,0
211980,-100,4,2,1,80,0,0
212217,-100,4,2,2,80,0,0
212335,-100,4,2,1,80,0,0
212571,-100,4,2,2,80,0,0
212689,-100,4,2,1,80,0,0
212925,-100,4,2,3,80,0,0
213162,-100,4,2,1,80,0,0
213398,-100,4,2,1,80,0,0
213752,-100,4,2,2,80,0,0
213870,-100,4,2,1,80,0,0
213988,-100,4,2,3,80,0,0
214106,-100,4,2,1,80,0,0
214579,-100,4,2,2,80,0,0
214697,-100,4,2,1,80,0,0
215288,-100,4,2,1,80,0,0
216587,-100,4,2,2,80,0,0
216705,-100,4,2,1,80,0,0
216941,-100,4,2,2,80,0,0
217059,-100,4,2,1,80,0,0
217532,-100,4,2,2,80,0,0
217650,-100,4,2,1,80,0,0
217886,-100,4,2,3,80,0,0
218122,-100,4,2,1,80,0,0
218358,-100,4,2,3,80,0,0
218477,-100,4,2,1,80,0,0
218831,-100,4,2,2,80,0,0
218949,-100,4,2,1,80,0,0
219540,-100,4,2,1,80,0,0
219776,-100,4,2,2,80,0,0
219894,-100,4,2,1,80,0,0
220366,-100,4,2,2,80,0,0
220484,-100,4,2,1,80,0,0
220721,-100,4,2,3,80,0,0
220839,-100,4,2,1,80,0,0
220957,-100,4,2,3,80,0,0
221036,-100,4,2,1,80,0,0
221508,-100,4,2,2,80,0,0
221666,-100,4,2,1,80,0,0
222847,-100,4,2,1,80,0,0
223201,-100,4,2,2,60,0,0
223319,-100,4,2,1,60,0,0
223910,-100,4,2,2,60,0,0
224264,-100,4,2,1,60,0,0
224500,-100,4,2,2,60,0,0
224737,-100,4,2,1,60,0,0
225091,-100,4,2,2,60,0,0
225209,-100,4,2,1,60,0,0
225445,-100,4,2,2,60,0,0
225917,-100,4,2,1,60,0,0
226390,-100,4,2,2,60,0,0
226626,-100,4,2,1,60,0,0
226980,-100,4,2,2,60,0,0
227099,-100,4,2,1,60,0,0
227335,-100,4,2,2,60,0,0
227807,-100,4,2,1,60,0,0
228280,-100,4,2,2,60,0,0
228516,-100,4,2,1,60,0,0
228870,-100,4,2,2,60,0,0
228989,-100,4,2,2,60,0,0
229225,-100,4,2,2,60,0,0
229697,-100,4,2,3,60,0,0
230404,-111.111111111111,4,2,3,50,0,0
230642,-111.111111111111,4,2,2,50,0,0
233713,-111.111111111111,4,2,2,50,0,0
236075,-111.111111111111,4,2,3,50,0,0

[Colours]
Combo1 : 197,226,165
Combo2 : 142,197,240
Combo3 : 168,155,221
Combo4 : 250,188,189

[HitObjects]
0,366,1745,6,0,P|38:342|95:326,1,80,2|2,0:1|0:1,0:0:0:0:
81,333,2100,1,0,0:0:0:0:
91,337,2218,2,0,P|99:295|94:227,1,80,2|2,0:1|0:0,0:0:0:0:
94,248,2572,1,2,0:0:0:0:
89,240,2690,1,2,0:1:0:0:
27,165,2926,1,8,0:1:0:0:
109,109,3163,1,2,0:0:0:0:
170,185,3399,1,0,0:0:0:0:
256,142,3635,6,0,P|297:150|360:173,1,80,2|2,0:1|0:1,0:0:0:0:
458,284,4107,2,0,P|480:217|454:153,1,120,2|2,0:1|0:0,0:0:0:0:
451,157,4580,1,2,0:1:0:0:
490,27,4816,1,8,0:1:0:0:
408,72,5052,2,0,P|364:81|320:108,2,80,2|0|2,0:0|0:0|0:1,0:0:0:0:
451,157,5761,5,2,0:1:0:0:
362,198,5997,2,0,P|349:257|357:316,1,120,2|2,0:1|0:0,0:0:0:0:
366,335,6470,2,0,P|326:344|276:371,1,80,2|8,0:1|0:1,0:0:0:0:
193,384,6942,1,2,0:0:0:0:
113,333,7178,1,0,0:0:0:0:
26,379,7415,6,0,P|18:330|27:275,1,80,2|2,0:1|0:1,0:0:0:0:
198,211,7887,2,0,P|206:260|197:315,1,80,2|2,0:1|0:0,0:0:0:0:
199,302,8241,1,2,0:0:0:0:
194,314,8359,2,0,P|241:326|288:355,1,80,2|8,0:1|0:1,0:0:0:0:
398,227,8832,1,2,0:0:0:0:
453,304,9068,1,8,0:1:0:0:
403,118,9304,6,0,P|356:130|309:159,1,80,10|8,0:1|0:1,0:0:0:0:
319,153,9659,1,0,0:0:0:0:
313,162,9777,2,0,P|302:226|310:269,1,80,0|2,1:0|0:1,0:0:0:0:
308,253,10131,1,8,0:0:0:0:
313,267,10249,1,2,0:0:0:0:
178,355,10485,1,8,0:1:0:0:
98,295,10722,2,0,P|50:304|8:322,1,80,0|2,1:0|0:1,0:0:0:0:
12,323,11076,1,8,0:0:0:0:
4,331,11194,6,0,P|-1:272|8:216,1,80,8|8,0:1|0:1,0:0:0:0:
96,64,11667,2,0,B|114:125|74:126|90:191,1,120,0|8,1:0|0:0,0:0:0:0:
98,195,12139,2,0,L|165:205,1,40,2|8,0:0|0:0,0:0:0:0:
210,251,12375,1,8,0:1:0:0:
337,168,12611,2,0,P|345:119|332:71,1,80,0|2,1:0|0:1,0:0:0:0:
334,78,12966,1,8,0:0:0:0:
325,67,13084,5,10,0:1:0:0:
248,133,13320,1,8,0:1:0:0:
311,265,13556,2,0,P|383:276|448:317,1,120,0|8,1:0|0:0,0:0:0:0:
437,309,14029,2,0,P|427:340|422:375,2,40,2|8|8,0:0|0:0|0:1,0:0:0:0:
316,370,14501,1,0,1:0:0:0:
210,312,14737,2,0,P|213:257|234:199,1,80,2|0,0:3|0:0,0:0:0:0:
494,20,16863,5,12,0:1:0:0:
386,75,17218,1,0,0:0:0:0:
386,75,17336,1,2,0:0:0:0:
300,28,17572,2,0,B|235:17|239:64|161:48,1,128
46,15,18281,2,0,P|61:54|70:103,1,64,2|0,0:1|0:0,0:0:0:0:
3,147,18753,5,0,0:0:0:0:
95,315,19107,1,0,0:0:0:0:
95,315,19225,1,2,0:0:0:0:
13,367,19462,2,0,P|5:297|20:235,1,128
119,166,20170,2,0,P|162:179|200:205,1,64,2|0,0:1|0:0,0:0:0:0:
241,265,20643,5,0,0:0:0:0:
410,193,20997,1,0,0:0:0:0:
410,193,21115,1,2,0:0:0:0:
455,289,21352,2,0,P|387:286|323:246,1,128
282,176,22060,2,0,P|278:137|259:86,1,64,2|0,0:1|0:0,0:0:0:0:
179,18,22533,6,0,P|160:23|139:27,3,40,8|8|0|0,0:3|0:0|1:0|1:0,0:0:0:0:
101,16,23005,1,0,1:0:0:0:
13,79,23241,1,0,1:0:0:0:
13,79,23359,1,8,0:0:0:0:
13,79,23478,2,0,P|2:121|2:152,1,40,8|0,0:0|0:0,0:0:0:0:
52,198,23714,1,8,0:0:0:0:
55,212,23832,1,8,0:0:0:0:
57,225,23950,1,0,1:0:0:0:
59,239,24068,1,0,1:0:0:0:
62,252,24186,1,8,0:3:0:0:
5,383,24422,6,0,P|49:360|105:358,1,80,12|0,0:1|0:0,0:0:0:0:
91,360,24777,1,2,0:0:0:0:
102,368,24895,1,0,1:0:0:0:
280,287,25131,1,8,0:1:0:0:
172,259,25367,2,0,P|187:319|191:369,1,80,2|0,0:1|0:0,0:0:0:0:
327,376,25840,2,0,P|370:362|420:330,1,80,0|0,1:0|0:0,0:0:0:0:
484,239,26312,6,0,P|492:194|510:138,1,80,10|0,0:1|0:0,0:0:0:0:
506,151,26667,1,2,0:0:0:0:
510,140,26785,1,0,1:0:0:0:
366,186,27021,2,0,P|338:178|296:175,1,40,8|0,0:1|0:0,0:0:0:0:
250,134,27257,2,0,P|197:143|145:167,1,80,2|0,0:1|0:0,0:0:0:0:
23,268,27730,1,0,1:0:0:0:
85,157,27966,1,0,0:0:0:0:
185,235,28202,6,0,P|197:285|192:328,1,80,10|0,0:1|0:0,0:0:0:0:
189,324,28556,1,2,0:0:0:0:
182,336,28674,1,0,1:0:0:0:
78,312,28911,2,0,B|52:232|117:233|80:146,1,160,8|0,0:1|0:0,0:0:0:0:
3,81,29619,1,0,1:0:0:0:
92,26,29856,1,2,0:0:0:0:
171,96,30092,6,0,P|219:106|315:102,1,120,10|0,0:1|0:0,0:0:0:0:
305,95,30564,2,0,P|339:101|368:111,1,40,0|0,1:0|0:0,0:0:0:0:
437,57,30800,2,0,B|472:137|409:140|442:226,1,160,8|2,0:1|0:0,0:0:0:0:
503,290,31509,1,8,0:0:0:0:
397,366,31745,5,0,0:0:0:0:
397,366,31863,1,0,0:0:0:0:
397,366,31981,2,0,P|350:355|305:348,1,64,12|0,0:1|0:0,0:0:0:0:
320,357,32336,1,0,0:0:0:0:
308,362,32454,1,8,0:0:0:0:
229,312,32690,2,0,P|199:322|174:333,2,32,8|0|2,0:1|0:0|0:1,0:0:0:0:
292,233,33163,1,0,0:0:0:0:
378,284,33399,1,0,1:0:0:0:
479,64,33871,6,0,P|438:67|401:78,1,64,10|0,0:1|0:0,0:0:0:0:
343,48,34226,2,0,P|370:107|373:158,1,96,0|8,0:0|0:1,0:0:0:0:
321,219,34816,1,2,0:1:0:0:
155,362,35289,2,0,P|152:320|162:278,1,64,0|0,1:0|0:0,0:0:0:0:
194,186,35761,5,10,0:1:0:0:
194,186,35879,2,0,P|147:195|107:198,1,64
98,185,36233,2,0,P|102:218|102:232,3,32,8|0|8|0,0:0|0:0|0:1|0:0,0:0:0:0:
0,19,37060,1,0,0:0:0:0:
0,19,37178,2,0,P|44:24|82:46,1,64,0|0,1:0|0:0,0:0:0:0:
145,223,37651,6,0,P|143:153|129:125,1,96,10|0,0:1|0:0,0:0:0:0:
113,115,38123,2,0,P|93:123|70:128,3,32,8|0|8|0,0:0|0:0|0:1|0:0,0:0:0:0:
260,22,38832,1,0,0:0:0:0:
345,63,39068,1,0,1:0:0:0:
349,77,39186,1,0,0:0:0:0:
354,91,39304,1,0,0:0:0:0:
359,104,39422,1,0,0:0:0:0:
365,119,39541,6,0,P|405:107|451:108,1,64,10|0,0:1|0:0,0:0:0:0:
440,112,39895,1,0,0:0:0:0:
452,119,40013,1,8,0:0:0:0:
509,261,40367,1,0,0:0:0:0:
509,261,40485,2,0,P|503:279|497:298,3,32,2|0|0|0,0:1|0:0|0:0|0:0,0:0:0:0:
496,239,40958,1,0,1:0:0:0:
502,136,41194,2,0,P|454:145|421:165,1,64,0|10,0:0|0:1,0:0:0:0:
371,224,41667,5,0,0:0:0:0:
290,164,41903,2,0,P|285:117|297:78,1,64,8|8,0:0|0:1,0:0:0:0:
140,30,42375,1,2,0:1:0:0:
55,69,42611,1,0,0:0:0:0:
10,145,42848,1,0,1:0:0:0:
6,240,43084,2,0,P|47:244|90:260,1,64,0|10,0:0|0:1,0:0:0:0:
80,259,43438,5,0,0:0:0:0:
88,268,43556,2,0,P|83:287|80:309,2,32,2|0|8,0:0|0:0|0:0,0:0:0:0:
174,222,44029,1,8,0:1:0:0:
259,269,44265,1,2,0:1:0:0:
259,269,44383,1,2,0:0:0:0:
346,220,44619,2,0,P|353:168|342:106,1,96,2|0,0:0|0:0,0:0:0:0:
275,56,45210,5,8,0:1:0:0:
275,56,45328,1,0,0:0:0:0:
275,56,45446,2,0,P|256:62|232:68,2,32,2|0|8,0:0|0:0|0:0,0:0:0:0:
360,0,45918,1,8,0:1:0:0:
461,30,46155,2,0,P|469:59|471:81,3,32,2|2|2|2,0:1|0:0|0:1|0:0,0:0:0:0:
501,84,46627,2,0,P|493:113|491:135,3,32,2|2|2|2,0:1|0:1|0:1|0:1,0:0:0:0:
461,146,47100,6,0,P|471:193|475:243,1,71.9999978027344,14|0,0:1|0:0,0:0:0:0:
472,230,47454,1,8,0:1:0:0:
468,244,47572,1,0,1:0:0:0:
399,360,47808,1,10,0:1:0:0:
312,317,48044,2,0,P|302:270|298:220,2,71.9999978027344,0|0|0,0:0|0:0|1:0,0:0:0:0:
95,366,48989,6,0,P|55:360|12:343,1,71.9999978027344,10|0,0:1|0:0,0:0:0:0:
17,340,49344,1,8,0:1:0:0:
9,332,49462,1,0,1:0:0:0:
57,247,49698,2,0,B|36:173|89:173|57:95,1,143.999995605469,8|0,0:1|0:0,0:0:0:0:
9,23,50407,1,0,1:0:0:0:
145,48,50643,6,0,P|188:37|239:33,1,71.9999978027344,0|10,0:0|0:1,0:0:0:0:
350,65,51115,1,0,0:0:0:0:
350,65,51233,1,8,0:1:0:0:
350,65,51352,1,0,1:0:0:0:
283,138,51588,1,10,0:1:0:0:
361,202,51824,1,0,0:0:0:0:
431,133,52060,2,0,P|473:137|529:155,1,71.9999978027344,0|0,0:0|1:0,0:0:0:0:
457,233,52533,1,0,0:0:0:0:
361,202,52769,6,0,P|340:256|350:328,1,107.999996704102,10|8,0:1|0:1,0:0:0:0:
351,320,53241,1,0,1:0:0:0:
440,372,53478,2,0,P|463:299|445:205,1,143.999995605469,8|0,0:1|0:0,0:0:0:0:
411,141,54186,1,0,1:0:0:0:
236,254,54659,6,0,P|188:253|115:281,1,107.999996704102,10|8,0:1|0:1,0:0:0:0:
117,284,55131,2,0,P|110:235|121:188,1,71.9999978027344,0|10,1:0|0:1,0:0:0:0:
163,115,55604,1,0,0:0:0:0:
245,166,55840,1,0,0:0:0:0:
317,98,56076,2,0,P|357:103|408:126,1,71.9999978027344,0|0,1:0|0:0,0:0:0:0:
463,210,56548,5,10,0:1:0:0:
383,257,56785,1,0,0:0:0:0:
383,257,56903,1,8,0:1:0:0:
383,257,57021,1,0,1:0:0:0:
295,206,57257,2,0,B|280:135|337:136|306:53,1,143.999995605469,8|0,0:1|0:0,0:0:0:0:
219,2,57966,2,0,P|163:8|122:9,1,71.9999978027344,0|0,1:0|0:0,0:0:0:0:
34,6,58438,5,10,0:1:0:0:
141,114,58793,1,8,0:1:0:0:
141,114,58911,2,0,P|157:165|151:208,1,71.9999978027344,0|10,1:0|0:1,0:0:0:0:
94,323,59383,2,0,P|162:280|231:282,1,143.999995605469,0|0,0:0|1:0,0:0:0:0:
311,339,60092,1,0,0:0:0:0:
397,287,60328,6,0,P|406:246|395:189,1,71.9999978027344,10|2,0:1|0:0,0:0:0:0:
396,206,60682,1,8,0:1:0:0:
388,197,60800,1,2,1:3:0:0:
24,30,62218,6,0,P|8:93|21:141,1,80,12|8,0:1|0:1,0:0:0:0:
16,120,62572,1,0,0:0:0:0:
23,133,62690,2,0,P|75:144|123:171,1,80,2|2,1:2|0:0,0:0:0:0:
110,165,63044,1,8,0:0:0:0:
121,178,63163,1,2,0:1:0:0:
176,264,63399,1,8,0:1:0:0:
81,262,63635,1,2,1:2:0:0:
219,180,63871,1,0,0:1:0:0:
310,290,64107,6,0,P|318:244|303:180,1,80,10|8,0:1|0:1,0:0:0:0:
217,48,64580,2,0,P|265:79|343:78,1,120,2|8,1:2|0:0,0:0:0:0:
345,69,65052,1,2,0:1:0:0:
439,38,65289,1,14,0:1:0:0:
510,106,65525,1,2,1:2:0:0:
479,205,65761,5,2,0:1:0:0:
479,205,65879,1,8,0:0:0:0:
479,205,65997,2,0,P|473:244|473:294,1,80,10|8,0:1|0:1,0:0:0:0:
314,379,66470,2,0,P|322:313|302:238,1,120,2|8,1:2|0:0,0:0:0:0:
296,249,66942,2,0,P|271:255|241:259,2,40,2|8|8,0:1|0:0|0:1,0:0:0:0:
361,168,67415,1,2,1:2:0:0:
283,97,67651,5,0,0:0:0:0:
283,97,67769,1,8,0:0:0:0:
283,97,67887,2,0,P|233:100|177:122,1,80,10|8,0:1|0:1,0:0:0:0:
152,229,68359,2,0,P|202:226|258:204,1,80,2|2,1:2|0:1,0:0:0:0:
55,82,68832,2,0,P|37:148|49:222,1,120,2|0,0:1|0:0,0:0:0:0:
50,213,69304,1,2,1:2:0:0:
5,357,69541,5,2,0:0:0:0:
5,357,69659,1,10,0:0:0:0:
5,357,69777,2,0,P|48:349|99:346,1,80,12|8,0:1|0:1,0:0:0:0:
98,349,70131,1,0,0:0:0:0:
113,356,70249,2,0,P|121:311|106:249,1,80,2|0,1:2|0:0,0:0:0:0:
110,264,70604,1,8,0:0:0:0:
101,252,70722,1,2,0:1:0:0:
40,177,70958,1,8,0:1:0:0:
119,112,71194,1,2,1:2:0:0:
180,193,71430,1,0,0:0:0:0:
302,82,71667,6,0,P|255:91|195:97,1,80,10|8,0:1|0:1,0:0:0:0:
397,246,72139,2,0,P|394:174|432:117,1,120,2|8,1:2|0:0,0:0:0:0:
433,120,72611,1,2,0:1:0:0:
490,202,72848,1,14,0:1:0:0:
468,298,73084,1,2,1:2:0:0:
381,349,73320,5,2,0:1:0:0:
381,349,73438,1,8,0:0:0:0:
381,349,73556,2,0,P|336:339|274:334,1,80,10|8,0:1|0:1,0:0:0:0:
184,371,74029,1,2,1:2:0:0:
93,311,74265,1,0,0:0:0:0:
93,311,74383,1,8,0:0:0:0:
93,311,74501,2,0,P|95:276|105:247,2,40,2|8|8,0:1|0:0|0:1,0:0:0:0:
198,249,74974,1,2,1:2:0:0:
111,168,75210,5,2,0:1:0:0:
111,168,75328,1,8,0:0:0:0:
111,168,75446,2,0,P|60:173|9:189,1,80,12|2,0:1|0:0,0:0:0:0:
146,24,75918,2,0,P|155:59|155:91,1,40,2|8,0:1|0:1,0:0:0:0:
207,136,76155,2,0,P|197:68|222:4,1,120,4|8,1:2|0:0,0:0:0:0:
227,6,76627,1,12,0:1:0:0:
318,92,76863,5,4,1:1:0:0:
323,107,76981,1,0,1:0:0:0:
326,123,77100,1,8,0:3:0:0:
327,139,77218,1,4,0:3:0:0:
326,158,77336,6,0,P|317:205|323:264,1,80,12|0,0:1|0:0,0:0:0:0:
323,250,77690,1,2,0:0:0:0:
329,263,77808,1,0,1:0:0:0:
391,344,78044,1,8,0:1:0:0:
489,376,78281,2,0,P|498:329|492:270,1,80,2|0,0:1|0:0,0:0:0:0:
488,282,78635,1,0,0:0:0:0:
416,165,78871,2,0,P|368:174|318:177,1,80
317,188,79226,6,0,P|312:129|331:78,1,80,10|0,0:1|0:0,0:0:0:0:
324,97,79580,1,2,0:0:0:0:
332,88,79698,1,0,1:0:0:0:
423,29,79934,1,8,0:1:0:0:
512,107,80170,2,0,P|517:166|498:217,1,80,2|0,0:1|0:0,0:0:0:0:
503,200,80525,1,0,0:0:0:0:
490,328,80761,2,0,P|451:313|392:300,1,80
399,289,81115,6,0,P|348:300|295:324,1,80,10|0,0:1|0:0,0:0:0:0:
310,323,81470,1,2,0:0:0:0:
302,336,81588,1,0,1:0:0:0:
127,251,81824,1,8,0:1:0:0:
232,220,82060,2,0,P|219:265|212:319,1,80,2|0,0:1|0:0,0:0:0:0:
214,311,82415,1,0,0:0:0:0:
215,325,82533,1,0,1:1:0:0:
118,373,82769,1,0,0:0:0:0:
33,308,83005,1,6,0:3:0:0:
256,192,83123,12,4,84895,0:1:0:0:
252,382,92454,5,2,0:1:0:0:
323,311,92690,2,0,P|321:267|306:227,1,64,2|2,0:0|0:1,0:0:0:0:
309,236,93044,1,0,0:0:0:0:
302,227,93163,2,0,L|251:241,2,32,2|2|2,0:0|0:0|0:0,0:0:0:0:
373,149,93635,2,0,L|424:163,2,32,0|0|2,0:0|0:0|0:1,0:0:0:0:
172,0,94344,5,2,0:1:0:0:
101,71,94580,2,0,P|103:115|118:155,1,64,2|2,0:0|0:1,0:0:0:0:
115,146,94934,1,0,0:0:0:0:
122,155,95053,2,0,L|173:141,2,32,2|2|2,0:0|0:0|0:0,0:0:0:0:
51,233,95525,2,0,L|0:219,2,32,0|0|2,0:0|0:0|0:1,0:0:0:0:
203,378,96233,5,2,0:1:0:0:
287,322,96470,2,0,P|327:331|374:336,1,64,2|2,0:0|0:1,0:0:0:0:
460,376,96942,1,2,0:0:0:0:
460,376,97060,1,2,0:0:0:0:
460,376,97178,2,0,P|465:340|450:266,1,96,2|2,0:0|0:0,0:0:0:0:
255,119,98123,6,0,P|250:155|265:229,1,96,2|0,0:0|0:0,0:0:0:0:
269,225,98596,1,2,0:3:0:0:
14,366,100040,6,0,P|8:317|25:262,1,80,12|0,0:1|0:0,0:0:0:0:
24,276,100394,1,0,0:0:0:0:
35,269,100512,2,0,P|84:282|134:289,1,80,0|8,1:0|0:1,0:0:0:0:
77,158,100984,2,0,P|28:145|-20:138,1,80.3555558007812,0|8,1:0|0:1,0:0:0:0:
9,50,101430,1,0,1:0:0:0:
102,11,101666,1,0,0:0:0:0:
195,49,101901,6,0,P|206:96|194:159,1,80,0|0,1:0|0:0,0:0:0:0:
199,140,102256,1,8,0:1:0:0:
191,152,102374,1,0,1:0:0:0:
150,302,102610,2,0,P|197:262|284:260,1,120,8|0,0:1|0:0,0:0:0:0:
273,246,103083,2,0,P|286:308|279:359,1,80,8|0,0:1|1:0,0:0:0:0:
383,368,103555,1,0,0:0:0:0:
503,291,103792,6,0,P|454:284|401:271,1,80,0|0,1:0|0:0,0:0:0:0:
415,271,104146,1,8,0:1:0:0:
406,263,104264,1,0,1:0:0:0:
292,145,104500,1,8,0:1:0:0:
210,200,104736,2,0,P|218:241|224:301,1,80,0|8,1:0|0:1,0:0:0:0:
319,306,105209,2,0,P|311:347|305:407,1,80,0|0,1:0|0:0,0:0:0:0:
119,315,105681,6,0,P|48:306|4:258,1,120,0|0,1:0|0:0,0:0:0:0:
4,259,106154,1,0,1:0:0:0:
6,153,106390,2,0,P|44:160|90:191,1,80,8|0,0:1|1:0,0:0:0:0:
181,122,106862,2,0,P|189:77|188:18,1,80,8|0,0:1|1:0,0:0:0:0:
91,78,107335,1,8,0:1:0:0:
183,229,107571,6,0,P|224:219|290:215,2,80,12|0|0,0:1|0:0|1:0,0:0:0:0:
28,364,108280,2,0,P|28:310|47:273,1,80,8|0,0:1|1:0,0:0:0:0:
211,278,108752,1,8,0:1:0:0:
131,340,108988,1,0,1:0:0:0:
124,225,109225,6,0,B|99:145|163:148|128:58,1,160
126,58,109815,1,8,0:1:0:0:
121,46,109933,1,0,1:0:0:0:
245,102,110169,2,0,P|249:57|261:2,1,80,8|0,0:1|1:0,0:0:0:0:
352,77,110642,1,8,0:1:0:0:
439,113,110878,1,0,1:0:0:0:
492,192,111114,1,0,0:0:0:0:
502,286,111351,6,0,P|460:291|404:302,1,80,0|0,1:0|0:0,0:0:0:0:
412,305,111705,1,8,0:1:0:0:
402,314,111823,1,0,1:0:0:0:
323,256,112059,1,8,0:1:0:0:
243,341,112295,2,0,P|236:294|218:239,2,80,0|8|8,1:0|0:1|0:1,0:0:0:0:
79,375,113004,1,2,0:3:0:0:
142,304,113240,1,2,0:0:0:0:
194,381,115130,6,0,P|210:318|197:270,1,80,12|8,0:1|0:1,0:0:0:0:
202,291,115484,1,0,0:0:0:0:
192,281,115602,2,0,P|151:290|110:294,1,80,2|2,1:2|0:0,0:0:0:0:
102,287,115956,1,8,0:0:0:0:
93,280,116075,1,2,0:1:0:0:
37,204,116311,1,8,0:1:0:0:
62,110,116547,1,2,1:2:0:0:
147,62,116783,1,0,0:0:0:0:
240,86,117019,6,0,P|248:132|233:196,1,80,10|8,0:1|0:1,0:0:0:0:
335,34,117492,2,0,P|383:3|461:4,1,120,2|8,1:2|0:0,0:0:0:0:
463,13,117964,1,2,0:1:0:0:
512,100,118201,1,14,0:1:0:0:
453,183,118437,1,2,1:2:0:0:
355,166,118673,5,2,0:1:0:0:
355,166,118791,1,8,0:0:0:0:
355,166,118909,2,0,P|349:205|349:255,1,80,10|8,0:1|0:1,0:0:0:0:
258,382,119382,2,0,P|296:356|387:356,1,120,2|8,1:2|0:0,0:0:0:0:
397,341,119855,2,0,P|391:366|387:396,2,40,2|8|8,0:1|0:0|0:1,0:0:0:0:
493,374,120327,1,2,1:2:0:0:
512,253,120563,5,0,0:0:0:0:
512,253,120681,1,8,0:0:0:0:
512,253,120799,2,0,P|462:250|406:228,1,80,10|8,0:1|0:1,0:0:0:0:
244,262,121271,2,0,P|294:265|350:287,1,80,2|0,1:2|0:0,0:0:0:0:
125,383,121744,2,0,P|143:317|131:243,1,120,2|0,0:1|0:0,0:0:0:0:
130,252,122216,1,2,1:2:0:0:
0,146,122453,5,2,0:0:0:0:
0,146,122571,1,8,0:0:0:0:
0,146,122689,2,0,P|43:154|94:157,1,80,12|8,0:1|0:1,0:0:0:0:
94,152,123043,1,0,0:0:0:0:
108,143,123161,2,0,P|116:98|101:36,1,80,2|2,1:2|0:0,0:0:0:0:
105,51,123516,1,8,0:0:0:0:
96,39,123634,1,2,0:1:0:0:
187,0,123870,1,8,0:1:0:0:
277,27,124106,1,2,1:2:0:0:
324,111,124342,1,0,0:0:0:0:
291,206,124579,6,0,P|251:211|212:218,1,80,10|2,0:1|0:1,0:0:0:0:
72,374,125051,2,0,P|69:302|107:245,1,120,2|8,1:2|0:0,0:0:0:0:
107,250,125523,1,2,0:1:0:0:
191,203,125760,1,8,0:1:0:0:
106,154,125996,1,2,1:2:0:0:
203,306,126232,5,2,0:0:0:0:
203,306,126350,1,8,0:0:0:0:
203,306,126468,2,0,P|248:296|310:291,1,80,12|10,0:1|0:1,0:0:0:0:
374,324,126941,1,2,1:2:0:0:
473,293,127177,1,2,0:0:0:0:
473,293,127295,1,8,0:0:0:0:
473,293,127413,2,0,P|475:258|485:229,2,40,2|8|10,0:1|0:0|0:1,0:0:0:0:
386,200,127886,1,2,1:2:0:0:
283,222,128122,5,2,0:0:0:0:
283,222,128240,1,8,0:0:0:0:
283,222,128358,2,0,P|288:171|304:120,1,80,12|2,0:1|0:0,0:0:0:0:
434,0,128830,2,0,P|437:19|443:38,1,40,2|8,0:1|0:1,0:0:0:0:
505,96,129067,2,0,P|437:86|373:111,1,120,4|8,1:1|0:0,0:0:0:0:
376,114,129539,1,10,0:1:0:0:
280,72,129775,5,4,1:1:0:0:
275,87,129893,1,0,1:0:0:0:
272,103,130012,1,4,0:3:0:0:
271,119,130130,1,0,1:0:0:0:
272,135,130248,6,0,P|278:181|269:244,1,80,12|8,0:1|0:1,0:0:0:0:
270,229,130603,1,0,0:0:0:0:
261,244,130721,2,0,P|223:235|153:227,1,80,2|2,1:3|0:0,0:0:0:0:
168,229,131075,1,8,0:0:0:0:
154,235,131193,1,2,0:3:0:0:
69,297,131429,1,8,0:1:0:0:
4,216,131666,1,2,1:2:0:0:
88,151,131902,1,0,0:0:0:0:
7,30,132138,6,0,P|61:46|107:53,1,80,10|8,0:1|0:1,0:0:0:0:
223,173,132610,2,0,B|205:113|247:113|220:40,1,120,2|8,1:2|0:0,0:0:0:0:
216,37,133083,1,2,0:1:0:0:
306,0,133319,1,10,0:1:0:0:
394,38,133556,1,2,1:2:0:0:
419,133,133792,1,2,0:1:0:0:
366,217,134028,6,0,P|328:208|274:203,1,80,10|8,0:1|0:1,0:0:0:0:
144,127,134500,2,0,P|162:188|153:251,1,120,2|8,1:2|0:0,0:0:0:0:
147,259,134973,2,0,P|121:252|84:246,2,40,2|8|8,0:1|0:0|0:1,0:0:0:0:
211,335,135445,1,2,1:2:0:0:
312,301,135681,5,0,0:0:0:0:
312,301,135799,1,8,0:0:0:0:
312,301,135917,2,0,P|347:304|406:325,1,80,10|8,0:1|0:1,0:0:0:0:
479,366,136390,1,2,1:2:0:0:
474,248,136626,1,2,0:0:0:0:
474,248,136744,1,8,0:0:0:0:
474,248,136862,2,0,P|501:241|538:228,2,40,2|0|8,0:1|0:0|0:1,0:0:0:0:
382,310,137335,1,2,1:2:0:0:
294,251,137571,5,0,0:0:0:0:
294,251,137689,1,8,0:0:0:0:
294,251,137807,2,0,P|254:251|192:271,1,80,12|8,0:1|0:1,0:0:0:0:
204,252,138162,1,0,0:0:0:0:
195,243,138280,2,0,P|183:189|196:133,1,80,2|2,1:3|0:0,0:0:0:0:
193,154,138634,1,8,0:0:0:0:
204,143,138752,1,2,0:3:0:0:
274,72,138988,1,8,0:1:0:0:
299,164,139225,1,2,1:2:0:0:
179,50,139461,1,0,0:0:0:0:
97,103,139697,6,0,P|49:95|6:82,1,80,10|2,0:1|0:1,0:0:0:0:
72,213,140169,2,0,P|92:260|86:337,1,120,2|8,1:2|0:0,0:0:0:0:
79,344,140642,1,2,0:1:0:0:
171,373,140878,1,8,0:1:0:0:
250,318,141114,1,2,1:2:0:0:
352,349,141351,5,0,0:0:0:0:
352,349,141469,1,8,0:0:0:0:
352,349,141587,2,0,P|355:294|333:245,1,80,14|8,0:1|0:1,0:0:0:0:
402,120,142059,2,0,P|345:154|277:155,1,120,2|8,1:2|0:0,0:0:0:0:
263,173,142532,2,0,P|267:141|263:109,2,40,2|8|8,0:1|0:0|0:1,0:0:0:0:
177,229,143004,1,2,1:2:0:0:
89,182,143240,5,0,0:0:0:0:
89,182,143358,1,8,0:0:0:0:
89,182,143477,2,0,P|43:178|-7:168,1,80,12|8,0:1|0:1,0:0:0:0:
106,21,143949,1,12,0:1:0:0:
165,103,144185,1,12,0:1:0:0:
210,17,144421,1,8,0:1:0:0:
63,119,144658,1,8,0:0:0:0:
63,119,144776,1,8,0:0:0:0:
63,119,144894,2,0,P|73:146|80:189,1,40,0|0,1:0|1:0,0:0:0:0:
96,184,145130,2,0,P|86:211|79:254,1,40,2|2,0:0|0:0,0:0:0:0:
173,259,145366,6,0,P|188:215|188:158,1,71.9999978027344,12|0,0:1|0:0,0:0:0:0:
148,18,145957,1,0,0:0:0:0:
148,18,146075,1,2,1:0:0:0:
235,58,146311,2,0,P|277:54|357:34,2,107.999996704102,2|0|2,0:0|0:0|0:0,0:0:0:0:
157,117,147256,5,10,0:1:0:0:
60,77,147492,2,0,B|36:154|91:151|64:236,1,143.999995605469,0|2,0:0|1:0,0:0:0:0:
1,358,148201,2,0,P|45:339|95:333,1,71.9999978027344,2|8,0:0|0:1,0:0:0:0:
98,312,148555,2,0,P|155:332|207:380,1,107.999996704102,0|2,0:0|0:0,0:0:0:0:
311,382,149146,6,0,B|293:328|335:325|302:257,2,107.999996704102,8|2|0,0:1|0:0|1:0,0:0:0:0:
415,279,150091,2,0,P|458:285|494:297,1,71.9999978027344,2|8,0:0|0:1,0:0:0:0:
508,312,150445,2,0,P|520:241|499:179,1,107.999996704102
427,147,151036,5,8,0:1:0:0:
492,60,151272,1,0,0:0:0:0:
492,60,151390,2,0,P|445:60|370:46,1,107.999996704102,2|0,0:1|1:0,0:0:0:0:
300,6,151980,1,2,0:0:0:0:
216,64,152217,2,0,B|193:141|247:140|218:217,1,143.999995605469,8|0,0:1|0:0,0:0:0:0:
162,287,152925,5,12,0:1:0:0:
72,241,153162,1,0,0:0:0:0:
72,241,153280,1,10,0:1:0:0:
72,241,153398,2,0,P|75:195|66:149,1,71.9999978027344,0|2,0:0|1:0,0:0:0:0:
6,18,153870,2,0,P|66:62|128:59,1,107.999996704102,2|0,0:0|0:0,0:0:0:0:
131,79,154343,2,0,P|129:46|134:13,2,35.9999989013672,2|0|2,0:1|0:0|0:0,0:0:0:0:
217,139,154815,5,10,0:1:0:0:
304,84,155051,1,0,0:0:0:0:
304,84,155169,2,0,B|364:77|360:108|424:98,1,107.999996704102,8|2,0:1|1:0,0:0:0:0:
492,246,155760,2,0,P|455:231|403:220,1,71.9999978027344,2|8,0:0|0:1,0:0:0:0:
399,210,156114,2,0,P|414:279|400:337,1,107.999996704102,0|2,0:0|0:0,0:0:0:0:
332,378,156705,5,8,0:1:0:0:
248,331,156941,2,0,P|212:343|163:365,2,71.9999978027344,2|2|0,0:0|0:1|1:0,0:0:0:0:
315,236,157650,2,0,P|322:195|309:149,1,71.9999978027344,2|8,0:0|0:1,0:0:0:0:
316,133,158004,2,0,P|256:149|196:150,1,120,0|2,0:0|0:1,0:0:0:0:
111,213,158595,5,10,0:1:0:0:
166,296,158831,1,2,0:0:0:0:
29,375,159067,1,2,0:1:0:0:
29,375,159185,1,0,0:0:0:0:
29,375,159303,2,0,P|15:335|17:254,1,120,0|0,1:0|0:0,0:0:0:0:
26,242,159776,1,8,0:1:0:0:
93,168,160012,1,0,1:0:0:0:
9,37,160248,5,8,0:1:0:0:
9,37,160366,1,2,0:0:0:0:
9,37,160484,2,0,P|60:68|135:71,1,120,12|2,0:1|0:0,0:0:0:0:
148,93,160957,2,0,P|150:68|161:32,2,40,2|0|0,1:0|0:0|0:0,0:0:0:0:
236,138,161311,2,0,P|248:88|243:6,1,120,10|2,0:1|0:1,0:0:0:0:
346,130,161902,1,2,1:0:0:0:
459,8,162138,5,0,0:0:0:0:
459,8,162256,1,0,0:0:0:0:
459,8,162374,2,0,P|421:21|329:35,1,120,10|2,0:1|0:0,0:0:0:0:
305,14,162847,2,0,P|317:61|315:78,2,40,2|0|0,1:0|0:0|0:0,0:0:0:0:
220,63,163201,2,0,B|202:125|254:123|225:208,1,120,10|2,0:1|0:0,0:0:0:0:
149,244,163792,1,2,1:0:0:0:
64,360,164028,5,2,0:1:0:0:
64,360,164146,1,2,0:0:0:0:
64,360,164264,2,0,P|133:344|201:341,1,120,10|2,0:1|0:0,0:0:0:0:
210,358,164736,2,0,P|207:318|211:287,2,40,2|0|0,1:0|0:0|0:0,0:0:0:0:
297,342,165091,2,0,P|364:346|426:305,1,120,10|2,0:1|0:1,0:0:0:0:
468,220,165681,1,2,1:0:0:0:
468,220,165799,2,0,P|425:215|372:200,1,80,2|0,0:0|0:0,0:0:0:0:
358,223,166154,6,0,P|369:147|332:93,1,120,12|2,0:1|0:0,0:0:0:0:
330,95,166626,1,2,1:0:0:0:
221,27,166862,1,0,0:0:0:0:
221,27,166980,2,0,P|211:92|225:134,1,80,10|0,0:1|1:0,0:0:0:0:
225,123,167335,1,2,0:0:0:0:
142,187,167571,1,4,1:1:0:0:
15,112,167807,5,2,0:1:0:0:
15,112,167925,1,8,0:0:0:0:
15,112,168043,2,0,P|56:109|110:98,1,80,12|0,0:1|0:0,0:0:0:0:
107,91,168398,1,10,0:1:0:0:
118,81,168516,2,0,P|159:84|213:95,1,80,2|0,1:1|0:0,0:0:0:0:
206,101,168870,1,8,0:1:0:0:
215,113,168988,1,2,0:0:0:0:
269,190,169225,1,2,0:1:0:0:
210,268,169461,1,2,1:1:0:0:
252,356,169697,5,2,0:0:0:0:
252,356,169815,1,8,0:0:0:0:
252,356,169933,2,0,B|313:340|313:381|385:362,1,120,8|8,0:1|0:1,0:0:0:0:
394,375,170406,2,0,P|406:303|415:280,1,80,2|2,1:1|0:0,0:0:0:0:
392,272,170760,2,0,P|460:275|517:241,1,120,8|2,0:1|0:1,0:0:0:0:
492,149,171351,1,2,1:1:0:0:
411,39,171587,5,2,0:0:0:0:
411,39,171705,1,8,0:0:0:0:
411,39,171823,2,0,P|398:83|401:139,1,80,12|0,0:1|0:0,0:0:0:0:
440,276,172295,2,0,P|401:243|316:236,1,120,2|8,1:0|0:1,0:0:0:0:
313,243,172768,2,0,P|313:200|296:141,1,80,2|2,0:0|0:1,0:0:0:0:
207,112,173240,1,2,1:0:0:0:
239,5,173477,5,2,0:0:0:0:
239,5,173595,1,0,0:0:0:0:
239,5,173713,2,0,P|195:17|137:25,1,80,12|2,0:1|0:0,0:0:0:0:
326,49,174185,1,2,1:0:0:0:
418,128,174421,2,0,P|418:88|423:48,1,80,8|0,0:0|0:0,0:0:0:0:
432,37,174776,1,0,1:0:0:0:
440,29,174894,1,10,0:1:0:0:
512,141,175130,1,0,1:0:0:0:
509,154,175248,1,0,1:0:0:0:
506,168,175366,1,0,1:0:0:0:
504,182,175484,1,0,1:0:0:0:
502,196,175603,6,0,P|506:245|504:292,1,80,12|8,0:1|0:0,0:0:0:0:
501,289,175957,1,8,0:0:0:0:
494,302,176075,2,0,P|450:291|391:284,1,80,8|8,0:0|0:0,0:0:0:0:
403,290,176429,1,2,1:2:0:0:
391,297,176547,1,10,0:0:0:0:
310,350,176784,1,2,1:1:0:0:
223,301,177020,2,0,P|188:305|153:316,1,40,0|0,1:0|0:0,0:0:0:0:
160,330,177256,2,0,P|125:326|90:315,1,40,8|8,0:3|0:0,0:0:0:0:
38,355,177492,6,0,P|24:298|41:249,1,80,12|8,0:1|0:3,0:0:0:0:
39,254,177847,1,2,0:0:0:0:
88,153,178083,2,0,P|81:116|67:90,1,40,4|8,0:3|0:0,0:0:0:0:
11,66,178319,2,0,B|75:59|73:96|143:88,1,120,12|10,0:1|0:1,0:0:0:0:
226,168,178910,1,8,0:1:0:0:
226,168,179028,1,0,0:0:0:0:
226,168,179146,1,2,0:3:0:0:
330,61,179382,6,0,P|320:116|330:168,1,80,12|10,0:1|0:1,0:0:0:0:
332,162,179736,1,0,1:0:0:0:
404,231,179972,2,0,P|435:222|459:217,1,40,8|2,0:1|1:0,0:0:0:0:
499,164,180209,2,0,P|509:95|490:28,1,120,12|10,0:1|0:1,0:0:0:0:
395,0,180799,2,0,P|359:3|328:15,1,40,8|8,0:1|0:0,0:0:0:0:
330,23,181036,2,0,P|294:20|263:8,1,40,2|0,0:0|1:0,0:0:0:0:
205,1,181272,5,12,0:1:0:0:
121,39,181508,1,10,0:1:0:0:
161,122,181744,1,10,0:1:0:0:
247,88,181980,1,0,1:0:0:0:
315,205,182217,2,0,P|268:193|203:184,1,80,0|10,0:0|0:3,0:0:0:0:
122,271,182689,1,12,0:0:0:0:
125,285,182807,1,8,0:0:0:0:
128,298,182925,1,8,0:0:0:0:
132,312,183043,1,8,0:0:0:0:
136,324,183162,6,0,P|183:329|236:315,1,80,12|8,0:1|0:1,0:0:0:0:
225,315,183516,1,2,0:0:0:0:
235,308,183634,2,0,P|228:260|238:208,1,80,4|0,0:3|1:0,0:0:0:0:
238,218,183988,1,12,0:1:0:0:
246,210,184106,1,0,0:0:0:0:
326,162,184343,1,10,0:1:0:0:
414,195,184579,1,8,0:1:0:0:
440,284,184815,1,0,1:0:0:0:
370,351,185051,6,0,P|335:344|270:336,1,80,12|0,0:1|0:0,0:0:0:0:
217,361,185406,1,8,0:0:0:0:
217,361,185524,1,12,0:1:0:0:
217,361,185642,1,2,0:0:0:0:
67,301,185878,2,0,P|58:252|69:208,1,80,12|0,0:1|1:0,0:0:0:0:
77,202,186232,1,10,0:1:0:0:
47,60,186469,2,0,P|79:68|103:80,1,40,10|8,0:1|0:3,0:0:0:0:
119,61,186705,2,0,P|133:90|139:116,1,40,4|2,0:3|0:0,0:0:0:0:
195,154,186941,6,0,P|195:197|172:262,1,80,12|8,0:1|0:1,0:0:0:0:
170,251,187295,1,2,0:0:0:0:
237,327,187532,1,2,0:0:0:0:
330,291,187768,2,0,B|396:286|389:326|464:321,1,120,12|10,0:1|0:1,0:0:0:0:
506,238,188358,1,0,1:0:0:0:
503,224,188477,1,2,1:2:0:0:
499,212,188595,1,2,1:2:0:0:
496,200,188713,1,2,1:2:0:0:
492,187,188831,5,12,0:1:0:0:
421,121,189067,1,8,0:1:0:0:
330,104,189303,1,8,0:1:0:0:
239,138,189540,1,8,1:1:0:0:
59,83,189776,5,8,1:1:0:0:
140,145,190012,1,8,1:1:0:0:
172,244,190248,1,8,1:1:0:0:
151,340,190484,1,8,1:1:0:0:
19,381,190721,6,0,P|14:357|15:329,1,40,8|0,1:0|1:0,0:0:0:0:
42,322,190957,2,0,P|47:298|46:270,1,40,8|0,1:0|1:0,0:0:0:0:
7,202,191193,1,8,1:0:0:0:
7,191,191311,1,0,1:0:0:0:
8,180,191429,1,8,1:0:0:0:
12,168,191547,1,0,1:0:0:0:
18,156,191666,1,8,1:0:0:0:
252,83,192610,5,2,0:0:0:0:
403,0,192965,1,0,0:0:0:0:
403,0,193083,2,0,P|424:42|412:116,1,107.999996704102,2|0,0:0|0:0,0:0:0:0:
411,116,193555,2,0,P|453:128|498:152,2,71.9999978027344,2|2|2,0:1|0:0|0:1,0:0:0:0:
332,165,194264,1,0,0:0:0:0:
247,50,194500,6,0,P|229:112|238:157,1,80,12|2,0:1|0:1,0:0:0:0:
236,142,194855,1,2,1:2:0:0:
243,157,194973,2,0,P|241:196|225:233,1,80,2|12,0:0|0:1,0:0:0:0:
127,278,195445,2,0,P|125:251|116:216,2,40,2|8|10,0:0|0:0|0:1,0:0:0:0:
0,381,195917,5,0,1:0:0:0:
11,377,196036,1,0,1:0:0:0:
23,373,196154,1,0,1:0:0:0:
36,371,196272,1,0,1:0:0:0:
49,370,196390,2,0,P|56:323|47:284,1,80,14|8,0:1|0:1,0:0:0:0:
0,142,196862,2,0,P|47:168|115:169,1,120,2|8,1:2|0:0,0:0:0:0:
127,151,197335,2,0,P|150:143|193:140,2,40,2|8|8,0:1|0:0|0:1,0:0:0:0:
210,235,197807,1,2,1:2:0:0:
300,168,198043,5,0,0:0:0:0:
300,168,198162,1,8,0:0:0:0:
300,168,198280,2,0,P|309:116|288:57,1,80,10|8,0:1|0:1,0:0:0:0:
215,13,198752,1,2,1:2:0:0:
120,71,198988,1,2,0:0:0:0:
120,71,199106,1,8,0:0:0:0:
120,71,199225,2,0,P|75:66|18:51,1,80,2|8,0:1|0:1,0:0:0:0:
11,218,199697,2,0,P|54:186|130:189,1,120,2|8,1:2|0:0,0:0:0:0:
148,168,200169,6,0,P|161:211|154:269,1,80,14|8,0:1|0:1,0:0:0:0:
154,258,200524,1,2,0:0:0:0:
146,273,200642,2,0,P|190:278|260:300,1,80,2|0,1:2|0:0,0:0:0:0:
238,295,200996,1,8,0:0:0:0:
250,306,201114,1,2,0:1:0:0:
332,355,201351,1,8,0:1:0:0:
367,195,201587,1,2,1:2:0:0:
413,284,201823,1,0,0:0:0:0:
269,208,202059,6,0,P|262:165|277:108,1,80,10|8,0:1|0:1,0:0:0:0:
391,51,202532,2,0,P|431:66|473:107,1,80,2|0,1:2|0:0,0:0:0:0:
465,102,202886,1,8,0:0:0:0:
470,115,203004,1,2,0:1:0:0:
411,188,203240,1,8,0:1:0:0:
481,274,203477,2,0,P|439:280|374:296,1,80,2|2,1:2|0:0,0:0:0:0:
392,295,203831,1,8,0:0:0:0:
381,305,203949,5,12,0:1:0:0:
311,366,204185,1,8,0:1:0:0:
302,240,204421,2,0,B|280:179|320:176|292:109,1,120,2|8,1:1|0:0,0:0:0:0:
284,105,204894,2,0,P|257:110|233:112,2,40,2|0|8,0:0|0:0|0:1,0:0:0:0:
192,203,205366,1,2,1:1:0:0:
111,83,205603,5,2,0:0:0:0:
111,83,205721,1,8,0:0:0:0:
111,83,205839,2,0,P|95:148|102:186,1,80,12|2,0:1|0:0,0:0:0:0:
100,170,206193,1,0,1:0:0:0:
106,180,206311,1,2,0:1:0:0:
11,315,206547,2,0,P|56:285|128:283,1,120,4|8,1:2|0:0,0:0:0:0:
133,291,207020,1,10,0:1:0:0:
214,363,207256,2,0,P|239:351|265:330,1,40,8|8,1:1|0:3,0:0:0:0:
285,344,207492,2,0,P|291:317|292:283,1,40,4|8,0:3|0:1,0:0:0:0:
357,249,207729,6,0,P|344:206|301:158,1,80,14|8,0:1|0:1,0:0:0:0:
312,170,208083,1,2,0:0:0:0:
301,164,208201,1,2,1:2:0:0:
215,114,208437,2,0,P|165:123|108:141,1,80,0|2,0:0|0:1,0:0:0:0:
120,148,208792,1,8,0:0:0:0:
4,321,209146,2,0,P|-5:267|8:223,1,80,2|2,1:2|0:0,0:0:0:0:
7,231,209500,1,8,0:0:0:0:
16,220,209618,1,10,0:1:0:0:
114,286,209855,6,0,P|145:291|181:308,1,40,10|0,0:1|0:0,0:0:0:0:
211,351,210091,1,2,1:2:0:0:
358,288,210327,1,2,0:0:0:0:
308,371,210563,1,2,0:1:0:0:
265,272,210799,1,8,0:1:0:0:
348,155,211036,2,0,P|354:114|336:58,1,80,4|2,1:1|0:0,0:0:0:0:
334,67,211390,1,0,1:0:0:0:
321,57,211508,6,0,P|371:50|432:35,1,80,12|8,0:1|0:1,0:0:0:0:
410,34,211862,1,2,0:1:0:0:
421,25,211980,1,2,1:2:0:0:
503,118,212217,2,0,P|492:169|494:231,1,80,2|2,0:0|0:1,0:0:0:0:
499,219,212571,1,10,0:0:0:0:
329,381,212925,2,0,P|340:330|338:268,1,80,2|2,1:1|0:0,0:0:0:0:
336,289,213280,1,8,0:0:0:0:
329,280,213398,6,0,P|282:289|223:291,1,80,14|8,0:1|0:1,0:0:0:0:
128,361,213870,1,2,1:2:0:0:
35,308,214106,1,2,0:0:0:0:
35,308,214225,1,8,0:0:0:0:
35,308,214343,2,0,P|30:264|34:237,1,40,2|8,0:1|0:0,0:0:0:0:
58,249,214579,2,0,P|63:205|59:178,1,40,10|8,0:1|0:0,0:0:0:0:
0,84,214815,5,8,0:1:0:0:
14,87,214933,1,8,0:0:0:0:
29,90,215051,1,0,1:0:0:0:
43,90,215169,1,0,1:0:0:0:
57,89,215288,2,0,P|57:45|65:-7,1,80,14|8,0:1|0:1,0:0:0:0:
188,84,215760,1,2,1:3:0:0:
127,164,215996,1,0,0:0:0:0:
194,239,216232,1,2,0:3:0:0:
289,196,216469,1,8,0:1:0:0:
289,196,216587,2,0,P|350:204|417:229,1,120,2|2,0:0|0:0,0:0:0:0:
499,368,217177,5,12,0:1:0:0:
417,326,217414,1,8,0:1:0:0:
417,326,217532,2,0,P|355:337|313:353,1,80,2|0,0:0|0:0,0:0:0:0:
321,357,217886,1,2,0:1:0:0:
233,306,218122,1,10,0:1:0:0:
276,207,218358,1,2,0:1:0:0:
276,207,218477,1,8,0:1:0:0:
276,207,218595,2,0,P|281:158|261:95,1,80,4|2,1:2|0:3,0:0:0:0:
271,119,218949,1,0,1:0:0:0:
262,108,219067,6,0,P|214:117|148:124,1,80,12|8,0:1|0:1,0:0:0:0:
15,26,219540,2,0,P|43:97|32:161,1,120,2|8,1:2|0:0,0:0:0:0:
28,155,220012,2,0,P|20:197|28:256,1,80,2|8,0:1|0:1,0:0:0:0:
122,366,220484,1,2,1:2:0:0:
24,338,220721,1,2,0:1:0:0:
122,264,220957,6,0,P|167:276|214:285,1,80,12|10,0:1|0:1,0:0:0:0:
293,252,221429,1,8,0:3:0:0:
178,126,221666,1,12,0:1:0:0:
289,75,221902,2,0,P|274:135|269:176,1,80,4|10,0:3|0:0,0:0:0:0:
436,222,222374,5,10,1:1:0:0:
440,211,222492,1,0,1:0:0:0:
443,198,222610,1,0,1:0:0:0:
445,186,222729,1,0,1:0:0:0:
447,173,222847,6,0,P|407:169|349:156,1,80,14|0,0:1|0:0,0:0:0:0:
360,155,223201,1,2,0:0:0:0:
351,149,223319,1,2,1:2:0:0:
244,38,223555,2,0,B|216:120|279:118|241:208,1,160,8|0,0:1|0:0,0:0:0:0:
174,265,224264,1,0,1:0:0:0:
87,219,224500,1,2,0:0:0:0:
95,118,224736,6,0,P|99:69|87:16,1,80,10|0,0:1|0:0,0:0:0:0:
88,29,225091,1,2,0:0:0:0:
77,18,225209,1,2,1:2:0:0:
209,79,225445,2,0,P|280:81|351:137,1,160,10|2,0:1|0:0,0:0:0:0:
447,175,226154,2,0,P|453:132|435:80,1,80,0|0,1:2|0:0,0:0:0:0:
361,232,226626,6,0,P|355:275|373:327,1,80,10|0,0:1|0:0,0:0:0:0:
372,320,226980,1,2,0:0:0:0:
381,331,227099,1,2,1:2:0:0:
489,384,227335,2,0,B|466:305|525:304|494:227,1,160,10|2,0:1|0:0,0:0:0:0:
452,149,228043,1,0,1:0:0:0:
340,209,228280,5,2,0:0:0:0:
340,209,228398,1,2,0:0:0:0:
340,209,228516,2,0,P|291:199|187:191,1,120,10|2,0:1|0:0,0:0:0:0:
206,175,228988,2,0,P|175:181|139:194,1,40,2|0,1:2|0:0,0:0:0:0:
115,245,229225,2,0,P|125:192|87:89,1,160,10|2,0:1|0:1,0:0:0:0:
23,30,229933,1,0,1:0:0:0:
23,30,230051,1,0,0:0:0:0:
23,30,230169,1,2,0:1:0:0:
169,37,230405,6,0,B|229:23|229:61|294:47,1,107.999996704102,12|0,0:1|0:0,0:0:0:0:
293,40,230878,1,0,1:2:0:0:
419,1,231114,2,0,P|394:92|407:152,1,143.999995605469,2|0,0:0|0:0,0:0:0:0:
469,209,231823,1,0,1:0:0:0:
316,363,232295,6,0,P|326:312|301:250,1,107.999996704102,2|0,0:0|0:0,0:0:0:0:
294,244,232768,1,0,1:0:0:0:
200,318,233004,2,0,B|129:304|131:358|44:343,1,143.999995605469,2|0,0:0|0:0,0:0:0:0:
0,277,233713,1,0,1:0:0:0:
131,148,234185,6,0,P|123:196|118:234,1,71.9999978027344,2|0,0:0|0:0,0:0:0:0:
120,231,234540,1,0,0:0:0:0:
122,245,234658,1,0,1:0:0:0:
218,316,234894,2,0,P|232:237|241:151,1,143.999995605469,2|0,0:0|0:0,0:0:0:0:
214,86,235603,1,0,1:0:0:0:
403,289,236075,5,4,0:1:0:0:
