osu file format v14

[General]
AudioFilename: audio.mp3
AudioLeadIn: 0
PreviewTime: 177481
Countdown: 1
SampleSet: Soft
StackLeniency: 0.2
Mode: 0
LetterboxInBreaks: 0
WidescreenStoryboard: 1

[Editor]
Bookmarks: 481,7338,34767,62196,75910,82767,96481,110196,123910,137624,151338,165053,171910,178767,199338,213053
DistanceSpacing: 0.8
BeatDivisor: 4
GridSize: 4
TimelineZoom: 2.2

[Metadata]
Title:Digital Mogura
TitleUnicode:デジタルモグラ
Artist:Gesu no Kiwami Otome.
ArtistUnicode:ゲスの極み乙女。
Creator:dsco
Version:Hard
Source:
Tags:pop rock miryoku ga sugoi yo j-pop japanese digitaru mole enon kawatani progressive alternative indie subete ga f ni naru すべてがFになる the perfect insider 魅力がすごいよ
BeatmapID:2587641
BeatmapSetID:737340

[Difficulty]
HPDrainRate:4
CircleSize:4
OverallDifficulty:6.5
ApproachRate:8
SliderMultiplier:1.5
SliderTickRate:1

[Events]
//Background and Video events
0,0,"fbacklsd.jpg",0,0
//Break Periods
//Storyboard Layer 0 (Background)
//Storyboard Layer 1 (Fail)
//Storyboard Layer 2 (Pass)
//Storyboard Layer 3 (Foreground)
//Storyboard Layer 4 (Overlay)
//Storyboard Sound Samples

[TimingPoints]
481,428.571428571429,4,2,0,50,1,0
62196,-100,4,2,0,65,0,0
75910,-100,4,2,0,40,0,0
81053,-100,4,2,0,50,0,0
110195,-100,4,2,0,65,0,0
123909,-100,4,2,0,65,0,1
136981,-100,4,2,0,50,0,0
175338,-100,4,2,0,50,0,0
178766,-100,4,2,0,70,0,1
199338,-100,4,2,0,50,0,0
206196,-111.111111111111,4,2,0,50,0,0
207910,-125,4,2,0,50,0,0
209624,-142.857142857143,4,2,0,50,0,0

[Colours]
Combo1 : 92,156,226
Combo2 : 205,54,77
Combo3 : 164,240,216
Combo4 : 213,142,193

[HitObjects]
256,192,480,5,4,0:0:0:0:
367,182,802,1,0,0:0:0:0:
478,172,1123,1,0,0:0:0:0:
418,127,1337,2,0,L|411:44,1,75,2|0,0:0|0:0,0:0:0:0:
300,62,1766,2,0,L|307:137,1,75,2|0,0:0|0:0,0:0:0:0:
256,192,2195,5,4,0:0:0:0:
145,202,2517,1,0,0:0:0:0:
34,212,2838,1,0,0:0:0:0:
94,257,3052,2,0,L|101:340,1,75,2|0,0:0|0:0,0:0:0:0:
212,322,3481,2,0,L|205:247,1,75,2|0,0:0|0:0,0:0:0:0:
256,192,3909,5,4,0:0:0:0:
367,182,4231,1,0,0:0:0:0:
478,172,4552,1,0,0:0:0:0:
418,127,4766,2,0,L|411:44,1,75,2|0,0:0|0:0,0:0:0:0:
300,62,5195,2,0,L|307:137,1,75,2|0,0:0|0:0,0:0:0:0:
256,192,5623,6,0,L|176:199,1,75,4|2,0:0|0:0,0:0:0:0:
188,273,6052,2,0,L|262:266,1,75
324,224,6481,2,0,B|336:200|332:173|319:152|319:152|304:130|303:103|314:81,1,150,2|8,3:0|0:0,0:0:0:0:
272,18,7123,6,0,L|102:1,1,150,4|0,0:0|0:0,0:0:0:0:
89,71,7766,2,0,L|98:172,1,75,8|0,0:0|0:0,0:0:0:0:
21,153,8195,2,0,L|13:78,1,75,2|2,0:0|0:0,0:0:0:0:
47,9,8623,1,8,0:0:0:0:
89,71,8838,6,0,L|105:240,1,150,4|0,0:0|0:0,0:0:0:0:
165,262,9481,2,0,L|266:271,1,75,8|0,0:0|0:0,0:0:0:0:
247,194,9910,2,0,L|172:186,1,75,2|2,0:0|0:0,0:0:0:0:
103,220,10338,1,8,0:0:0:0:
165,262,10552,6,0,L|314:276,1,150,4|0,0:0|0:0,0:0:0:0:
390,269,11195,2,0,L|382:194,1,75,8|0,0:0|0:0,0:0:0:0:
307,201,11624,2,0,L|314:275,1,75,2|2,0:0|0:0,0:0:0:0:
356,338,12052,1,8,0:0:0:0:
390,269,12266,6,0,L|375:119,1,150,4|0,0:0|0:0,0:0:0:0:
383,45,12909,2,0,L|308:37,1,75,8|0,0:0|0:0,0:0:0:0:
239,71,13338,1,2,0:0:0:0:
169,104,13552,2,0,L|94:96,1,75,2|10,0:0|0:0,0:0:0:0:
233,149,13981,6,0,L|247:298,1,150,4|0,0:0|0:0,0:0:0:0:
316,264,14623,2,0,L|390:271,1,75,8|0,0:0|0:0,0:0:0:0:
384,347,15052,2,0,L|309:339,1,75,2|2,0:0|0:0,0:0:0:0:
247,298,15480,1,8,0:0:0:0:
390,271,15695,6,0,L|404:121,1,150,4|0,0:0|0:0,0:0:0:0:
334,88,16338,2,0,L|259:95,1,75,8|0,0:0|0:0,0:0:0:0:
252,19,16767,2,0,L|326:11,1,75,2|2,0:0|0:0,0:0:0:0:
396,46,17195,1,8,0:0:0:0:
260,95,17409,6,0,L|110:80,1,150,4|0,0:0|0:0,0:0:0:0:
34,87,18052,2,0,L|42:161,1,75,8|0,0:0|0:0,0:0:0:0:
118,154,18481,2,0,L|111:79,1,75,2|2,0:0|0:0,0:0:0:0:
69,17,18909,1,8,0:0:0:0:
42,161,19123,6,0,L|27:311,1,150,4|0,0:0|0:0,0:0:0:0:
97,345,19766,1,8,0:0:0:0:
171,336,19981,2,0,L|167:373,2,37.5,2|0|8,0:0|3:0|0:0,0:0:0:0:
245,326,20409,2,0,L|350:315,1,75,0|0,3:0|3:0,0:0:0:0:
202,264,20838,6,0,L|217:114,1,150,12|2,0:0|0:0,0:0:0:0:
273,67,21481,1,8,0:0:0:0:
278,72,21695,1,2,0:0:0:0:
360,141,21910,2,0,L|286:149,1,75,2|2,0:0|0:0,0:0:0:0:
216,114,22338,1,2,3:0:0:0:
278,72,22552,6,0,L|428:57,1,150,12|2,0:0|0:0,0:0:0:0:
462,127,23195,1,8,0:0:0:0:
467,132,23409,1,2,0:0:0:0:
378,194,23624,2,0,L|385:119,1,75,2|2,0:0|0:0,0:0:0:0:
427,57,24052,1,2,3:0:0:0:
467,132,24266,6,0,L|452:282,1,150,12|2,0:0|0:0,0:0:0:0:
389,323,24909,1,8,0:0:0:0:
394,328,25123,1,2,0:0:0:0:
308,255,25338,2,0,L|383:247,1,75,2|2,0:0|0:0,0:0:0:0:
452,281,25766,1,2,3:0:0:0:
394,328,25981,6,0,L|244:343,1,150,12|2,0:0|0:0,0:0:0:0:
164,330,26623,1,10,0:0:0:0:
169,335,26837,1,0,3:0:0:0:
252,267,27052,2,0,L|245:341,2,75,8|0|2,0:0|3:0|3:0,0:0:0:0:
319,347,27695,6,0,L|334:197,1,150,12|2,0:0|0:0,0:0:0:0:
396,155,28338,1,8,0:0:0:0:
414,153,28445,1,0,0:0:0:0:
433,151,28552,1,2,0:0:0:0:
464,72,28767,2,0,L|390:79,1,75,2|2,0:0|0:0,0:0:0:0:
327,121,29195,1,2,3:0:0:0:
401,160,29409,6,0,L|416:310,1,150,12|2,0:0|0:0,0:0:0:0:
352,346,30052,1,8,0:0:0:0:
333,344,30159,1,0,0:0:0:0:
315,342,30266,1,2,0:0:0:0:
280,257,30481,2,0,L|354:265,1,75,2|2,0:0|0:0,0:0:0:0:
416,309,30909,1,2,3:0:0:0:
352,346,31123,6,0,L|202:331,1,150,12|2,0:0|0:0,0:0:0:0:
219,52,31766,1,8,0:0:0:0:
217,33,31873,1,0,0:0:0:0:
215,14,31980,1,2,0:0:0:0:
229,187,32195,2,0,L|237:261,1,75,2|2,0:0|0:0,0:0:0:0:
202,331,32623,1,2,3:0:0:0:
160,269,32838,6,0,L|145:119,1,150,12|2,0:0|0:0,0:0:0:0:
76,155,33481,1,8,0:0:0:0:
57,153,33588,1,0,0:0:0:0:
39,152,33695,1,2,0:0:0:0:
9,71,33910,2,0,L|84:78,1,75,8|0,0:0|3:0,0:0:0:0:
146,120,34338,1,0,3:0:0:0:
259,22,34552,6,0,L|409:7,1,150,12|0,0:0|0:0,0:0:0:0:
482,0,35195,2,0,L|472:96,1,75,8|0,0:1|0:0,0:0:0:0:
400,84,35623,2,0,L|282:95,1,112.5
446,146,36266,6,0,P|474:205|457:285,1,150,2|0,3:0|0:0,0:0:0:0:
391,321,36909,2,0,P|359:300|323:291,1,75,8|0,0:1|0:0,0:0:0:0:
257,254,37338,2,0,P|225:274|189:283,2,75,2|0|8,0:0|0:0|0:1,0:0:0:0:
322,217,37981,6,0,L|337:67,1,150,2|0,3:0|0:0,0:0:0:0:
288,10,38623,1,8,0:1:0:0:
213,16,38837,1,0,0:0:0:0:
256,80,39052,2,0,L|242:215,1,112.5
213,16,39695,6,0,P|154:45|74:28,1,150,2|0,3:0|0:0,0:0:0:0:
19,79,40338,1,8,0:1:0:0:
79,123,40552,1,0,0:0:0:0:
113,189,40766,2,0,P|123:224|120:262,1,75,2|0,0:0|0:0,0:0:0:0:
81,324,41195,1,8,0:1:0:0:
134,376,41409,6,0,L|284:361,1,150,2|0,3:0|0:0,0:0:0:0:
330,302,42052,2,0,L|340:201,1,75,8|0,0:1|0:0,0:0:0:0:
412,233,42481,2,0,L|399:353,1,112.5
487,239,43123,6,0,P|504:167|474:100,1,150,2|0,3:0|0:0,0:0:0:0:
441,32,43766,2,0,P|409:53|373:62,1,75,8|0,0:1|0:0,0:0:0:0:
300,63,44195,2,0,P|265:45|240:19,2,75,2|0|8,0:0|0:0|0:1,0:0:0:0:
337,128,44838,6,0,L|322:278,1,150,2|0,3:0|0:0,0:0:0:0:
315,352,45481,1,8,0:1:0:0:
240,359,45695,1,0,0:0:0:0:
247,284,45909,2,0,L|258:172,1,112.5
322,277,46552,6,0,P|393:294|460:264,1,150,2|0,3:0|0:0,0:0:0:0:
495,199,47195,2,0,P|474:167|465:131,1,75,8|0,0:1|0:0,0:0:0:0:
465,112,47516,1,0,0:0:0:0:
468,94,47623,2,0,P|470:55|459:20,1,75,8|0,0:1|3:0,0:0:0:0:
387,0,48052,1,0,3:0:0:0:
322,37,48266,6,0,L|172:52,1,150,12|0,0:0|0:0,0:0:0:0:
206,120,48909,2,0,L|198:195,1,75,8|0,0:1|0:0,0:0:0:0:
123,188,49338,2,0,L|130:114,1,75,0|2,0:0|0:0,0:0:0:0:
173,52,49766,1,0,0:0:0:0:
198,194,49981,6,0,P|269:211|336:181,1,150,8|0,0:0|0:0,0:0:0:0:
411,190,50623,2,0,P|437:216|455:249,1,75,8|0,0:1|0:0,0:0:0:0:
448,323,51052,1,0,0:0:0:0:
395,375,51266,2,0,P|359:385|321:383,1,75,2|0,0:0|0:0,0:0:0:0:
255,349,51695,6,0,L|240:199,1,150,8|0,0:0|0:0,0:0:0:0:
214,129,52338,2,0,L|224:26,1,75,8|0,0:1|0:0,0:0:0:0:
146,46,52766,2,0,L|138:120,1,75,0|2,0:0|0:0,0:0:0:0:
167,190,53195,1,0,0:0:0:0:
288,142,53409,6,0,P|359:124|426:154,1,150,8|0,0:0|0:0,0:0:0:0:
482,104,54052,2,0,P|503:136|512:172,1,75,8|0,0:1|0:0,0:0:0:0:
458,224,54481,1,0,0:0:0:0:
404,276,54695,2,0,P|383:308|374:344,1,75,2|0,0:0|0:0,0:0:0:0:
300,370,55123,6,0,L|150:355,1,150,8|0,0:0|0:0,0:0:0:0:
108,293,55766,2,0,L|101:218,1,75,8|0,0:1|0:0,0:0:0:0:
177,211,56195,2,0,L|185:285,1,75,0|2,0:0|0:0,0:0:0:0:
150,355,56623,1,0,0:0:0:0:
261,278,56838,6,0,P|291:210|273:139,1,150,8|0,0:0|0:0,0:0:0:0:
301,69,57481,2,0,P|269:48|233:39,1,75,8|0,0:1|0:0,0:0:0:0:
171,80,57909,2,0,P|139:101|103:110,1,75,0|2,0:0|0:0,0:0:0:0:
85,110,58231,1,0,0:0:0:0:
66,107,58338,1,2,3:0:0:0:
17,164,58552,5,0,0:0:0:0:
88,185,58766,2,0,L|95:266,1,75,8|2,0:0|3:0,0:0:0:0:
169,254,59195,2,0,L|162:179,1,75,8|2,0:0|3:0,0:0:0:0:
123,117,59623,1,8,0:0:0:0:
153,48,59838,2,0,L|227:54,1,75,8|8,0:0|0:0,0:0:0:0:
256,192,60266,12,8,61766,0:0:0:0:
147,293,62195,5,6,0:0:0:0:
145,274,62302,1,2,0:0:0:0:
143,255,62409,1,2,0:0:0:0:
142,236,62516,2,0,L|40:244,1,75,2|2,0:0|0:0,0:0:0:0:
56,161,62945,1,2,0:0:0:0:
61,166,63052,2,0,L|162:157,1,75,2|2,0:0|0:0,0:0:0:0:
129,85,63481,1,8,0:0:0:0:
365,293,63909,5,6,0:0:0:0:
367,274,64016,1,2,0:0:0:0:
369,255,64123,1,2,0:0:0:0:
370,236,64230,2,0,L|444:241,1,75,2|2,0:0|0:0,0:0:0:0:
456,161,64659,1,2,0:0:0:0:
451,166,64766,2,0,L|376:159,1,75,2|2,0:0|0:0,0:0:0:0:
383,85,65195,1,8,0:0:0:0:
256,40,65623,5,4,0:0:0:0:
256,115,65838,2,0,L|160:106,1,75,0|0,0:0|3:0,0:0:0:0:
256,190,66266,2,0,L|352:181,1,75,8|0,0:0|0:0,0:0:0:0:
256,265,66695,5,0,3:0:0:0:
256,339,66909,1,0,3:0:0:0:
181,257,67123,2,0,L|106:250,1,75,12|0,0:0|0:0,0:0:0:0:
256,190,67552,1,0,3:0:0:0:
256,265,67766,1,0,3:0:0:0:
330,182,67981,2,0,L|404:174,1,75,2|12,3:0|0:0,0:0:0:0:
256,81,68409,1,0,3:0:0:0:
256,99,68516,1,0,0:0:0:0:
256,117,68623,1,0,3:0:0:0:
191,227,69052,5,6,0:0:0:0:
166,224,69159,1,2,0:0:0:0:
141,222,69266,1,2,0:0:0:0:
116,220,69373,2,0,L|15:211,1,75,2|2,0:0|0:0,0:0:0:0:
119,140,69802,1,2,0:0:0:0:
124,145,69909,2,0,L|131:70,1,75,2|2,0:0|0:0,0:0:0:0:
45,138,70338,1,8,0:0:0:0:
321,227,70766,5,6,0:0:0:0:
346,224,70873,1,2,0:0:0:0:
371,222,70980,1,2,0:0:0:0:
396,220,71087,2,0,L|497:211,1,75,2|2,0:0|0:0,0:0:0:0:
393,140,71516,1,2,0:0:0:0:
388,145,71623,2,0,L|381:70,1,75,2|2,0:0|0:0,0:0:0:0:
467,138,72052,1,8,0:0:0:0:
256,117,72481,5,4,0:0:0:0:
256,135,72588,1,2,0:0:0:0:
256,154,72695,1,8,0:0:0:0:
256,173,72802,1,8,0:0:0:0:
256,192,72909,2,0,L|164:183,1,75,4|0,0:0|3:0,0:0:0:0:
181,260,73338,2,0,L|106:253,1,75,2|2,3:0|0:0,0:0:0:0:
106,178,73766,1,2,0:0:0:0:
256,192,73981,2,0,L|413:178,1,150,12|2,0:0|3:0,0:0:0:0:
405,253,74623,2,0,L|330:260,1,75,8|2,0:0|3:0,0:0:0:0:
256,117,75052,1,8,0:0:0:0:
256,267,75266,1,8,0:0:0:0:
256,267,75909,5,4,0:0:0:0:
377,258,76231,1,0,0:0:0:0:
487,249,76552,1,0,0:0:0:0:
428,206,76766,2,0,L|421:131,1,75,2|0,0:0|0:0,0:0:0:0:
310,141,77195,2,0,L|317:216,1,75,2|0,0:0|0:0,0:0:0:0:
377,258,77623,5,4,0:0:0:0:
386,146,77945,1,0,0:0:0:0:
395,36,78266,1,0,0:0:0:0:
438,95,78480,2,0,L|512:101,1,75,2|0,0:0|0:0,0:0:0:0:
503,213,78909,2,0,L|428:206,1,75,2|0,0:0|0:0,0:0:0:0:
377,258,79338,5,4,0:0:0:0:
386,146,79660,1,0,0:0:0:0:
395,36,79981,1,0,0:0:0:0:
341,87,80195,2,0,L|258:79,1,75,2|0,0:0|0:0,0:0:0:0:
256,192,80624,2,0,L|331:198,1,75,2|0,0:0|0:0,0:0:0:0:
181,185,81052,6,0,L|49:173,2,112.5,10|10|10,0:0|0:0|0:0,0:0:0:0:
331,199,81909,2,0,L|463:211,2,112.5,10|10|10,0:0|0:0|0:0,0:0:0:0:
256,192,82766,5,2,3:0:0:0:
299,130,82981,1,8,0:0:0:0:
224,124,83195,2,0,L|149:117,1,75,2|0,3:0|0:0,0:0:0:0:
131,115,83516,2,0,L|124:40,1,75,8|0,0:0|3:0,0:0:0:0:
44,41,83945,1,0,3:0:0:0:
49,46,84052,2,0,L|55:120,1,75,2|8,3:0|0:0,0:0:0:0:
98,183,84481,5,2,3:0:0:0:
91,257,84695,1,8,0:0:0:0:
84,331,84909,2,0,L|158:324,1,75,2|0,3:0|0:0,0:0:0:0:
178,322,85231,2,0,L|184:247,1,75,8|0,0:0|3:0,0:0:0:0:
185,167,85659,1,0,3:0:0:0:
190,172,85766,2,0,L|264:165,1,75,2|8,3:0|0:0,0:0:0:0:
295,96,86195,5,2,3:0:0:0:
369,89,86409,1,8,0:0:0:0:
412,150,86623,2,0,L|486:143,1,75,2|0,3:0|0:0,0:0:0:0:
505,141,86945,2,0,L|498:215,1,75,8|0,0:0|3:0,0:0:0:0:
439,263,87373,1,0,3:0:0:0:
444,268,87481,2,0,L|437:342,1,75,2|8,3:0|0:0,0:0:0:0:
362,349,87909,5,2,3:0:0:0:
288,356,88123,1,8,0:0:0:0:
245,295,88337,2,0,L|171:302,1,75,2|0,3:0|0:0,0:0:0:0:
151,305,88659,2,0,L|158:231,1,75,8|0,0:0|3:0,0:0:0:0:
232,218,89088,1,0,3:0:0:0:
237,223,89195,2,0,L|311:216,1,75,2|8,3:0|0:0,0:0:0:0:
385,208,89623,5,2,3:0:0:0:
392,133,89837,1,8,0:0:0:0:
318,140,90052,2,0,L|325:66,1,75,2|0,3:0|0:0,0:0:0:0:
327,47,90373,2,0,L|253:54,1,75,8|0,0:0|3:0,0:0:0:0:
181,11,90802,1,0,3:0:0:0:
186,16,90909,2,0,L|112:23,1,75,2|8,3:0|0:0,0:0:0:0:
51,68,91338,5,2,3:0:0:0:
44,143,91552,1,8,0:0:0:0:
106,187,91766,2,0,L|99:261,1,75,2|0,3:0|0:0,0:0:0:0:
97,280,92088,2,0,L|171:273,1,75,8|0,0:0|3:0,0:0:0:0:
231,318,92516,1,0,3:0:0:0:
236,323,92623,2,0,L|310:316,1,75,2|8,3:0|0:0,0:0:0:0:
370,361,93052,5,2,3:0:0:0:
378,286,93266,1,8,0:0:0:0:
447,256,93481,2,0,L|454:182,1,75,2|0,3:0|0:0,0:0:0:0:
455,163,93802,2,0,L|381:170,1,75,8|0,0:0|3:0,0:0:0:0:
300,173,94231,1,0,3:0:0:0:
305,178,94338,2,0,L|312:104,1,75,2|8,3:0|0:0,0:0:0:0:
250,59,94766,5,2,3:0:0:0:
176,66,94981,1,8,0:0:0:0:
102,73,95195,2,0,L|106:27,3,37.5,2|0|8|0,3:0|0:0|0:0|0:0,0:0:0:0:
27,80,95623,2,0,L|31:43,3,37.5,8|8|8|8,0:1|0:1|0:1|0:1,0:0:0:0:
21,155,96052,1,2,3:0:0:0:
21,155,96481,6,0,L|171:140,1,150,4|8,0:0|0:1,0:0:0:0:
199,71,97123,1,0,0:0:0:0:
244,132,97338,2,0,L|234:230,1,75,8|0,0:1|0:0,0:0:0:0:
310,218,97766,2,0,L|317:143,1,75,8|0,0:1|0:0,0:0:0:0:
364,85,98195,1,8,0:1:0:0:
291,74,98409,1,0,0:0:0:0:
244,132,98623,2,0,L|234:230,1,75,8|0,0:1|0:0,0:0:0:0:
310,218,99052,2,0,L|317:143,1,75,8|0,0:1|0:0,0:0:0:0:
263,276,99481,1,8,0:1:0:0:
21,155,99909,6,0,L|171:140,1,150,4|8,0:0|0:1,0:0:0:0:
199,71,100551,1,0,0:0:0:0:
273,63,100766,1,8,0:1:0:0:
244,132,100981,2,0,L|233:239,1,75,0|8,0:0|0:1,0:0:0:0:
266,274,101409,2,0,L|340:266,1,75,0|8,0:0|0:1,0:0:0:0:
408,296,101838,1,0,0:0:0:0:
400,221,102052,2,0,L|407:146,1,75,8|0,0:1|0:0,0:0:0:0:
324,227,102481,2,0,L|332:153,1,75,8|0,0:1|0:0,0:0:0:0:
266,274,102909,1,8,0:1:0:0:
21,155,103338,6,0,L|171:140,1,150,4|8,0:0|0:1,0:0:0:0:
199,71,103981,1,0,0:0:0:0:
246,132,104195,1,8,0:1:0:0:
215,200,104409,1,0,0:0:0:0:
262,261,104623,2,0,L|255:336,1,75,8|0,0:1|0:0,0:0:0:0:
330,343,105052,2,0,L|337:268,1,75,8|0,0:1|0:0,0:0:0:0:
307,200,105481,1,8,0:1:0:0:
182,249,105695,2,0,L|107:242,2,75,0|8|0,0:0|0:1|0:0,0:0:0:0:
255,335,106338,1,8,0:1:0:0:
186,253,106552,1,8,0:1:0:0:
307,200,106766,6,0,L|382:193,2,75,6|2|2,0:0|0:0|0:0,0:0:0:0:
300,125,107409,2,0,L|375:118,1,75,2|6,0:0|0:0,0:0:0:0:
444,148,107838,1,2,0:0:0:0:
388,268,108052,2,0,L|395:343,1,75,2|2,0:0|0:0,0:0:0:0:
256,192,108481,12,8,109766,0:0:0:0:
142,256,110195,5,6,0:0:0:0:
117,250,110302,1,2,0:0:0:0:
93,244,110409,1,2,0:0:0:0:
68,238,110516,2,0,L|60:140,1,75,2|2,0:0|0:0,0:0:0:0:
120,54,110945,1,2,0:0:0:0:
126,59,111052,2,0,L|132:133,1,75,2|2,0:0|0:0,0:0:0:0:
181,192,111481,1,8,0:0:0:0:
370,256,111909,5,6,0:0:0:0:
395,250,112016,1,2,0:0:0:0:
419,244,112123,1,2,0:0:0:0:
444,238,112230,2,0,L|451:140,1,75,2|2,0:0|0:0,0:0:0:0:
392,54,112659,1,2,0:0:0:0:
386,59,112766,2,0,L|379:133,1,75,2|2,0:0|0:0,0:0:0:0:
331,192,113195,1,8,0:0:0:0:
256,344,113623,5,4,0:0:0:0:
256,269,113838,2,0,L|352:278,1,75,0|0,0:0|3:0,0:0:0:0:
256,194,114266,2,0,L|160:203,1,75,8|0,0:0|0:0,0:0:0:0:
256,119,114695,5,0,3:0:0:0:
256,45,114909,1,0,3:0:0:0:
331,127,115123,2,0,L|406:134,1,75,12|0,0:0|0:0,0:0:0:0:
256,194,115552,1,0,3:0:0:0:
256,119,115766,1,0,3:0:0:0:
182,202,115981,2,0,L|108:210,1,75,2|8,3:0|0:0,0:0:0:0:
256,303,116409,1,0,0:0:0:0:
256,285,116516,1,0,0:0:0:0:
256,267,116623,1,2,3:0:0:0:
175,138,117052,5,6,0:0:0:0:
162,160,117159,1,2,0:0:0:0:
149,181,117266,1,2,0:0:0:0:
136,203,117373,2,0,L|142:277,1,75,2|2,0:0|0:0,0:0:0:0:
58,180,117802,1,2,0:0:0:0:
63,185,117909,2,0,L|56:110,1,75,2|2,0:0|0:0,0:0:0:0:
126,83,118338,1,8,0:0:0:0:
337,138,118766,5,6,0:0:0:0:
350,160,118873,1,2,0:0:0:0:
363,181,118980,1,2,0:0:0:0:
376,203,119087,2,0,L|369:277,1,75,2|2,0:0|0:0,0:0:0:0:
454,180,119516,1,2,0:0:0:0:
449,185,119623,2,0,L|455:110,1,75,2|2,0:0|0:0,0:0:0:0:
386,83,120052,1,8,0:0:0:0:
256,267,120481,5,6,0:0:0:0:
256,249,120588,1,2,0:0:0:0:
256,230,120695,1,8,0:0:0:0:
256,211,120802,1,8,0:0:0:0:
256,192,120909,2,0,L|348:201,1,75,4|0,0:0|3:0,0:0:0:0:
331,124,121338,2,0,L|406:131,1,75,2|2,3:0|0:0,0:0:0:0:
406,206,121766,1,2,0:0:0:0:
256,192,121981,2,0,L|99:206,1,150,12|2,0:0|3:0,0:0:0:0:
107,131,122623,2,0,L|182:124,1,75,8|2,0:0|3:0,0:0:0:0:
251,280,123052,1,8,0:0:0:0:
256,285,123266,1,8,0:0:0:0:
251,94,123481,1,8,0:0:0:0:
256,99,123695,1,2,3:0:0:0:
390,192,123909,6,0,P|335:220|256:192,1,150,4|8,0:0|0:1,0:0:0:0:
121,192,124552,2,0,P|189:163|256:192,1,150,2|2,0:0|0:0,0:0:0:0:
246,316,125409,1,2,0:0:0:0:
251,321,125516,1,0,0:0:0:0:
256,326,125623,6,0,P|228:271|231:229,1,75,2|0,0:0|0:0,0:0:0:0:
256,58,126052,2,0,P|284:113|281:155,1,75,8|0,0:1|0:0,0:0:0:0:
189,163,126481,1,2,0:0:0:0:
323,221,126695,1,2,0:0:0:0:
328,226,126802,1,0,0:0:0:0:
333,231,126909,1,8,0:1:0:0:
256,192,127123,1,2,0:0:0:0:
255,57,127338,6,0,P|284:125|255:192,1,150,6|8,0:0|0:1,0:0:0:0:
256,326,127981,2,0,P|227:258|256:191,1,150,6|2,0:0|0:0,0:0:0:0:
380,181,128838,1,6,0:0:0:0:
385,186,128945,1,0,0:0:0:0:
390,191,129052,6,0,P|359:213|322:221,1,75,2|0,0:0|0:0,0:0:0:0:
121,192,129481,2,0,P|152:170|189:162,1,75,8|0,0:1|0:0,0:0:0:0:
285,125,129909,1,2,0:0:0:0:
227,259,130123,1,0,0:0:0:0:
323,221,130338,1,8,0:1:0:0:
189,163,130552,1,8,0:1:0:0:
255,57,130766,6,0,P|284:125|255:192,1,150,6|8,0:0|0:1,0:0:0:0:
256,326,131409,2,0,P|227:258|256:191,1,150,2|2,0:0|0:0,0:0:0:0:
380,182,132266,1,2,0:0:0:0:
385,187,132373,1,0,0:0:0:0:
390,192,132480,6,0,P|335:220|293:217,1,75,2|0,0:0|0:0,0:0:0:0:
122,192,132909,2,0,P|177:164|219:167,1,75,8|0,0:1|0:0,0:0:0:0:
227,259,133338,1,2,0:0:0:0:
232,264,133445,1,0,0:0:0:0:
237,269,133552,1,2,0:0:0:0:
295,115,133766,1,8,0:1:0:0:
256,192,133980,1,2,0:0:0:0:
122,192,134195,6,0,P|177:164|256:192,1,150,6|8,0:0|0:1,0:0:0:0:
391,192,134838,2,0,P|323:221|256:192,1,150,6|2,0:0|0:0,0:0:0:0:
256,42,135481,1,8,0:1:0:0:
256,192,135695,2,0,L|256:280,1,75,6|0,0:0|0:0,0:0:0:0:
256,342,136123,1,0,0:0:0:0:
331,267,136338,1,8,0:0:0:0:
181,117,136552,1,0,3:0:0:0:
256,42,136766,1,8,0:0:0:0:
256,192,136981,6,0,L|142:201,1,112.5,2|2,0:0|0:0,0:0:0:0:
30,210,137623,1,6,0:0:0:0:
256,192,138695,6,0,L|369:182,1,112.5,2|2,0:0|0:0,0:0:0:0:
481,173,139337,1,2,0:0:0:0:
256,192,140409,6,0,P|230:152|224:70,1,112.5,2|2,0:0|0:0,0:0:0:0:
289,0,141052,1,2,0:0:0:0:
256,192,142123,6,0,P|282:232|288:314,1,112.5,2|2,0:0|0:0,0:0:0:0:
223,384,142766,2,0,L|215:302,1,75,2|2,0:0|3:0,0:0:0:0:
119,232,143195,1,8,0:0:0:0:
138,233,143302,1,8,0:0:0:0:
156,235,143409,1,8,0:0:0:0:
175,236,143516,1,8,0:0:0:0:
194,238,143623,1,2,3:0:0:0:
256,192,143838,5,6,0:0:0:0:
368,182,144159,1,6,0:0:0:0:
481,173,144480,1,6,0:0:0:0:
256,192,145552,6,0,L|142:201,1,112.5,2|2,0:0|0:0,0:0:0:0:
30,210,146194,1,2,0:0:0:0:
256,192,147266,6,0,P|282:232|288:314,1,112.5,2|2,0:0|0:0,0:0:0:0:
223,384,147909,1,2,0:0:0:0:
256,192,148980,6,0,P|230:152|224:70,1,112.5,2|2,0:0|0:0,0:0:0:0:
289,0,149623,2,0,L|297:82,1,75,2|2,0:0|3:0,0:0:0:0:
393,152,150052,1,8,0:0:0:0:
374,151,150159,1,8,0:0:0:0:
356,149,150266,1,8,0:0:0:0:
337,148,150373,1,8,0:0:0:0:
318,146,150480,1,2,3:0:0:0:
256,192,150695,6,0,L|130:203,1,112.5,6|6,0:0|0:0,0:0:0:0:
154,313,151338,2,0,L|266:304,1,112.5,6|0,0:0|0:0,0:0:0:0:
284,302,151766,1,8,0:1:0:0:
348,342,151981,2,0,P|360:302|348:261,1,75,2|2,0:0|0:0,0:0:0:0:
294,225,152409,5,4,0:0:0:0:
364,196,152623,2,0,L|457:204,1,75,8|0,3:0|0:0,0:0:0:0:
501,160,153052,2,0,L|492:47,2,112.5,2|0|2,0:0|0:0|0:0,0:0:0:0:
414,56,154123,6,0,P|374:68|303:49,1,112.5,4|2,0:0|0:0,0:0:0:0:
293,41,154552,1,2,0:0:0:0:
226,8,154766,2,0,L|105:18,2,112.5,2|0|2,0:0|0:0|0:0,0:0:0:0:
121,91,155838,5,6,0:0:0:0:
47,100,156052,2,0,L|41:174,1,75,0|2,0:0|0:0,0:0:0:0:
108,208,156481,2,0,L|115:282,1,75,2|2,0:0|3:0,0:0:0:0:
189,276,156909,1,8,0:0:0:0:
187,258,157016,1,8,0:0:0:0:
185,239,157123,1,8,0:0:0:0:
184,220,157230,1,8,0:0:0:0:
182,202,157337,1,2,3:0:0:0:
256,192,157552,6,0,L|383:180,1,112.5,6|6,0:0|0:0,0:0:0:0:
455,41,158195,2,0,L|446:153,1,112.5,6|0,0:0|0:0,0:0:0:0:
443,172,158623,1,8,0:1:0:0:
369,182,158838,2,0,L|288:189,1,75,2|2,0:0|0:0,0:0:0:0:
236,141,159266,5,6,0:0:0:0:
304,108,159481,2,0,P|280:80|245:67,1,75,8|0,0:0|0:0,0:0:0:0:
176,96,159909,2,0,L|76:104,2,75,2|0|8,0:0|0:0|0:1,0:0:0:0:
186,20,160552,1,2,0:0:0:0:
27,113,160981,6,0,L|37:225,1,112.5,4|2,0:0|0:0,0:0:0:0:
40,243,161409,1,2,0:0:0:0:
86,302,161623,2,0,L|199:292,2,112.5,2|0|2,0:0|0:0|0:0,0:0:0:0:
257,341,162695,5,6,0:0:0:0:
324,384,162909,2,0,P|336:348|330:312,1,75,8|2,0:0|0:0,0:0:0:0:
265,266,163338,2,0,L|164:274,1,75,2|2,0:0|3:0,0:0:0:0:
182,198,163766,1,8,0:0:0:0:
200,196,163873,1,8,0:0:0:0:
219,195,163980,1,8,0:0:0:0:
238,193,164087,1,8,0:0:0:0:
256,192,164194,1,2,3:0:0:0:
256,192,165052,5,4,0:0:0:0:
143,182,165373,1,2,3:0:0:0:
30,172,165695,1,2,3:0:0:0:
91,128,165909,5,4,0:0:0:0:
204,138,166231,1,2,3:0:0:0:
317,148,166552,1,2,3:0:0:0:
264,94,166766,5,4,0:0:0:0:
151,84,167087,1,2,3:0:0:0:
38,74,167409,1,2,3:0:0:0:
91,128,167623,5,4,0:0:0:0:
204,138,167945,1,2,3:0:0:0:
317,148,168266,1,2,3:0:0:0:
256,192,168481,5,4,0:0:0:0:
256,192,168909,12,2,171481,3:0:0:0:
256,192,171909,6,0,L|407:178,1,150,4|0,3:2|3:0,0:0:0:0:
256,192,172766,2,0,L|104:205,1,150,0|0,3:0|3:0,0:0:0:0:
256,192,173623,6,0,P|282:152|269:33,1,150,0|0,3:0|3:0,0:0:0:0:
256,192,174481,2,0,P|230:232|243:351,1,150,0|0,3:0|3:0,0:0:0:0:
292,378,175123,1,8,0:0:0:0:
256,192,175338,12,2,178338,0:0:0:0:
180,201,178766,5,6,0:0:0:0:
155,202,178873,1,2,0:0:0:0:
130,204,178980,1,2,0:0:0:0:
105,206,179088,2,0,L|47:124,1,75,2|2,0:0|0:0,0:0:0:0:
89,70,179516,1,2,0:0:0:0:
94,75,179623,2,0,L|168:68,1,75,2|2,0:0|0:0,0:0:0:0:
199,0,180052,1,8,0:0:0:0:
332,201,180481,5,6,0:0:0:0:
357,202,180588,1,2,0:0:0:0:
382,204,180695,1,2,0:0:0:0:
407,206,180803,2,0,L|465:124,1,75,2|2,0:0|0:0,0:0:0:0:
423,70,181231,1,2,0:0:0:0:
418,75,181338,2,0,L|344:68,1,75,2|2,0:0|0:0,0:0:0:0:
313,0,181767,1,8,0:0:0:0:
256,267,182195,5,4,0:0:0:0:
256,249,182302,1,0,0:0:0:0:
256,230,182409,1,8,0:0:0:0:
256,211,182516,1,8,0:0:0:0:
256,192,182623,1,2,3:0:0:0:
330,199,182837,1,8,0:0:0:0:
331,124,183052,2,0,L|406:131,1,75,2|2,3:0|0:0,0:0:0:0:
406,206,183480,1,2,0:0:0:0:
256,192,183695,2,0,L|99:206,1,150,12|2,0:0|3:0,0:0:0:0:
107,131,184337,2,0,L|182:124,1,75,8|2,0:0|3:0,0:0:0:0:
256,267,184766,1,8,0:0:0:0:
256,117,184980,1,8,0:0:0:0:
331,199,185195,1,2,3:0:0:0:
181,199,185623,5,6,0:0:0:0:
169,221,185730,1,2,0:0:0:0:
158,243,185837,1,2,0:0:0:0:
147,266,185945,2,0,L|46:275,1,75,2|2,0:0|0:0,0:0:0:0:
56,137,186373,1,2,0:0:0:0:
61,142,186481,2,0,L|135:135,1,75,2|2,0:0|0:0,0:0:0:0:
29,210,186909,1,8,0:0:0:0:
331,199,187338,5,6,0:0:0:0:
343,221,187445,1,2,0:0:0:0:
354,243,187552,1,2,0:0:0:0:
365,266,187660,2,0,L|466:275,1,75,2|2,0:0|0:0,0:0:0:0:
456,137,188088,1,2,0:0:0:0:
451,142,188196,2,0,L|377:135,1,75,2|2,0:0|0:0,0:0:0:0:
483,210,188624,1,8,0:0:0:0:
256,344,189052,5,4,0:0:0:0:
256,269,189266,1,2,0:0:0:0:
256,194,189481,2,0,L|160:203,1,75,2|8,0:0|0:0,0:0:0:0:
256,119,189909,2,0,L|352:128,1,75,2|2,0:0|0:0,0:0:0:0:
256,45,190338,5,2,3:0:0:0:
181,127,190552,2,0,L|106:134,1,75,8|0,0:0|0:0,0:0:0:0:
256,194,190981,1,2,0:0:0:0:
256,119,191195,1,8,0:0:0:0:
330,202,191410,2,0,L|404:210,1,75,2|8,3:0|0:0,0:0:0:0:
256,267,191838,1,2,3:0:0:0:
256,285,191945,1,0,0:0:0:0:
256,303,192052,1,8,0:0:0:0:
180,193,192481,5,6,0:0:0:0:
155,192,192588,1,2,0:0:0:0:
130,190,192695,1,2,0:0:0:0:
105,188,192803,2,0,L|47:270,1,75,2|2,0:0|0:0,0:0:0:0:
94,319,193231,1,2,0:0:0:0:
99,324,193338,2,0,L|173:331,1,75,2|2,0:0|0:0,0:0:0:0:
21,316,193767,1,8,0:0:0:0:
332,193,194195,5,6,0:0:0:0:
357,192,194302,1,2,0:0:0:0:
382,190,194409,1,2,0:0:0:0:
407,188,194517,2,0,L|465:270,1,75,2|2,0:0|0:0,0:0:0:0:
418,319,194945,1,2,0:0:0:0:
413,324,195052,2,0,L|339:331,1,75,2|2,0:0|0:0,0:0:0:0:
491,316,195481,1,8,0:0:0:0:
256,117,195909,5,6,0:0:0:0:
256,135,196016,1,0,0:0:0:0:
256,154,196123,1,8,0:0:0:0:
256,173,196230,1,8,0:0:0:0:
256,192,196338,2,0,L|331:185,1,75,4|2,0:0|3:0,0:0:0:0:
405,253,196766,1,0,3:0:0:0:
331,260,196980,1,6,0:0:0:0:
406,178,197194,1,6,0:0:0:0:
256,192,197409,6,0,L|99:178,1,150,6|2,0:0|3:0,0:0:0:0:
181,259,198051,1,12,0:0:0:0:
107,253,198265,1,2,3:0:0:0:
256,117,198480,1,12,0:0:0:0:
256,267,198694,1,12,0:0:0:0:
256,267,199338,5,4,0:0:0:0:
367,257,199660,1,0,0:0:0:0:
478,247,199981,1,0,0:0:0:0:
418,202,200195,2,0,L|411:119,1,75,2|0,0:0|0:0,0:0:0:0:
300,137,200624,2,0,L|307:212,1,75,2|0,0:0|0:0,0:0:0:0:
256,267,201052,5,4,0:0:0:0:
145,257,201374,1,0,0:0:0:0:
34,247,201695,1,0,0:0:0:0:
94,202,201909,2,0,L|101:119,1,75,2|0,0:0|0:0,0:0:0:0:
212,137,202338,2,0,L|205:212,1,75,2|0,0:0|0:0,0:0:0:0:
256,264,202766,5,4,0:0:0:0:
367,254,203088,1,0,0:0:0:0:
478,245,203409,1,0,0:0:0:0:
426,299,203623,2,0,L|433:381,1,75,2|0,0:0|0:0,0:0:0:0:
321,384,204052,2,0,L|314:308,1,75,2|0,0:0|0:0,0:0:0:0:
256,264,204481,5,4,0:0:0:0:
145,254,204803,1,0,0:0:0:0:
34,245,205124,1,0,0:0:0:0:
86,299,205338,2,0,L|78:381,1,75,2|0,0:0|0:0,0:0:0:0:
191,384,205767,2,0,L|197:308,1,75,2|0,0:0|0:0,0:0:0:0:
256,264,206195,5,4,0:0:0:0:
264,164,206517,1,0,0:0:0:0:
273,64,206838,1,0,0:0:0:0:
330,118,207052,2,0,L|404:124,1,67.4999979400635,2|0,0:0|0:0,0:0:0:0:
387,225,207481,2,0,L|319:218,1,67.4999979400635,2|0,0:0|0:0,0:0:0:0:
256,264,207909,5,4,0:0:0:0:
248,175,208231,1,0,0:0:0:0:
240,86,208552,1,0,0:0:0:0:
180,132,208766,2,0,L|113:137,1,60,2|0,0:0|0:0,0:0:0:0:
129,231,209195,2,0,L|189:225,1,60,2|0,0:0|0:0,0:0:0:0:
256,264,209623,5,4,0:0:0:0:
333,270,209945,1,0,0:0:0:0:
411,277,210266,1,0,0:0:0:0:
378,209,210480,2,0,L|382:156,1,52.4999983978272,2|0,0:0|0:0,0:0:0:0:
304,151,210909,2,0,L|299:203,1,52.4999983978272,2|0,0:0|0:0,0:0:0:0:
256,264,211338,5,4,0:0:0:0:
179,270,211660,1,0,0:0:0:0:
101,277,211981,1,0,0:0:0:0:
134,209,212195,2,0,L|129:156,1,52.4999983978272,2|0,0:0|0:0,0:0:0:0:
208,151,212623,1,2,3:0:0:0:
146,338,212838,1,8,3:2:0:0:
