osu file format v14

[General]
AudioFilename: audio.mp3
AudioLeadIn: 0
PreviewTime: 177481
Countdown: 1
SampleSet: Soft
StackLeniency: 0
Mode: 0
LetterboxInBreaks: 0
WidescreenStoryboard: 1

[Editor]
Bookmarks: 481,7338,34767,62196,75910,82767,96481,110196,123910,137624,151338,165053,171910,178767,199338,207910,213053
DistanceSpacing: 1
BeatDivisor: 8
GridSize: 4
TimelineZoom: 2.3

[Metadata]
Title:Digital Mogura
TitleUnicode:デジタルモグラ
Artist:Gesu no Kiwami Otome.
ArtistUnicode:ゲスの極み乙女。
Creator:dsco
Version:Expert
Source:
Tags:pop rock miryoku ga sugoi yo j-pop japanese digitaru mole enon kawatani progressive alternative indie subete ga f ni naru すべてがFになる the perfect insider 魅力がすごいよ
BeatmapID:2587640
BeatmapSetID:737340

[Difficulty]
HPDrainRate:4.2
CircleSize:5.2
OverallDifficulty:8.2
ApproachRate:9.2
SliderMultiplier:1.8
SliderTickRate:2

[Events]
//Background and Video events
0,0,"fbacklsd.jpg",0,0
//Break Periods
//Storyboard Layer 0 (Background)
//Storyboard Layer 1 (Fail)
//Storyboard Layer 2 (Pass)
//Storyboard Layer 3 (Foreground)
//Storyboard Layer 4 (Overlay)
//Storyboard Sound Samples

[TimingPoints]
481,428.571428571429,4,2,0,50,1,0
27052,-200,4,2,0,50,0,0
27695,-100,4,2,0,50,0,0
62195,-66.6666666666667,4,2,0,65,0,0
75909,-100,4,2,0,40,0,0
81052,-100,4,2,0,50,0,0
110195,-66.6666666666667,4,2,0,65,0,0
123909,-50,4,2,0,65,0,1
136981,-100,4,2,0,50,0,0
165052,-66.6666666666667,4,2,0,50,0,0
175337,-100,4,2,0,50,0,0
178766,-66.6666666666667,4,2,0,70,0,1
199338,-100,4,2,0,50,0,0

[Colours]
Combo1 : 92,156,226
Combo2 : 205,54,77
Combo3 : 164,240,216
Combo4 : 213,142,193

[HitObjects]
299,87,480,5,4,0:0:0:0:
388,73,694,1,2,0:0:0:0:
389,79,801,1,0,0:0:0:0:
478,65,1015,1,2,0:0:0:0:
479,71,1122,1,0,0:0:0:0:
299,87,1338,5,2,0:0:0:0:
389,79,1552,1,0,0:0:0:0:
479,71,1766,1,2,0:0:0:0:
389,79,1981,1,0,0:0:0:0:
213,87,2195,5,4,0:0:0:0:
124,73,2409,1,2,0:0:0:0:
123,79,2516,1,0,0:0:0:0:
34,65,2730,1,2,0:0:0:0:
33,71,2837,1,0,0:0:0:0:
213,87,3053,5,2,0:0:0:0:
123,79,3267,1,0,0:0:0:0:
33,71,3481,1,2,0:0:0:0:
123,79,3696,1,0,0:0:0:0:
299,177,3909,5,4,0:0:0:0:
388,163,4123,1,2,0:0:0:0:
389,169,4230,1,0,0:0:0:0:
478,155,4444,1,2,0:0:0:0:
479,161,4551,1,0,0:0:0:0:
299,177,4767,5,2,0:0:0:0:
389,169,4981,1,0,0:0:0:0:
479,161,5195,1,2,0:0:0:0:
389,169,5410,1,0,0:0:0:0:
213,177,5623,5,4,0:0:0:0:
124,163,5837,1,2,0:0:0:0:
123,169,5944,1,0,0:0:0:0:
34,154,6158,1,2,0:0:0:0:
33,160,6265,1,0,0:0:0:0:
213,177,6481,6,0,L|11:158,1,180,2|8,3:0|0:0,0:0:0:0:
222,267,7123,6,0,L|342:256,1,90,4|0,0:0|0:0,0:0:0:0:
400,251,7552,1,0,0:0:0:0:
311,259,7766,1,8,0:0:0:0:
222,267,7981,1,0,0:0:0:0:
305,259,8195,1,2,0:0:0:0:
316,258,8302,1,0,0:0:0:0:
310,253,8409,1,2,0:0:0:0:
311,264,8516,1,0,0:0:0:0:
311,259,8623,1,8,0:0:0:0:
436,170,8838,6,0,P|400:250|401:276,1,90,4|0,0:0|0:0,0:0:0:0:
420,336,9266,1,0,0:0:0:0:
400,250,9481,1,8,0:0:0:0:
436,170,9695,1,0,0:0:0:0:
394,250,9909,1,2,0:0:0:0:
405,249,10016,1,0,0:0:0:0:
399,244,10123,1,2,0:0:0:0:
400,255,10230,1,0,0:0:0:0:
400,250,10337,1,8,0:0:0:0:
346,178,10552,6,0,L|335:58,1,90,4|0,0:0|0:0,0:0:0:0:
330,0,10981,1,0,0:0:0:0:
338,89,11195,1,8,0:0:0:0:
346,178,11410,1,0,0:0:0:0:
338,95,11624,1,2,0:0:0:0:
337,84,11731,1,0,0:0:0:0:
332,90,11838,1,2,0:0:0:0:
343,89,11945,1,0,0:0:0:0:
338,89,12052,1,8,0:0:0:0:
425,214,12266,6,0,P|345:178|319:179,1,90,4|0,0:0|0:0,0:0:0:0:
259,198,12694,1,0,0:0:0:0:
345,178,12909,1,8,0:0:0:0:
425,214,13123,1,0,0:0:0:0:
345,178,13338,1,2,0:0:0:0:
466,292,13552,1,2,0:0:0:0:
466,292,13766,1,10,0:0:0:0:
506,131,13981,6,0,L|386:120,1,90,4|0,0:0|0:0,0:0:0:0:
328,115,14410,1,0,0:0:0:0:
417,123,14624,1,8,0:0:0:0:
506,131,14839,1,0,0:0:0:0:
423,123,15053,1,2,0:0:0:0:
412,122,15160,1,0,0:0:0:0:
418,117,15267,1,2,0:0:0:0:
417,128,15374,1,0,0:0:0:0:
417,123,15481,1,8,0:0:0:0:
292,195,15695,6,0,P|328:115|327:89,1,90,4|0,0:0|0:0,0:0:0:0:
308,29,16123,1,0,0:0:0:0:
328,115,16338,1,8,0:0:0:0:
292,195,16552,1,0,0:0:0:0:
334,115,16766,1,2,0:0:0:0:
323,116,16873,1,0,0:0:0:0:
329,121,16980,1,2,0:0:0:0:
328,110,17087,1,0,0:0:0:0:
328,115,17194,1,8,0:0:0:0:
202,203,17409,6,0,L|82:213,1,90,4|0,0:0|0:0,0:0:0:0:
24,219,17838,1,0,0:0:0:0:
113,211,18052,1,8,0:0:0:0:
202,203,18267,1,0,0:0:0:0:
119,211,18481,1,2,0:0:0:0:
108,212,18588,1,0,0:0:0:0:
114,217,18695,1,2,0:0:0:0:
113,206,18802,1,0,0:0:0:0:
113,211,18909,1,8,0:0:0:0:
256,115,19123,6,0,P|292:195|291:221,1,90,4|0,0:0|0:0,0:0:0:0:
272,281,19551,1,0,0:0:0:0:
292,195,19766,1,8,0:0:0:0:
256,115,19980,1,2,0:0:0:0:
281,151,20088,1,0,3:0:0:0:
291,195,20195,1,8,0:0:0:0:
179,74,20409,1,0,3:0:0:0:
179,74,20623,1,0,3:0:0:0:
272,281,20838,6,0,L|392:270,1,90,12|0,0:0|0:0,0:0:0:0:
450,265,21267,1,2,0:0:0:0:
406,269,21373,1,0,0:0:0:0:
361,273,21481,1,8,0:0:0:0:
317,277,21588,1,0,0:0:0:0:
272,281,21696,1,2,0:0:0:0:
355,273,21910,1,2,0:0:0:0:
366,272,22017,1,0,0:0:0:0:
360,267,22124,1,2,0:0:0:0:
361,278,22231,1,0,0:0:0:0:
361,273,22338,1,2,3:0:0:0:
183,289,22552,6,0,P|147:209|148:183,1,90,12|0,0:0|0:0,0:0:0:0:
167,123,22980,1,2,0:0:0:0:
148,164,23088,1,0,0:0:0:0:
147,209,23195,1,8,0:0:0:0:
158,253,23302,1,0,0:0:0:0:
183,289,23409,1,2,0:0:0:0:
153,209,23623,1,2,0:0:0:0:
142,210,23730,1,0,0:0:0:0:
148,215,23837,1,2,0:0:0:0:
147,204,23944,1,0,0:0:0:0:
147,209,24051,1,2,3:0:0:0:
345,107,24266,6,0,L|225:118,1,90,12|0,0:0|0:0,0:0:0:0:
167,123,24695,1,2,0:0:0:0:
211,119,24801,1,0,0:0:0:0:
256,115,24909,1,8,0:0:0:0:
300,111,25016,1,0,0:0:0:0:
345,107,25124,1,2,0:0:0:0:
262,115,25338,1,2,0:0:0:0:
251,116,25445,1,0,0:0:0:0:
257,121,25552,1,2,0:0:0:0:
256,110,25659,1,0,0:0:0:0:
256,115,25766,1,2,3:0:0:0:
419,265,25981,6,0,P|455:185|454:159,1,90,12|0,0:0|0:0,0:0:0:0:
435,99,26409,1,2,0:0:0:0:
454,140,26517,1,0,0:0:0:0:
455,185,26624,1,10,0:0:0:0:
444,229,26731,1,0,0:0:0:0:
419,265,26838,1,0,3:0:0:0:
449,185,27052,2,0,L|462:186,1,11.25,8|0,0:0|0:0,0:0:0:0:
460,186,27159,2,0,L|446:184,1,11.25,0|0,3:0|0:0,0:0:0:0:
455,180,27266,2,0,L|454:193,1,11.25,0|0,3:0|0:0,0:0:0:0:
454,191,27373,2,0,L|456:177,1,11.25,0|0,3:0|0:0,0:0:0:0:
455,185,27481,1,2,3:0:0:0:
334,273,27695,6,0,L|214:284,1,90,12|0,0:0|0:0,0:0:0:0:
156,289,28124,1,2,0:0:0:0:
200,285,28230,1,0,0:0:0:0:
245,281,28338,1,8,0:0:0:0:
289,277,28445,1,0,0:0:0:0:
334,273,28553,1,2,0:0:0:0:
251,281,28767,1,2,0:0:0:0:
240,282,28874,1,0,0:0:0:0:
246,287,28981,1,2,0:0:0:0:
245,276,29088,1,0,0:0:0:0:
245,281,29195,1,2,3:0:0:0:
73,295,29409,6,0,P|37:215|38:189,1,90,12|0,0:0|0:0,0:0:0:0:
57,129,29837,1,2,0:0:0:0:
38,170,29945,1,0,0:0:0:0:
37,215,30052,1,8,0:0:0:0:
48,259,30159,1,0,0:0:0:0:
73,295,30266,1,2,0:0:0:0:
43,215,30480,1,2,0:0:0:0:
32,216,30587,1,0,0:0:0:0:
38,221,30694,1,2,0:0:0:0:
37,210,30801,1,0,0:0:0:0:
37,215,30908,1,2,3:0:0:0:
132,72,31123,6,0,L|252:83,1,90,12|0,0:0|0:0,0:0:0:0:
310,88,31552,1,2,0:0:0:0:
266,84,31658,1,0,0:0:0:0:
221,80,31766,1,8,0:0:0:0:
177,76,31873,1,0,0:0:0:0:
132,72,31981,1,2,0:0:0:0:
215,80,32195,1,2,0:0:0:0:
226,81,32302,1,0,0:0:0:0:
220,86,32409,1,2,0:0:0:0:
221,75,32516,1,0,0:0:0:0:
221,80,32623,1,2,3:0:0:0:
364,18,32838,6,0,P|400:98|399:124,1,90,12|0,0:0|0:0,0:0:0:0:
380,184,33266,1,2,0:0:0:0:
399,143,33374,1,0,0:0:0:0:
400,98,33481,1,2,0:0:0:0:
389,54,33588,1,0,0:0:0:0:
364,18,33695,1,0,3:0:0:0:
394,98,33909,1,8,0:0:0:0:
405,97,34016,1,0,0:0:0:0:
399,92,34123,1,0,3:0:0:0:
400,103,34230,1,0,0:0:0:0:
400,98,34337,1,0,3:0:0:0:
391,273,34552,6,0,L|380:184,1,90,12|0,0:0|0:0,0:0:0:0:
480,261,34981,1,0,0:0:0:0:
380,184,35195,1,8,0:1:0:0:
301,284,35409,1,0,0:0:0:0:
380,184,35623,1,0,0:0:0:0:
379,176,35731,2,0,L|367:86,1,90
366,78,36052,1,8,0:1:0:0:
290,194,36266,6,0,P|253:169|209:158,1,90,2|0,3:0|0:0,0:0:0:0:
379,176,36695,1,0,0:0:0:0:
209,158,36909,1,8,0:1:0:0:
334,272,37123,1,0,0:0:0:0:
209,158,37338,1,2,0:0:0:0:
186,159,37445,1,2,0:0:0:0:
164,164,37552,1,0,0:0:0:0:
144,173,37659,1,0,0:0:0:0:
125,185,37766,1,8,0:1:0:0:
298,170,37981,6,0,L|309:81,1,90,2|0,3:0|0:0,0:0:0:0:
209,158,38410,1,0,0:0:0:0:
309,81,38624,1,8,0:1:0:0:
388,181,38838,1,0,0:0:0:0:
309,81,39052,1,0,0:0:0:0:
318,80,39159,2,0,L|407:69,1,90
416,68,39481,1,8,0:1:0:0:
298,170,39695,6,0,P|273:207|262:251,1,90,2|0,3:0|0:0,0:0:0:0:
209,158,40123,1,0,0:0:0:0:
262,250,40338,1,8,0:1:0:0:
366,227,40552,1,0,0:0:0:0:
262,250,40766,1,2,0:0:0:0:
258,272,40873,1,2,0:0:0:0:
251,293,40980,1,0,0:0:0:0:
240,313,41087,1,0,0:0:0:0:
226,330,41194,1,8,0:1:0:0:
366,227,41409,6,0,L|355:138,1,90,2|0,3:0|0:0,0:0:0:0:
332,322,41838,1,0,0:0:0:0:
355,137,42052,1,8,0:1:0:0:
421,310,42266,1,0,0:0:0:0:
355,137,42481,1,0,0:0:0:0:
346,136,42588,2,0,L|257:125,1,90
247,124,42909,1,8,0:1:0:0:
134,242,43123,6,0,P|177:231|214:206,1,90,2|0,3:0|0:0,0:0:0:0:
62,190,43552,1,0,0:0:0:0:
214,206,43766,1,8,0:1:0:0:
124,330,43981,1,0,0:0:0:0:
214,206,44195,1,2,0:0:0:0:
227,188,44302,1,2,0:0:0:0:
238,168,44409,1,0,0:0:0:0:
245,146,44516,1,0,0:0:0:0:
247,124,44623,1,8,0:1:0:0:
170,268,44838,6,0,L|259:279,1,90,2|0,3:0|0:0,0:0:0:0:
140,198,45266,1,0,0:0:0:0:
259,279,45481,1,8,0:1:0:0:
124,330,45695,1,0,0:0:0:0:
259,279,45909,1,0,0:0:0:0:
269,278,46016,2,0,L|358:267,1,90
368,266,46338,1,8,0:1:0:0:
269,113,46552,6,0,P|243:150|233:193,1,90,2|0,3:0|0:0,0:0:0:0:
188,77,46981,1,0,0:0:0:0:
233,193,47195,1,8,0:1:0:0:
327,151,47409,1,0,0:0:0:0:
338,149,47516,1,0,0:0:0:0:
349,148,47623,1,8,0:1:0:0:
233,193,47838,1,0,3:0:0:0:
233,193,48052,1,0,3:0:0:0:
438,136,48266,6,0,L|349:147,1,90,12|0,0:0|0:0,0:0:0:0:
493,65,48695,1,0,0:0:0:0:
349,147,48909,1,8,0:1:0:0:
508,191,49123,1,0,0:0:0:0:
349,147,49338,1,0,0:0:0:0:
461,134,49552,1,2,0:0:0:0:
449,135,49659,1,0,0:0:0:0:
438,136,49766,1,0,0:0:0:0:
259,158,49981,6,0,P|233:120|223:77,1,90,8|0,0:0|0:0,0:0:0:0:
349,147,50409,1,0,0:0:0:0:
223,77,50623,1,8,0:1:0:0:
190,217,50838,1,0,0:0:0:0:
223,77,51052,1,0,0:0:0:0:
267,177,51266,1,2,0:0:0:0:
261,166,51373,1,0,0:0:0:0:
255,156,51480,1,0,0:0:0:0:
305,260,51695,6,0,L|394:271,1,90,8|0,0:0|0:0,0:0:0:0:
269,179,52124,1,0,0:0:0:0:
394,271,52338,1,8,0:1:0:0:
250,329,52552,1,0,0:0:0:0:
394,271,52767,1,0,0:0:0:0:
282,258,52981,1,2,0:0:0:0:
294,259,53088,1,0,0:0:0:0:
305,260,53195,1,0,0:0:0:0:
193,247,53409,6,0,P|167:209|157:166,1,90,8|0,0:0|0:0,0:0:0:0:
282,258,53838,1,0,0:0:0:0:
158,167,54052,1,8,0:1:0:0:
141,319,54266,1,0,0:0:0:0:
158,167,54481,1,0,0:0:0:0:
205,268,54695,1,2,0:0:0:0:
199,257,54802,1,0,0:0:0:0:
193,247,54909,1,0,0:0:0:0:
123,87,55123,6,0,L|34:76,1,90,8|0,0:0|0:0,0:0:0:0:
134,0,55552,1,0,0:0:0:0:
34,76,55766,1,8,0:1:0:0:
112,174,55981,1,0,0:0:0:0:
34,76,56195,1,0,0:0:0:0:
146,90,56409,1,2,0:0:0:0:
134,88,56516,1,0,0:0:0:0:
123,87,56623,1,0,0:0:0:0:
202,157,56838,6,0,P|240:131|283:121,1,90,8|0,0:0|0:0,0:0:0:0:
214,243,57266,1,0,0:0:0:0:
281,121,57481,1,8,0:1:0:0:
146,90,57695,1,0,0:0:0:0:
281,121,57909,1,0,0:0:0:0:
182,167,58123,1,2,0:0:0:0:
192,162,58230,1,0,0:0:0:0:
202,157,58337,1,2,3:0:0:0:
103,203,58552,1,0,0:0:0:0:
301,313,58766,6,0,L|305:367,3,45,8|0|2|0,0:0|0:0|3:0|0:0,0:0:0:0:
211,313,59195,2,0,L|206:367,3,45,8|0|2|0,0:0|0:0|3:0|0:0,0:0:0:0:
358,244,59623,2,0,L|412:248,1,45,8|0,0:0|0:0,0:0:0:0:
154,244,59838,2,0,L|99:248,1,45,8|0,0:0|0:0,0:0:0:0:
256,244,60052,1,8,0:0:0:0:
256,52,60266,2,0,L|256:3,1,45,12|0,0:0|0:0,0:0:0:0:
167,73,60481,1,8,0:0:0:0:
166,84,60588,1,0,0:0:0:0:
165,95,60695,1,2,3:0:0:0:
164,106,60802,1,0,0:0:0:0:
163,117,60909,2,0,L|109:121,3,45,8|0|2|0,0:0|0:0|3:0|0:0,0:0:0:0:
345,73,61338,1,8,0:0:0:0:
346,84,61445,1,0,0:0:0:0:
347,95,61552,1,2,3:0:0:0:
348,106,61659,1,0,0:0:0:0:
349,117,61766,2,0,L|403:121,3,45,8|0|8|0,0:0|0:0|0:0|0:0,0:0:0:0:
217,161,62195,5,6,0:0:0:0:
121,168,62302,1,2,0:0:0:0:
173,212,62409,1,2,0:0:0:0:
163,117,62516,2,0,L|157:49,1,67.5000025749208,2|8,0:0|0:0,0:0:0:0:
173,212,62731,2,0,L|179:279,1,67.5000025749208,2|0,0:0|0:0,0:0:0:0:
134,330,62945,1,2,0:0:0:0:
82,286,63052,1,2,0:0:0:0:
37,336,63159,1,0,0:0:0:0:
89,380,63266,1,2,0:0:0:0:
75,192,63481,1,8,0:0:0:0:
295,161,63909,5,6,0:0:0:0:
391,168,64016,1,2,0:0:0:0:
339,212,64123,1,2,0:0:0:0:
349,117,64230,2,0,L|355:49,1,67.5000025749208,2|8,0:0|0:0,0:0:0:0:
339,212,64445,2,0,L|333:279,1,67.5000025749208,2|0,0:0|0:0,0:0:0:0:
378,330,64659,1,2,0:0:0:0:
430,286,64766,1,2,0:0:0:0:
475,336,64873,1,0,0:0:0:0:
423,380,64980,1,2,0:0:0:0:
437,192,65195,1,8,0:0:0:0:
75,192,65623,5,4,0:0:0:0:
257,321,65838,2,0,P|274:256|256:192,1,135.000005149842,0|0,0:0|3:0,0:0:0:0:
256,64,66266,2,0,P|238:128|256:192,1,135.000005149842,8|0,0:0|0:0,0:0:0:0:
437,192,66695,5,0,3:0:0:0:
75,192,66909,1,0,3:0:0:0:
256,320,67123,2,0,P|273:255|255:191,1,135.000005149842,12|0,0:0|0:0,0:0:0:0:
165,192,67552,1,0,3:0:0:0:
346,192,67766,1,0,3:0:0:0:
256,64,67980,1,2,3:0:0:0:
256,320,68194,1,12,0:0:0:0:
347,192,68409,1,0,3:0:0:0:
363,193,68516,1,0,0:0:0:0:
380,194,68623,1,0,3:0:0:0:
165,192,68838,1,0,3:0:0:0:
148,193,68945,1,0,0:0:0:0:
132,194,69052,5,6,0:0:0:0:
68,266,69159,1,2,0:0:0:0:
63,198,69266,1,2,0:0:0:0:
135,259,69373,2,0,L|143:346,1,67.5000025749208,2|8,0:0|0:0,0:0:0:0:
63,198,69588,2,0,L|56:130,1,67.5000025749208,2|0,0:0|0:0,0:0:0:0:
188,54,69802,1,2,0:0:0:0:
119,58,69909,1,2,0:0:0:0:
124,126,70016,1,0,0:0:0:0:
191,122,70123,1,2,0:0:0:0:
50,62,70338,1,8,0:0:0:0:
380,194,70766,5,6,0:0:0:0:
444,266,70873,1,2,0:0:0:0:
449,198,70980,1,2,0:0:0:0:
377,259,71087,2,0,L|368:346,1,67.5000025749208,2|8,0:0|0:0,0:0:0:0:
449,198,71302,2,0,L|455:130,1,67.5000025749208,2|0,0:0|0:0,0:0:0:0:
324,54,71516,1,2,0:0:0:0:
393,58,71623,1,2,0:0:0:0:
388,126,71730,1,0,0:0:0:0:
321,122,71837,1,2,0:0:0:0:
462,62,72052,1,8,0:0:0:0:
256,259,72481,5,4,0:0:0:0:
256,125,72588,1,2,0:0:0:0:
189,192,72695,1,8,0:0:0:0:
323,192,72802,1,8,0:0:0:0:
180,192,72909,2,0,L|92:192,1,67.5000025749208,4|0,0:0|0:0,0:0:0:0:
332,192,73123,2,0,L|420:192,1,67.5000025749208,0|0,3:0|3:0,0:0:0:0:
256,259,73338,1,2,3:0:0:0:
256,275,73445,1,0,0:0:0:0:
256,292,73552,1,2,0:0:0:0:
256,309,73659,1,0,0:0:0:0:
256,326,73766,1,2,0:0:0:0:
256,192,73981,6,0,L|256:54,1,135.000005149842,12|0,0:0|0:0,0:0:0:0:
256,326,74409,1,2,3:0:0:0:
390,192,74623,1,8,0:0:0:0:
122,192,74838,1,2,3:0:0:0:
256,58,75052,1,8,0:0:0:0:
256,326,75266,1,8,0:0:0:0:
256,326,75909,5,4,0:0:0:0:
345,312,76123,1,2,0:0:0:0:
346,318,76230,1,0,0:0:0:0:
435,304,76444,1,2,0:0:0:0:
436,310,76551,1,0,0:0:0:0:
256,326,76767,5,2,0:0:0:0:
346,318,76981,1,0,0:0:0:0:
436,310,77195,1,2,0:0:0:0:
346,318,77410,1,0,0:0:0:0:
256,326,77623,5,4,0:0:0:0:
167,312,77837,1,2,0:0:0:0:
166,318,77944,1,0,0:0:0:0:
77,304,78158,1,2,0:0:0:0:
76,310,78265,1,0,0:0:0:0:
256,326,78481,5,2,0:0:0:0:
166,318,78695,1,0,0:0:0:0:
76,310,78909,1,2,0:0:0:0:
166,318,79124,1,0,0:0:0:0:
256,326,79338,5,4,0:0:0:0:
345,312,79552,1,2,0:0:0:0:
346,318,79659,1,0,0:0:0:0:
435,304,79873,1,2,0:0:0:0:
436,310,79980,1,0,0:0:0:0:
256,326,80196,5,2,0:0:0:0:
346,318,80410,1,0,0:0:0:0:
436,310,80624,1,2,0:0:0:0:
346,318,80839,1,0,0:0:0:0:
256,326,81052,5,10,0:0:0:0:
256,192,81373,1,10,0:0:0:0:
256,58,81695,1,10,0:0:0:0:
390,192,81909,5,10,0:0:0:0:
256,192,82230,1,10,0:0:0:0:
122,192,82552,1,10,0:0:0:0:
256,192,82766,5,2,3:0:0:0:
192,255,82981,1,8,0:0:0:0:
256,192,83195,1,2,3:0:0:0:
257,177,83302,1,2,3:0:0:0:
258,162,83409,1,0,0:0:0:0:
259,147,83516,1,8,0:0:0:0:
192,255,83731,1,0,3:0:0:0:
259,147,83945,1,0,3:0:0:0:
260,132,84052,1,2,3:0:0:0:
192,255,84266,1,8,0:0:0:0:
333,253,84481,5,2,3:0:0:0:
325,341,84695,1,8,0:0:0:0:
333,253,84909,1,2,3:0:0:0:
347,251,85016,1,2,3:0:0:0:
362,250,85123,1,0,0:0:0:0:
377,249,85230,1,8,0:0:0:0:
325,341,85445,1,0,3:0:0:0:
377,249,85659,1,0,3:0:0:0:
392,248,85766,1,2,3:0:0:0:
325,341,85981,1,8,0:0:0:0:
345,144,86195,5,2,3:0:0:0:
255,136,86409,1,8,0:0:0:0:
345,143,86623,1,2,3:0:0:0:
359,142,86730,1,2,3:0:0:0:
374,141,86837,1,0,0:0:0:0:
389,140,86944,1,8,0:0:0:0:
255,136,87159,1,0,3:0:0:0:
389,140,87373,1,0,3:0:0:0:
403,138,87480,1,2,3:0:0:0:
255,136,87695,1,8,0:0:0:0:
107,134,87909,5,2,3:0:0:0:
181,84,88123,1,8,0:0:0:0:
107,134,88338,1,2,3:0:0:0:
105,148,88445,1,2,3:0:0:0:
104,163,88552,1,0,0:0:0:0:
103,178,88659,1,8,0:0:0:0:
181,84,88874,1,0,3:0:0:0:
103,178,89088,1,0,3:0:0:0:
101,192,89195,1,2,3:0:0:0:
181,84,89409,1,8,0:0:0:0:
93,280,89623,5,2,3:0:0:0:
174,243,89838,1,8,0:0:0:0:
93,280,90052,1,2,3:0:0:0:
79,278,90159,1,2,3:0:0:0:
64,277,90266,1,0,0:0:0:0:
49,276,90373,1,8,0:0:0:0:
174,243,90588,1,0,3:0:0:0:
49,276,90802,1,0,3:0:0:0:
34,275,90909,1,2,3:0:0:0:
174,243,91123,1,8,0:0:0:0:
271,348,91338,5,2,3:0:0:0:
359,363,91552,1,8,0:0:0:0:
271,348,91766,1,2,3:0:0:0:
269,334,91873,1,2,3:0:0:0:
268,319,91980,1,0,0:0:0:0:
267,304,92087,1,8,0:0:0:0:
359,363,92302,1,0,3:0:0:0:
267,304,92516,1,0,3:0:0:0:
266,289,92623,1,2,3:0:0:0:
359,363,92838,1,8,0:0:0:0:
258,201,93052,5,2,3:0:0:0:
266,289,93266,1,8,0:0:0:0:
258,201,93481,1,2,3:0:0:0:
244,199,93588,1,2,3:0:0:0:
229,198,93695,1,0,0:0:0:0:
214,197,93802,1,8,0:0:0:0:
266,289,94016,1,0,3:0:0:0:
214,197,94231,1,0,3:0:0:0:
199,196,94338,1,2,3:0:0:0:
266,289,94552,1,8,0:0:0:0:
292,129,94766,5,2,3:0:0:0:
266,289,94980,1,8,0:0:0:0:
358,222,95195,2,0,L|410:230,1,45,2|0,3:0|0:0,0:0:0:0:
199,196,95409,2,0,L|154:188,1,45,8|0,0:0|0:0,0:0:0:0:
285,211,95623,1,8,0:1:0:0:
274,210,95730,1,8,0:1:0:0:
280,205,95837,1,8,0:1:0:0:
279,216,95944,1,8,0:1:0:0:
279,211,96051,1,2,3:0:0:0:
279,211,96481,6,0,P|301:166|287:67,1,135,4|0,0:0|0:0,0:0:0:0:
295,83,96909,2,0,L|300:32,3,45,8|0|0|0,0:1|0:0|0:0|0:0,0:0:0:0:
279,211,97338,2,0,L|274:255,3,45,8|0|0|0,0:1|0:0|0:0|0:0,0:0:0:0:
295,83,97766,2,0,L|300:32,3,45,8|0|0|0,0:1|0:0|0:0|0:0,0:0:0:0:
279,211,98195,2,0,L|274:255,3,45,8|0|0|0,0:1|0:0|0:0|0:0,0:0:0:0:
295,83,98623,2,0,L|300:32,3,45,8|0|0|0,0:1|0:0|0:0|0:0,0:0:0:0:
279,211,99052,2,0,L|274:255,3,45,8|0|0|0,0:1|0:0|0:0|0:0,0:0:0:0:
295,83,99481,1,8,0:1:0:0:
296,71,99588,1,8,0:1:0:0:
297,60,99695,1,8,0:1:0:0:
298,49,99802,1,8,0:1:0:0:
299,38,99910,6,0,P|254:60|155:46,1,135,4|0,0:0|0:0,0:0:0:0:
171,54,100338,2,0,L|120:59,3,45,8|0|0|0,0:1|0:0|0:0|0:0,0:0:0:0:
299,38,100767,2,0,L|343:33,3,45,8|0|0|0,0:1|0:0|0:0|0:0,0:0:0:0:
171,54,101195,2,0,L|120:59,3,45,8|0|0|0,0:1|0:0|0:0|0:0,0:0:0:0:
299,38,101624,2,0,L|343:33,3,45,8|0|0|0,0:1|0:0|0:0|0:0,0:0:0:0:
171,54,102052,2,0,L|120:59,3,45,8|0|0|0,0:1|0:0|0:0|0:0,0:0:0:0:
299,38,102481,2,0,L|343:33,3,45,8|0|0|0,0:1|0:0|0:0|0:0,0:0:0:0:
171,54,102910,1,8,0:1:0:0:
159,55,103017,1,8,0:1:0:0:
148,56,103124,1,8,0:1:0:0:
137,57,103231,1,8,0:1:0:0:
126,58,103338,6,0,P|104:103|118:202,1,135,4|0,0:0|0:0,0:0:0:0:
110,186,103766,2,0,L|104:236,3,45,8|0|0|0,0:1|0:0|0:0|0:0,0:0:0:0:
126,58,104195,2,0,L|130:13,3,45,8|0|0|0,0:1|0:0|0:0|0:0,0:0:0:0:
110,186,104623,2,0,L|104:236,3,45,8|0|0|0,0:1|0:0|0:0|0:0,0:0:0:0:
126,58,105052,2,0,L|130:13,3,45,8|0|0|0,0:1|0:0|0:0|0:0,0:0:0:0:
110,186,105480,2,0,L|104:236,3,45,8|0|0|0,0:1|0:0|0:0|0:0,0:0:0:0:
126,58,105909,2,0,L|130:13,3,45,8|0|0|0,0:1|0:0|0:0|0:0,0:0:0:0:
110,186,106338,1,8,0:1:0:0:
108,197,106445,1,8,0:1:0:0:
107,208,106552,1,8,0:1:0:0:
106,219,106659,1,8,0:1:0:0:
106,231,106766,6,0,L|61:234,1,45,6|0,0:0|0:0,0:0:0:0:
84,298,106981,2,0,L|39:301,1,45,2|0,0:0|0:0,0:0:0:0:
406,231,107195,2,0,L|450:234,1,45,2|0,0:0|0:0,0:0:0:0:
428,298,107410,2,0,L|472:301,1,45,2|0,0:0|0:0,0:0:0:0:
153,283,107623,6,0,L|149:327,1,45,6|0,0:0|0:0,0:0:0:0:
359,283,107838,2,0,L|362:327,1,45,2|0,0:0|0:0,0:0:0:0:
106,231,108052,2,0,L|61:234,1,45,2|0,0:0|0:0,0:0:0:0:
406,231,108266,2,0,L|450:234,1,45,2|0,0:0|0:0,0:0:0:0:
153,179,108481,5,12,0:0:0:0:
152,167,108588,1,0,0:0:0:0:
151,156,108695,1,2,3:0:0:0:
150,145,108802,1,0,0:0:0:0:
149,134,108909,2,0,L|104:130,3,45,8|0|2|0,0:0|0:0|3:0|0:0,0:0:0:0:
359,179,109338,1,8,0:0:0:0:
359,167,109445,1,0,0:0:0:0:
360,156,109552,1,2,3:0:0:0:
361,145,109659,1,0,0:0:0:0:
363,134,109766,2,0,L|407:130,3,45,8|0|8|0,0:0|0:0|0:0|0:0,0:0:0:0:
189,198,110195,5,6,0:0:0:0:
105,268,110302,1,2,0:0:0:0:
173,263,110409,1,2,0:0:0:0:
78,205,110516,2,0,L|3:211,1,67.5000025749208,2|8,0:0|0:0,0:0:0:0:
189,198,110731,2,0,L|256:192,1,67.5000025749208,2|0,0:0|0:0,0:0:0:0:
131,163,110945,1,2,0:0:0:0:
73,126,111052,1,2,0:0:0:0:
89,61,111159,1,0,0:0:0:0:
155,56,111266,1,2,0:0:0:0:
105,268,111481,1,8,0:0:0:0:
323,198,111909,5,6,0:0:0:0:
407,268,112016,1,2,0:0:0:0:
339,263,112123,1,2,0:0:0:0:
434,205,112230,2,0,L|501:210,1,67.5000025749208,2|8,0:0|0:0,0:0:0:0:
323,198,112445,2,0,L|255:192,1,67.5000025749208,2|0,0:0|0:0,0:0:0:0:
381,163,112659,1,2,0:0:0:0:
439,126,112766,1,2,0:0:0:0:
423,61,112873,1,0,0:0:0:0:
357,56,112980,1,2,0:0:0:0:
407,268,113195,1,8,0:0:0:0:
75,192,113623,5,4,0:0:0:0:
256,64,113838,2,0,P|273:129|255:193,1,135.000005149842,0|0,0:0|3:0,0:0:0:0:
256,320,114266,2,0,P|238:256|256:192,1,135.000005149842,8|0,0:0|0:0,0:0:0:0:
437,192,114695,5,0,3:0:0:0:
75,192,114909,1,0,3:0:0:0:
256,64,115123,2,0,P|273:129|255:193,1,135.000005149842,12|0,0:0|0:0,0:0:0:0:
165,192,115552,1,0,3:0:0:0:
346,192,115766,1,0,3:0:0:0:
256,320,115980,1,2,3:0:0:0:
256,64,116194,1,8,0:0:0:0:
256,209,116409,1,0,0:0:0:0:
256,201,116516,1,0,0:0:0:0:
256,192,116623,1,2,3:0:0:0:
256,184,116730,1,0,3:0:0:0:
256,176,116837,1,0,3:0:0:0:
165,293,117052,5,6,0:0:0:0:
58,266,117159,1,2,0:0:0:0:
159,225,117266,1,2,0:0:0:0:
101,317,117373,2,0,L|106:384,1,67.5000025749208,2|8,0:0|0:0,0:0:0:0:
93,209,117588,2,0,L|86:132,1,67.5000025749208,2|0,0:0|0:0,0:0:0:0:
144,49,117802,1,2,0:0:0:0:
149,116,117909,1,2,0:0:0:0:
87,142,118016,1,0,0:0:0:0:
42,92,118124,1,2,0:0:0:0:
58,266,118338,1,8,0:0:0:0:
347,293,118766,5,6,0:0:0:0:
454,266,118873,1,2,0:0:0:0:
353,225,118980,1,2,0:0:0:0:
411,317,119087,2,0,L|405:384,1,67.5000025749208,2|8,0:0|0:0,0:0:0:0:
419,209,119302,2,0,L|425:132,1,67.5000025749208,2|0,0:0|0:0,0:0:0:0:
368,49,119516,1,2,0:0:0:0:
363,116,119623,1,2,0:0:0:0:
425,142,119730,1,0,0:0:0:0:
470,92,119838,1,2,0:0:0:0:
454,266,120052,1,8,0:0:0:0:
256,124,120481,5,6,0:0:0:0:
295,247,120588,1,2,0:0:0:0:
191,170,120695,1,8,0:0:0:0:
320,170,120802,1,8,0:0:0:0:
216,247,120909,2,0,L|147:252,1,67.5000025749208,4|0,0:0|0:0,0:0:0:0:
295,247,121123,2,0,L|364:252,1,67.5000025749208,0|0,3:0|3:0,0:0:0:0:
256,124,121338,1,2,3:0:0:0:
256,107,121445,1,0,0:0:0:0:
256,90,121552,1,2,0:0:0:0:
256,73,121659,1,0,0:0:0:0:
256,56,121766,1,2,0:0:0:0:
256,192,121981,6,0,L|256:329,1,135.000005149842,12|0,0:0|0:0,0:0:0:0:
256,56,122409,1,2,3:0:0:0:
159,288,122623,1,8,0:0:0:0:
352,288,122838,1,2,3:0:0:0:
120,192,123052,1,8,0:0:0:0:
392,192,123266,1,8,0:0:0:0:
255,319,123481,1,8,0:0:0:0:
256,22,123695,1,2,3:0:0:0:
248,22,123802,1,0,3:0:0:0:
223,107,123909,5,4,0:0:0:0:
231,107,124016,1,0,0:0:0:0:
256,22,124123,2,0,P|231:107|256:192,1,180,2|8,0:0|0:1,0:0:0:0:
256,362,124552,2,0,P|281:277|256:192,1,180,2|0,0:0|0:0,0:0:0:0:
86,192,124981,2,0,P|171:217|256:192,1,180,2|8,0:0|0:1,0:0:0:0:
341,159,125409,1,2,0:0:0:0:
341,167,125516,1,0,0:0:0:0:
426,192,125623,5,2,0:0:0:0:
86,192,125838,1,0,0:0:0:0:
256,362,126052,1,8,0:1:0:0:
256,22,126267,1,0,0:0:0:0:
256,362,126481,1,2,0:0:0:0:
256,188,126695,1,2,0:0:0:0:
256,196,126802,1,0,0:0:0:0:
252,192,126909,1,8,0:1:0:0:
260,192,127016,1,0,0:0:0:0:
256,192,127123,1,2,0:0:0:0:
256,22,127338,5,6,0:0:0:0:
171,225,127552,1,2,0:0:0:0:
171,217,127659,1,0,0:0:0:0:
86,192,127766,1,8,0:1:0:0:
426,192,127981,2,0,P|341:167|256:192,1,180,6|0,0:0|0:0,0:0:0:0:
86,192,128409,2,0,P|171:217|256:192,1,180,2|8,0:0|0:1,0:0:0:0:
256,22,128838,1,6,0:0:0:0:
248,22,128945,1,0,0:0:0:0:
223,107,129052,5,2,0:0:0:0:
289,277,129266,1,0,0:0:0:0:
341,159,129481,1,8,0:1:0:0:
171,225,129695,1,0,0:0:0:0:
426,192,129909,1,2,0:0:0:0:
86,192,130123,1,0,0:0:0:0:
256,22,130338,1,8,0:1:0:0:
256,362,130552,1,8,0:1:0:0:
264,362,130659,1,2,0:0:0:0:
289,277,130766,5,6,0:0:0:0:
281,277,130873,1,0,0:0:0:0:
256,362,130980,2,0,P|281:277|256:192,1,180,2|8,0:0|0:1,0:0:0:0:
256,22,131409,2,0,P|231:107|256:192,1,180,2|0,0:0|0:0,0:0:0:0:
426,192,131838,2,0,P|341:167|256:192,1,180,2|8,0:0|0:1,0:0:0:0:
171,225,132266,1,2,0:0:0:0:
171,217,132373,1,0,0:0:0:0:
86,192,132480,5,2,0:0:0:0:
426,192,132695,1,0,0:0:0:0:
256,22,132909,1,8,0:1:0:0:
256,362,133124,1,0,0:0:0:0:
171,225,133338,1,2,0:0:0:0:
171,217,133445,1,0,0:0:0:0:
86,192,133552,1,2,0:0:0:0:
426,192,133766,1,8,0:1:0:0:
256,22,133981,1,2,0:0:0:0:
256,362,134195,5,6,0:0:0:0:
256,22,134409,1,0,0:0:0:0:
426,192,134623,1,8,0:1:0:0:
86,192,134838,2,0,P|60:106|85:21,1,180,6|0,0:0|0:0,0:0:0:0:
426,192,135266,2,0,P|451:277|426:362,1,180,2|8,0:0|0:1,0:0:0:0:
256,22,135695,2,0,P|341:-3|426:21,1,180,6|0,0:0|0:0,0:0:0:0:
256,362,136123,5,0,0:0:0:0:
512,192,136338,1,8,0:0:0:0:
0,192,136552,1,0,3:0:0:0:
256,22,136766,1,8,0:0:0:0:
291,157,136981,6,0,L|298:66,1,90,2|0,0:0|0:0,0:0:0:0:
221,227,137302,2,0,L|214:318,1,90,2|0,0:0|0:0,0:0:0:0:
291,157,137623,1,6,0:0:0:0:
256,192,137731,12,0,138481,0:0:0:0:
221,157,138695,6,0,L|214:66,1,90,2|0,0:0|0:0,0:0:0:0:
291,227,139016,2,0,L|298:318,1,90,2|0,0:0|0:0,0:0:0:0:
221,157,139337,1,2,0:0:0:0:
256,192,139445,12,0,140195,0:0:0:0:
291,157,140409,6,0,P|330:143|384:150,1,90,2|0,0:0|0:0,0:0:0:0:
221,227,140731,2,0,P|182:241|128:234,1,90,2|0,0:0|0:0,0:0:0:0:
291,157,141052,1,2,0:0:0:0:
256,192,141159,12,0,141909,0:0:0:0:
221,157,142123,6,0,P|182:143|128:150,1,90,2|0,0:0|0:0,0:0:0:0:
291,227,142445,2,0,P|330:241|384:234,1,90,2|0,0:0|0:0,0:0:0:0:
221,157,142766,1,2,0:0:0:0:
291,227,142981,1,2,3:0:0:0:
291,157,143195,2,0,P|305:118|303:85,1,45,8|8,0:0|0:0,0:0:0:0:
221,227,143409,2,0,P|207:266|209:299,1,45,8|8,0:0|0:0,0:0:0:0:
291,157,143623,1,2,3:0:0:0:
221,157,143838,6,0,L|119:148,1,90,6|0,0:0|0:0,0:0:0:0:
291,227,144159,2,0,L|392:235,1,90,6|0,0:0|0:0,0:0:0:0:
221,157,144481,1,6,0:0:0:0:
256,192,144588,12,0,145338,0:0:0:0:
291,157,145552,6,0,L|392:148,1,90,2|0,0:0|0:0,0:0:0:0:
221,227,145873,2,0,L|119:235,1,90,2|0,0:0|0:0,0:0:0:0:
291,157,146195,1,2,0:0:0:0:
256,192,146302,12,0,147052,0:0:0:0:
292,227,147266,6,0,P|278:266|285:320,1,90,2|0,0:0|0:0,0:0:0:0:
220,157,147588,2,0,P|234:118|227:64,1,90,2|0,0:0|0:0,0:0:0:0:
292,227,147909,1,2,0:0:0:0:
256,192,148016,12,0,148766,0:0:0:0:
220,227,148981,6,0,P|234:266|227:320,1,90,2|0,0:0|0:0,0:0:0:0:
292,157,149303,2,0,P|278:118|285:64,1,90,2|0,0:0|0:0,0:0:0:0:
220,227,149624,1,2,0:0:0:0:
292,157,149838,1,2,3:0:0:0:
221,156,150052,2,0,P|182:170|141:166,1,45,8|8,0:0|0:0,0:0:0:0:
291,228,150266,2,0,P|330:214|371:218,1,45,8|8,0:0|0:0,0:0:0:0:
221,156,150481,1,2,3:0:0:0:
291,157,150695,6,0,L|298:66,1,90,6|0,0:0|0:0,0:0:0:0:
221,227,151016,2,0,L|214:318,1,90,6|0,0:0|0:0,0:0:0:0:
291,157,151338,2,0,L|382:150,1,90,6|0,0:0|0:0,0:0:0:0:
391,149,151659,1,0,0:0:0:0:
402,148,151766,1,8,0:1:0:0:
512,219,151981,2,0,L|422:212,1,90,2|2,0:0|0:0,0:0:0:0:
221,157,152409,6,0,L|214:66,1,90,2|0,0:0|0:0,0:0:0:0:
291,227,152730,2,0,L|298:318,1,90,2|0,0:0|0:0,0:0:0:0:
221,157,153051,1,2,0:0:0:0:
214,67,153266,1,0,0:0:0:0:
213,56,153373,1,0,0:0:0:0:
212,45,153481,1,8,0:1:0:0:
55,107,153695,2,0,L|144:113,1,90,2|2,0:0|0:0,0:0:0:0:
291,157,154123,6,0,P|330:143|384:150,1,90,2|0,0:0|0:0,0:0:0:0:
221,227,154445,2,0,P|182:241|128:234,1,90,2|0,0:0|0:0,0:0:0:0:
291,157,154766,1,2,0:0:0:0:
442,205,154981,1,0,0:0:0:0:
444,217,155088,2,0,L|452:312,1,90
453,318,155409,2,0,L|512:323,2,45,2|0|2,0:0|0:0|0:0,0:0:0:0:
221,157,155837,6,0,P|182:143|128:150,1,90,2|2,0:0|0:0,0:0:0:0:
291,227,156159,2,0,P|330:241|384:234,1,90
221,157,156480,1,2,0:0:0:0:
291,227,156695,1,2,3:0:0:0:
291,157,156909,2,0,P|305:118|303:85,1,45,8|8,0:0|0:0,0:0:0:0:
221,227,157123,2,0,P|207:266|209:299,1,45,8|8,0:0|0:0,0:0:0:0:
291,157,157337,1,2,3:0:0:0:
221,157,157552,6,0,L|119:148,1,90,6|0,0:0|0:0,0:0:0:0:
291,227,157873,2,0,L|392:235,1,90,6|0,0:0|0:0,0:0:0:0:
221,157,158195,2,0,P|235:118|228:64,1,90,6|0,0:0|0:0,0:0:0:0:
225,60,158516,1,0,0:0:0:0:
220,50,158623,1,8,0:1:0:0:
131,149,158838,2,0,L|123:250,1,90,2|2,0:0|0:0,0:0:0:0:
291,157,159266,6,0,L|392:148,1,90,2|0,0:0|0:0,0:0:0:0:
221,227,159587,2,0,L|119:235,1,90,2|0,0:0|0:0,0:0:0:0:
291,157,159909,1,2,0:0:0:0:
380,149,160123,1,0,0:0:0:0:
391,148,160230,1,0,0:0:0:0:
402,147,160337,1,8,0:1:0:0:
491,140,160552,2,0,L|498:50,1,90,2|2,0:0|0:0,0:0:0:0:
292,227,160980,6,0,P|278:266|285:320,1,90,2|0,0:0|0:0,0:0:0:0:
220,157,161302,2,0,P|234:118|227:64,1,90,2|0,0:0|0:0,0:0:0:0:
292,227,161624,5,2,0:0:0:0:
381,213,161838,1,0,0:0:0:0:
382,219,161945,1,0,0:0:0:0:
325,148,162159,1,0,0:0:0:0:
326,142,162266,2,0,L|334:42,1,90,2|2,0:0|0:0,0:0:0:0:
220,227,162695,6,0,P|234:266|227:320,1,90,2|0,0:0|0:0,0:0:0:0:
292,157,163017,2,0,P|278:118|285:64,1,90,2|0,0:0|0:0,0:0:0:0:
220,227,163338,1,2,0:0:0:0:
292,157,163552,1,2,3:0:0:0:
221,156,163766,2,0,P|182:170|141:166,1,45,8|8,0:0|0:0,0:0:0:0:
291,228,163980,2,0,P|330:214|371:218,1,45,8|8,0:0|0:0,0:0:0:0:
221,156,164195,1,2,3:0:0:0:
436,208,165052,5,4,0:0:0:0:
257,186,165266,1,8,0:1:0:0:
256,192,165373,1,2,3:0:0:0:
77,168,165588,1,8,0:1:0:0:
76,174,165696,1,2,3:0:0:0:
436,176,165909,5,4,0:0:0:0:
257,186,166123,1,8,0:1:0:0:
256,192,166230,1,2,3:0:0:0:
77,204,166446,1,8,0:1:0:0:
76,210,166553,1,2,3:0:0:0:
240,12,166766,5,4,0:0:0:0:
262,191,166980,1,8,0:1:0:0:
256,192,167087,1,2,3:0:0:0:
280,371,167302,1,8,0:1:0:0:
274,372,167410,1,2,3:0:0:0:
272,12,167623,5,4,0:0:0:0:
262,191,167837,1,8,0:1:0:0:
256,192,167944,1,2,3:0:0:0:
244,371,168160,1,8,0:1:0:0:
238,372,168267,1,2,3:0:0:0:
314,158,168481,6,0,L|390:150,3,67.5000025749208,4|0|8|2,0:0|0:0|0:1|3:0,0:0:0:0:
198,158,168909,2,0,L|121:150,3,67.5000025749208,0|8|2|0,0:0|0:1|3:0|0:0,0:0:0:0:
450,157,169338,2,0,L|457:233,3,67.5000025749208,4|0|8|2,0:0|0:0|0:1|3:0,0:0:0:0:
62,157,169766,2,0,L|54:233,3,67.5000025749208,0|8|2|0,0:0|0:1|3:0|0:0,0:0:0:0:
314,158,170195,5,4,0:0:0:0:
319,156,170302,1,0,0:0:0:0:
315,153,170409,1,8,0:1:0:0:
318,160,170516,1,8,0:1:0:0:
198,158,170623,5,4,0:0:0:0:
193,156,170730,1,0,0:0:0:0:
197,153,170837,1,8,0:1:0:0:
194,160,170944,1,8,0:1:0:0:
256,256,171052,5,4,0:0:0:0:
256,262,171159,1,0,0:0:0:0:
252,259,171266,1,8,0:1:0:0:
260,259,171373,1,8,0:1:0:0:
256,124,171481,5,2,3:0:0:0:
256,192,171909,5,4,3:2:0:0:
256,192,172338,1,0,3:0:0:0:
256,192,172766,1,0,3:0:0:0:
256,192,173195,1,0,3:0:0:0:
256,192,173623,1,0,3:0:0:0:
256,192,174052,1,0,3:0:0:0:
256,192,174481,1,0,3:0:0:0:
256,192,174909,1,0,3:0:0:0:
256,327,175123,1,8,0:0:0:0:
256,57,175338,5,4,3:2:0:0:
188,124,175552,1,0,3:0:0:0:
256,192,175766,1,0,3:0:0:0:
323,124,175980,1,0,3:0:0:0:
256,327,176195,5,12,0:0:0:0:
371,192,176409,1,0,0:0:0:0:
379,192,176516,1,0,3:0:0:0:
387,192,176623,1,2,3:0:0:0:
121,192,176838,1,12,0:0:0:0:
256,53,177052,5,8,0:1:0:0:
256,61,177159,1,0,0:0:0:0:
252,57,177266,1,8,0:1:0:0:
260,57,177373,1,8,0:1:0:0:
256,53,177481,1,8,0:1:0:0:
256,61,177588,1,0,0:0:0:0:
252,57,177695,1,8,0:1:0:0:
260,57,177802,1,8,0:1:0:0:
256,57,177909,1,8,0:1:0:0:
256,327,178123,1,2,3:0:0:0:
256,192,178338,1,2,0:0:0:0:
196,164,178766,5,6,0:0:0:0:
87,242,178873,1,2,0:0:0:0:
203,231,178981,1,2,0:0:0:0:
81,174,179088,2,0,L|75:106,1,67.5000025749208,2|8,0:0|0:0,0:0:0:0:
203,231,179302,2,0,L|208:298,1,67.5000025749208,2|0,0:0|0:0,0:0:0:0:
141,202,179516,1,2,0:0:0:0:
196,164,179623,1,2,0:0:0:0:
256,192,179731,1,0,0:0:0:0:
203,231,179838,1,2,0:0:0:0:
182,30,180052,1,8,0:0:0:0:
316,164,180481,5,6,0:0:0:0:
425,242,180588,1,2,0:0:0:0:
309,231,180696,1,2,0:0:0:0:
431,174,180803,2,0,L|436:106,1,67.5000025749208,2|8,0:0|0:0,0:0:0:0:
309,231,181017,2,0,L|303:298,1,67.5000025749208,2|0,0:0|0:0,0:0:0:0:
371,202,181231,1,2,0:0:0:0:
316,164,181338,1,2,0:0:0:0:
256,192,181445,1,0,0:0:0:0:
309,231,181553,1,2,0:0:0:0:
330,30,181766,1,8,0:0:0:0:
199,96,182195,5,4,0:0:0:0:
316,164,182302,1,0,0:0:0:0:
199,164,182409,1,8,0:0:0:0:
316,96,182516,1,8,0:0:0:0:
256,192,182623,2,0,L|256:263,1,67.5000025749208,2|0,3:0|0:0,0:0:0:0:
256,57,182838,1,8,0:0:0:0:
256,327,183052,1,2,3:0:0:0:
391,192,183266,1,2,0:0:0:0:
121,192,183480,1,2,0:0:0:0:
256,57,183695,6,0,L|256:192,1,135.000005149842,12|0,0:0|0:0,0:0:0:0:
351,287,184123,1,2,3:0:0:0:
256,57,184337,1,8,0:0:0:0:
160,287,184552,1,2,3:0:0:0:
458,192,184766,1,8,0:0:0:0:
53,192,184981,1,8,0:0:0:0:
256,188,185195,1,2,3:0:0:0:
256,196,185302,1,0,0:0:0:0:
252,192,185409,1,0,3:0:0:0:
260,192,185516,1,0,3:0:0:0:
256,192,185623,5,6,0:0:0:0:
139,200,185731,1,2,0:0:0:0:
200,229,185838,1,2,0:0:0:0:
250,125,185945,2,0,L|257:40,1,67.5000025749208,2|8,0:0|0:0,0:0:0:0:
200,229,186159,2,0,L|194:296,1,67.5000025749208,2|0,0:0|0:0,0:0:0:0:
196,164,186373,1,2,0:0:0:0:
136,136,186481,1,2,0:0:0:0:
79,172,186588,1,0,0:0:0:0:
139,200,186696,1,2,0:0:0:0:
130,8,186909,1,8,0:0:0:0:
256,192,187338,5,6,0:0:0:0:
373,200,187446,1,2,0:0:0:0:
312,229,187553,1,2,0:0:0:0:
262,125,187660,2,0,L|255:40,1,67.5000025749208,2|8,0:0|0:0,0:0:0:0:
312,229,187874,2,0,L|318:296,1,67.5000025749208,2|0,0:0|0:0,0:0:0:0:
316,164,188088,1,2,0:0:0:0:
376,136,188196,1,2,0:0:0:0:
433,172,188303,1,0,0:0:0:0:
373,200,188409,1,2,0:0:0:0:
382,8,188624,1,8,0:0:0:0:
256,192,189052,5,4,0:0:0:0:
256,57,189266,1,2,0:0:0:0:
256,327,189481,1,2,0:0:0:0:
256,192,189695,1,8,0:0:0:0:
458,192,189909,1,2,0:0:0:0:
53,192,190124,1,2,0:0:0:0:
256,192,190338,1,2,3:0:0:0:
155,293,190552,2,0,L|19:304,1,135.000005149842,8|0,0:0|0:0,0:0:0:0:
357,293,190981,5,2,0:0:0:0:
155,91,191195,1,8,0:0:0:0:
357,91,191409,1,2,3:0:0:0:
155,293,191623,1,8,0:0:0:0:
89,130,191838,1,8,0:0:0:0:
97,130,191945,1,0,0:0:0:0:
93,126,192052,1,2,3:0:0:0:
93,134,192159,1,0,0:0:0:0:
89,130,192266,1,0,3:0:0:0:
97,130,192373,1,0,3:0:0:0:
93,130,192481,5,6,0:0:0:0:
150,254,192588,1,2,0:0:0:0:
54,185,192695,1,2,0:0:0:0:
189,198,192802,2,0,L|256:191,1,67.5000025749208,2|8,0:0|0:0,0:0:0:0:
54,185,193016,2,0,L|-13:191,1,67.5000025749208,2|0,0:0|0:0,0:0:0:0:
122,192,193231,1,2,0:0:0:0:
150,254,193338,1,2,0:0:0:0:
83,248,193445,1,0,0:0:0:0:
122,192,193552,1,2,0:0:0:0:
206,379,193766,1,8,0:0:0:0:
419,130,194195,5,6,0:0:0:0:
362,254,194302,1,2,0:0:0:0:
458,185,194409,1,2,0:0:0:0:
323,198,194516,2,0,L|255:191,1,67.5000025749208,2|8,0:0|0:0,0:0:0:0:
458,185,194730,2,0,L|525:191,1,67.5000025749208,2|0,0:0|0:0,0:0:0:0:
390,192,194945,1,2,0:0:0:0:
362,254,195052,1,2,0:0:0:0:
429,248,195159,1,0,0:0:0:0:
390,192,195266,1,2,0:0:0:0:
306,379,195480,1,8,0:0:0:0:
197,158,195909,5,6,0:0:0:0:
314,225,196016,1,0,0:0:0:0:
197,225,196123,1,8,0:0:0:0:
314,158,196230,1,8,0:0:0:0:
256,259,196338,2,0,L|256:327,1,67.5000025749208,4|0,0:0|0:0,0:0:0:0:
256,124,196552,2,0,L|256:57,1,67.5000025749208,2|0,3:0|0:0,0:0:0:0:
256,188,196766,1,0,3:0:0:0:
256,196,196873,1,0,3:0:0:0:
252,192,196980,1,6,0:0:0:0:
260,192,197087,1,0,0:0:0:0:
256,192,197195,1,6,0:0:0:0:
256,327,197409,6,0,L|256:192,1,135.000005149842,6|0,0:0|0:0,0:0:0:0:
54,192,197838,1,2,3:0:0:0:
256,57,198052,1,12,0:0:0:0:
256,327,198266,1,2,3:0:0:0:
458,192,198481,1,12,0:0:0:0:
54,192,198695,1,12,0:0:0:0:
256,192,199338,5,4,0:0:0:0:
345,178,199552,1,2,0:0:0:0:
346,184,199659,1,0,0:0:0:0:
294,117,199873,1,2,0:0:0:0:
295,111,199980,1,0,0:0:0:0:
256,192,200196,5,2,0:0:0:0:
346,184,200410,1,0,0:0:0:0:
295,111,200624,1,2,0:0:0:0:
346,184,200839,1,0,0:0:0:0:
256,192,201052,5,4,0:0:0:0:
167,178,201266,1,2,0:0:0:0:
166,184,201373,1,0,0:0:0:0:
218,117,201587,1,2,0:0:0:0:
217,111,201694,1,0,0:0:0:0:
256,192,201910,5,2,0:0:0:0:
166,184,202124,1,0,0:0:0:0:
217,111,202338,1,2,0:0:0:0:
166,184,202553,1,0,0:0:0:0:
256,192,202766,5,4,0:0:0:0:
345,206,202980,1,2,0:0:0:0:
346,200,203087,1,0,0:0:0:0:
294,267,203301,1,2,0:0:0:0:
295,273,203408,1,0,0:0:0:0:
256,192,203624,5,2,0:0:0:0:
346,200,203838,1,0,0:0:0:0:
295,273,204052,1,2,0:0:0:0:
346,200,204267,1,0,0:0:0:0:
256,192,204481,5,4,0:0:0:0:
167,206,204695,1,2,0:0:0:0:
166,200,204802,1,0,0:0:0:0:
218,267,205016,1,2,0:0:0:0:
217,273,205123,1,0,0:0:0:0:
256,192,205339,5,2,0:0:0:0:
166,200,205553,1,0,0:0:0:0:
217,273,205767,1,2,0:0:0:0:
166,200,205982,1,0,0:0:0:0:
256,354,206195,5,4,0:0:0:0:
196,377,206409,1,2,0:0:0:0:
195,383,206516,1,0,0:0:0:0:
316,377,206731,1,2,0:0:0:0:
317,383,206838,1,0,0:0:0:0:
256,354,207052,5,2,0:0:0:0:
195,383,207266,1,0,0:0:0:0:
256,354,207481,1,2,0:0:0:0:
317,383,207695,1,0,0:0:0:0:
418,192,207909,5,4,0:0:0:0:
441,252,208123,1,2,0:0:0:0:
447,253,208230,1,0,0:0:0:0:
441,132,208445,1,2,0:0:0:0:
447,131,208552,1,0,0:0:0:0:
418,192,208766,5,2,0:0:0:0:
447,253,208980,1,0,0:0:0:0:
418,192,209195,1,2,0:0:0:0:
447,131,209409,1,0,0:0:0:0:
256,30,209623,5,4,0:0:0:0:
316,7,209837,1,2,0:0:0:0:
317,1,209944,1,0,0:0:0:0:
196,7,210159,1,2,0:0:0:0:
195,1,210266,1,0,0:0:0:0:
256,30,210480,5,2,0:0:0:0:
317,1,210694,1,0,0:0:0:0:
256,30,210909,1,2,0:0:0:0:
195,1,211123,1,0,0:0:0:0:
94,192,211338,5,4,0:0:0:0:
71,132,211552,1,2,0:0:0:0:
65,131,211659,1,0,0:0:0:0:
71,252,211874,1,2,0:0:0:0:
65,253,211981,1,0,0:0:0:0:
94,192,212195,5,2,0:0:0:0:
65,131,212409,1,0,0:0:0:0:
65,253,212624,1,2,3:0:0:0:
418,192,212838,1,8,3:2:0:0:
