osu file format v14

[General]
AudioFilename: audio.mp3
AudioLeadIn: 0
PreviewTime: 23953
Countdown: 0
SampleSet: Soft
StackLeniency: 0.6
Mode: 0
LetterboxInBreaks: 0
WidescreenStoryboard: 1

[Editor]
Bookmarks: 12703,24132,35560,46989,58417,70024,82703
DistanceSpacing: 1.1
BeatDivisor: 4
GridSize: 8
TimelineZoom: 1

[Metadata]
Title:DARUMASAN
TitleUnicode:DARUMASAN
Artist:Gesu no Kiwami Otome.
ArtistUnicode:ゲスの極み乙女。
Creator:celerih
Version:NORMAL
Source:
Tags:Daruma Ringo 達磨林檎 dsco hip hop progressive indie
BeatmapID:1294603
BeatmapSetID:613613

[Difficulty]
HPDrainRate:4
CircleSize:3
OverallDifficulty:4
ApproachRate:5
SliderMultiplier:1.1
SliderTickRate:1

[Events]
//Background and Video events
0,0,"DARUMASAN bg 2.png",0,0
//Break Periods
//Storyboard Layer 0 (Background)
//Storyboard Layer 1 (Fail)
//Storyboard Layer 2 (Pass)
//Storyboard Layer 3 (Foreground)
//Storyboard Sound Samples

[TimingPoints]
25,357.142857142857,4,2,1,65,1,0
24132,-100,4,2,1,65,0,1
26810,-100,4,2,2,65,0,1
26989,-100,4,2,1,65,0,1
28239,-100,4,2,2,65,0,1
28417,-100,4,2,1,65,0,1
33953,-100,4,2,2,65,0,1
34132,-100,4,2,1,65,0,1
35560,-100,4,2,1,65,0,0
58417,-100,4,2,1,65,0,1
70024,-100,4,2,1,65,0,0
71453,-100,4,2,3,40,0,0
72882,-100,4,2,1,65,0,0
74310,-100,4,2,3,40,0,0
75739,-100,4,2,1,40,0,0
78596,-100,4,2,1,65,0,0
82703,-100,4,2,1,65,0,1
91453,560.747663551402,4,2,1,65,1,0
91453,-71.4285714285714,4,2,1,65,0,0
92574,535.714285714286,4,2,1,65,1,0
95382,357.142857142857,4,2,1,65,1,0
96453,307.692307692308,4,2,1,65,1,0

[Colours]
Combo1 : 29,56,150
Combo2 : 204,31,28
Combo3 : 36,63,82
Combo4 : 193,132,176

[HitObjects]
263,84,1274,6,0,P|157:75|104:104,1,165,4|2,0:0|0:0,0:0:0:0:
55,210,2167,1,8,0:0:0:0:
175,201,2524,1,2,0:0:0:0:
175,201,2703,2,0,L|343:183,1,165,2|2,0:0|0:0,0:0:0:0:
459,168,3596,1,8,0:0:0:0:
331,39,4132,6,0,L|162:21,1,165,4|2,0:0|0:0,0:0:0:0:
47,40,5025,1,8,0:0:0:0:
72,163,5382,1,0,0:0:0:0:
72,163,5561,2,0,B|83:226|83:226|69:335,1,165,2|2,0:0|0:0,0:0:0:0:
175,266,6453,2,0,L|231:260,1,55,8|8,0:0|0:0,0:0:0:0:
343,232,6989,6,0,P|367:175|339:76,1,165,4|2,0:0|0:0,0:0:0:0:
243,7,7882,1,8,0:0:0:0:
217,125,8239,1,2,0:0:0:0:
217,125,8418,2,0,L|49:142,1,165,2|2,0:0|0:0,0:0:0:0:
14,256,9311,1,8,0:0:0:0:
173,342,9847,6,0,P|246:360|339:332,1,165,4|2,0:0|0:0,0:0:0:0:
451,323,10740,1,0,0:0:0:0:
414,211,11097,1,0,0:0:0:0:
414,211,11274,2,0,B|406:150|406:150|443:45,1,165,2|2,0:0|0:0,0:0:0:0:
322,23,12168,1,8,0:0:0:0:
283,200,12703,6,0,P|200:226|130:199,1,165,4|8,0:0|0:0,0:0:0:0:
40,280,13596,2,0,L|31:354,2,55,2|0|8,0:0|0:0|0:0,0:0:0:0:
37,219,14132,2,0,L|24:101,1,110,8|0,0:0|0:0,0:0:0:0:
121,183,14846,2,0,P|177:193|241:175,1,110,8|0,0:0|0:0,0:0:0:0:
348,197,15560,6,0,B|339:140|339:140|364:16,1,165,8|8,0:0|0:0,0:0:0:0:
244,71,16453,2,0,L|176:63,2,55,2|0|8,0:0|0:0|0:0,0:0:0:0:
261,129,16989,2,0,B|269:186|269:186|263:247,1,110,8|0,0:0|0:0,0:0:0:0:
180,325,17703,2,0,P|125:335|65:318,1,110,8|0,0:0|0:0,0:0:0:0:
95,203,18417,6,0,B|100:154|100:154|91:97|91:97|99:17,1,165,8|8,0:0|0:0,0:0:0:0:
184,123,19310,2,0,L|176:199,2,55,2|0|8,0:0|0:0|0:0,0:0:0:0:
220,74,19846,2,0,P|277:63|335:81,1,110,8|0,0:0|0:0,0:0:0:0:
350,194,20560,2,0,P|402:207|456:196,1,110,8|0,0:0|0:0,0:0:0:0:
508,86,21274,6,0,P|437:55|338:74,1,165,4|8,0:0|0:0,0:0:0:0:
271,156,22167,2,0,L|277:218,2,55,2|8|2,0:0|0:0|0:0,0:0:0:0:
264,96,22703,1,4,0:0:0:0:
119,99,24132,6,0,B|106:138|106:138|115:226,1,110,4|0,0:0|0:0,0:0:0:0:
129,264,24667,1,2,0:0:0:0:
129,264,24846,2,0,P|208:250|285:298,1,165,8|2,0:0|0:0,0:0:0:0:
305,344,25560,1,8,0:0:0:0:
345,229,25917,1,0,0:0:0:0:
301,116,26274,2,0,P|239:104|185:117,1,110,8|8,0:0|0:0,0:0:0:0:
160,163,26810,1,8,0:0:0:0:
160,163,26989,6,0,L|146:292,2,110,8|0|2,0:0|0:0|0:0,0:0:0:0:
102,56,28060,1,8,0:0:0:0:
60,169,28417,2,0,L|46:298,2,110,4|0|8,0:0|0:0|0:0,0:0:0:0:
12,57,29489,1,2,0:0:0:0:
125,97,29846,6,0,P|194:102|241:86,1,110,4|0,0:0|0:0,0:0:0:0:
286,62,30382,1,2,0:0:0:0:
286,62,30560,2,0,L|300:192,1,110,8|0,0:0|0:0,0:0:0:0:
363,272,31274,2,0,P|304:282|242:272,1,110,8|0,0:0|0:0,0:0:0:0:
195,262,31810,1,8,0:0:0:0:
195,262,31989,2,0,P|140:255|86:265,1,110,2|2,0:0|0:0,0:0:0:0:
46,154,32703,6,0,L|58:34,1,110,8|0,0:0|0:0,0:0:0:0:
180,46,33417,2,0,P|234:37|304:54,1,110,2|8,0:0|0:0,0:0:0:0:
327,161,34132,2,0,P|380:169|434:160,1,110,8|0,0:0|0:0,0:0:0:0:
490,136,34667,1,0,0:0:0:0:
490,136,34846,2,0,B|499:174|499:174|487:267,1,110,2|2,0:0|0:0,0:0:0:0:
370,263,35560,6,0,P|299:254|216:299,1,165,4|2,0:0|0:0,0:0:0:0:
131,380,36453,1,8,0:0:0:0:
97,263,36810,1,0,0:0:0:0:
97,263,36989,2,0,B|88:217|88:217|109:92,1,165,2|0,0:0|0:0,0:0:0:0:
184,7,37882,1,8,0:0:0:0:
284,160,38417,6,0,P|360:173|434:125,1,165,4|0,0:0|0:0,0:0:0:0:
449,3,39311,1,8,0:0:0:0:
350,73,39668,1,0,0:0:0:0:
350,73,39847,2,0,L|332:243,1,165,2|0,0:0|0:0,0:0:0:0:
406,334,40739,1,8,0:0:0:0:
496,177,41275,6,0,P|431:162|342:213,1,165,4|0,0:0|0:0,0:0:0:0:
297,316,42168,1,8,0:0:0:0:
202,240,42525,1,0,0:0:0:0:
202,240,42704,2,0,B|154:257|154:257|31:240,1,165,2|0,0:0|0:0,0:0:0:0:
8,131,43597,1,0,0:0:0:0:
188,152,44133,6,0,P|250:105|242:20,1,165,4|0,0:0|0:0,0:0:0:0:
124,19,45024,1,8,0:0:0:0:
99,138,45383,1,0,0:0:0:0:
99,138,45560,2,0,B|85:191|85:191|106:308,1,165,2|0,0:0|0:0,0:0:0:0:
210,358,46453,2,0,L|266:355,1,55,8|8,0:0|0:0,0:0:0:0:
284,235,46989,6,0,P|206:211|124:236,1,165,2|8,0:0|0:0,0:0:0:0:
41,314,47882,2,0,L|28:199,1,110,0|8,0:0|0:0,0:0:0:0:
25,144,48417,2,0,B|81:157|81:157|204:137,1,165,2|8,0:0|0:0,0:0:0:0:
307,121,49310,1,2,0:0:0:0:
277,238,49667,1,8,0:0:0:0:
277,238,49846,6,0,P|190:263|124:232,1,165,2|8,0:0|0:0,0:0:0:0:
42,144,50739,2,0,L|30:255,1,110,0|8,0:0|0:0,0:0:0:0:
60,305,51274,2,0,P|110:295|222:340,1,165,2|8,0:0|0:0,0:0:0:0:
331,363,52167,1,2,0:0:0:0:
437,305,52524,1,8,0:0:0:0:
437,305,52703,6,0,L|418:126,1,165,2|8,0:0|0:0,0:0:0:0:
318,74,53596,2,0,L|330:195,1,110,2|8,0:0|0:0,0:0:0:0:
304,238,54131,2,0,P|232:224|136:261,1,165,2|8,0:0|0:0,0:0:0:0:
79,353,55024,1,2,0:0:0:0:
40,238,55381,1,8,0:0:0:0:
40,238,55560,6,0,B|26:177|26:177|51:57,1,165,4|8,0:0|0:0,0:0:0:0:
133,161,56453,2,0,L|117:236,2,55,2|8|8,0:0|0:0|0:0,0:0:0:0:
146,101,56989,1,4,0:0:0:0:
146,101,58417,6,0,B|195:114|195:114|272:100,1,110,0|0,0:0|0:0,0:0:0:0:
312,91,58952,1,0,0:0:0:0:
312,91,59131,2,0,L|292:275,1,165,0|0,0:0|0:0,0:0:0:0:
286,315,59845,1,0,0:0:0:0:
172,355,60202,1,0,0:0:0:0:
114,248,60559,2,0,P|170:234|229:246,1,110,0|0,0:0|0:0,0:0:0:0:
274,271,61095,1,0,0:0:0:0:
274,271,61274,6,0,L|385:259,2,110,0|0|0,0:0|0:0|0:0,0:0:0:0:
189,184,62345,1,0,0:0:0:0:
309,170,62703,2,0,L|420:158,2,110,0|0|0,0:0|0:0|0:0,0:0:0:0:
250,64,63774,1,0,0:0:0:0:
169,153,64131,6,0,P|155:214|168:265,1,110,0|0,0:0|0:0,0:0:0:0:
214,294,64667,1,0,0:0:0:0:
214,294,64845,2,0,L|330:306,1,110,0|0,0:0|0:0,0:0:0:0:
444,294,65560,2,0,P|459:238|449:175,1,110,0|0,0:0|0:0,0:0:0:0:
415,139,66096,1,0,0:0:0:0:
415,139,66274,2,0,L|297:151,1,110,0|0,0:0|0:0,0:0:0:0:
232,246,66988,6,0,P|177:253|125:239,1,110,0|0,0:0|0:0,0:0:0:0:
61,136,67702,2,0,L|72:19,1,110,0|0,0:0|0:0,0:0:0:0:
187,59,68417,2,0,L|177:168,1,110,0|0,0:0|0:0,0:0:0:0:
178,228,68952,1,0,0:0:0:0:
178,228,69132,2,0,P|213:232|253:220,1,55,0|0,0:0|0:0,0:0:0:0:
473,35,70024,6,0,B|485:86|485:86|472:213,2,165,4|4|4,0:0|0:0|0:0,0:0:0:0:
219,256,72882,6,0,P|136:278|53:252,2,165,4|4|4,0:0|0:0|0:0,0:0:0:0:
145,110,75739,6,0,L|317:91,2,165,4|8|8,0:0|0:0|0:0,0:0:0:0:
135,230,77167,2,0,L|257:242,1,110,0|2,0:0|0:0,0:0:0:0:
365,247,77882,2,0,L|372:180,2,55,0|0|2,0:0|0:0|0:0,0:0:0:0:
274,326,78596,6,0,P|253:273|258:212,1,110,4|2,0:0|0:0,0:0:0:0:
327,123,79310,2,0,P|348:70|343:9,1,110,8|8,0:0|0:0,0:0:0:0:
285,9,79846,2,0,L|175:21,1,110,4|0,0:0|0:0,0:0:0:0:
116,33,80382,1,8,0:0:0:0:
116,33,80560,1,12,0:0:0:0:
174,115,82703,6,0,P|235:101|302:119,1,110,0|0,0:0|0:0,0:0:0:0:
320,155,83238,1,0,0:0:0:0:
320,155,83417,2,0,B|329:211|329:211|308:340,1,165,0|0,0:0|0:0,0:0:0:0:
298,377,84131,1,0,0:0:0:0:
179,354,84488,1,0,0:0:0:0:
131,242,84845,2,0,P|119:191|135:115,1,110,0|0,0:0|0:0,0:0:0:0:
159,83,85381,1,0,0:0:0:0:
159,83,85560,6,0,L|275:70,2,110,0|0|0,0:0|0:0|0:0,0:0:0:0:
83,177,86632,1,0,0:0:0:0:
203,178,86989,2,0,L|319:165,2,110,0|0|0,0:0|0:0|0:0,0:0:0:0:
130,274,88060,1,0,0:0:0:0:
235,339,88417,6,0,P|294:352|354:336,1,110,0|0,0:0|0:0,0:0:0:0:
395,314,88953,1,0,0:0:0:0:
395,314,89131,2,0,B|406:281|406:281|395:180,1,110,0|0,0:0|0:0,0:0:0:0:
387,146,89667,1,0,0:0:0:0:
387,146,89846,2,0,P|328:135|273:151,1,110,0|0,0:0|0:0,0:0:0:0:
188,225,90560,1,0,0:0:0:0:
88,156,90917,1,0,0:0:0:0:
278,47,91453,6,0,P|326:169|222:123,1,307.999990600586,4|4,0:0|0:0,0:0:0:0:
220,109,93645,1,4,0:0:0:0:
220,109,95382,6,0,L|86:124,2,110,8|8|8,0:0|0:0|0:0,0:0:0:0:
339,142,96453,2,0,P|344:177|339:211,1,55,8|8,0:0|0:0,0:0:0:0:
