osu file format v14

[General]
AudioFilename: 08 ruins.mp3
AudioLeadIn: 0
PreviewTime: 24435
Countdown: 0
SampleSet: Soft
StackLeniency: 0.4
Mode: 0
LetterboxInBreaks: 0
WidescreenStoryboard: 0

[Editor]
Bookmarks: 3838,11002,18167,25331,32495,39659,46823
DistanceSpacing: 1
BeatDivisor: 4
GridSize: 4
TimelineZoom: 1

[Metadata]
Title:Ruins
TitleUnicode:Ruins
Artist:Gesu no Kiwami Otome
ArtistUnicode:ゲスの極み乙女。
Creator:haha woah man
Version:Normal
Source:
Tags:jpop japanese pop rock alternative CUM
BeatmapID:879597
BeatmapSetID:404299

[Difficulty]
HPDrainRate:3
CircleSize:3.5
OverallDifficulty:4
ApproachRate:4
SliderMultiplier:1.4
SliderTickRate:1

[Events]
//Background and Video events
0,0,"bg.jpg",0,0
//Break Periods
//Storyboard Layer 0 (Background)
//Storyboard Layer 1 (Fail)
//Storyboard Layer 2 (Pass)
//Storyboard Layer 3 (Foreground)
//Storyboard Sound Samples

[TimingPoints]
256.705139714959,447.761194029851,4,2,0,20,1,0
3838,-100,4,2,0,25,0,0
25331,-100,4,2,0,25,0,0
38764,-100,4,2,0,30,0,0
39659,-100,4,1,0,33,0,1
43241,-100,4,1,0,33,0,1
46376,-100,4,1,0,30,0,0

[Colours]
Combo1 : 228,199,143
Combo2 : 235,160,183
Combo3 : 91,200,140
Combo4 : 236,68,60

[HitObjects]
153,197,256,6,0,P|226:187|261:167,2,105,4|0|0,2:2|2:2|2:2,2:2:0:0:
83,186,1152,2,0,L|77:302,2,105,0|0|0,2:2|2:2|2:2,2:2:0:0:
129,133,2047,6,0,B|148:100|148:100|214:89,2,105,4|0|0,2:2|2:2|2:2,2:2:0:0:
188,170,2943,2,0,L|303:152,1,105,0|0,2:2|2:2,2:2:0:0:
395,138,3614,1,8,2:2:0:0:
440,190,3838,6,0,P|427:245|372:280,1,105,8|0,2:3|2:3,2:3:0:0:
291,244,4510,1,0,2:3:0:0:
232,282,4734,2,0,L|106:275,1,105,8|0,2:3|2:3,2:3:0:0:
80,183,5405,1,0,2:3:0:0:
114,121,5629,6,0,P|146:161|141:216,2,105,8|0|0,2:3|2:3|2:3,2:3:0:0:
167,74,6525,1,4,2:2:0:0:
271,69,6861,2,0,L|275:158,1,70,0|0,2:3|2:3,2:3:0:0:
282,243,7420,6,0,L|415:224,2,105,8|0|0,2:3|2:3|2:3,2:3:0:0:
229,289,8316,2,0,B|197:262|155:264|155:264|137:224,1,105,8|0,2:3|2:3,2:3:0:0:
110,142,8988,1,0,2:3:0:0:
155,89,9211,6,0,L|274:102,2,105,8|0|0,2:3|2:3|2:3,2:3:0:0:
109,35,10107,1,4,2:2:0:0:
43,117,10443,2,0,P|32:168|44:188,1,70,0|0,2:3|2:2,2:3:0:0:
132,229,11002,6,0,B|211:222|211:222|241:203,1,105,8|0,2:3|2:2,2:3:0:0:
314,142,11674,1,0,2:3:0:0:
363,191,11898,2,0,L|356:297,1,105,8|0,2:3|2:2,2:3:0:0:
252,275,12570,1,0,2:3:0:0:
232,208,12794,6,0,B|230:182|230:182|264:110,2,105,0|0|0,2:3|2:2|2:2,2:3:0:0:
185,260,13689,2,0,P|132:279|73:273,1,105,4|0,2:2|2:2,2:3:0:0:
47,216,14249,1,0,2:3:0:0:
95,122,14585,6,0,L|198:67,2,105,8|0|0,2:3|2:2|2:2,2:3:0:0:
124,185,15480,2,0,P|128:229|86:289,2,105,8|0|0,2:3|2:2|2:2,2:3:0:0:
47,216,16376,6,0,P|21:260|37:334,2,105,8|0|0,2:3|2:2|2:2,2:3:0:0:
98,280,17271,1,4,2:2:0:0:
202,285,17607,2,0,L|292:288,1,70,0|0,2:3|2:2,2:3:0:0:
347,214,18167,6,0,P|347:152|309:109,1,105,8|0,2:3|2:2,2:3:0:0:
225,80,18838,1,0,2:3:0:0:
165,117,19062,2,0,B|194:143|194:143|261:148,1,105,8|0,2:3|2:2,2:3:0:0:
294,45,19734,1,0,2:3:0:0:
360,68,19958,6,0,L|475:73,2,105,8|0|0,2:3|2:2|2:2,2:3:0:0:
322,118,20853,2,0,L|207:113,1,105,4|0,2:2|2:2,2:2:0:0:
146,108,21413,1,0,2:3:0:0:
41,103,21749,6,0,P|25:150|34:202,1,105,8|0,2:3|2:2,2:3:0:0:
210,214,22644,2,0,P|176:176|126:158,1,105,8|0,2:3|2:2,2:3:0:0:
28,305,23540,2,0,P|77:294|117:260,1,105,8|0,2:3|2:2,2:3:0:0:
203,106,24435,1,4,2:2:0:0:
269,187,24771,2,0,L|260:267,1,70,8|8,2:2|2:2,2:3:0:0:
335,331,25331,6,0,L|350:197,1,105,8|0,2:3|2:2,2:3:0:0:
304,130,26002,1,8,2:2:0:0:
352,79,26226,2,0,B|388:69|388:69|475:83,1,105,8|0,2:3|2:2,2:3:0:0:
479,182,26898,1,8,2:2:0:0:
445,243,27122,6,0,B|421:246|421:246|377:223|377:223|346:227,2,105,0|0|8,2:3|2:2|2:2,2:3:0:0:
476,305,28017,2,0,P|450:337|385:351,1,105,4|0,2:2|2:2,2:3:0:0:
340,302,28577,1,8,2:2:0:0:
236,282,28913,6,0,B|208:258|208:258|199:172,1,105,8|0,2:3|2:2,2:3:0:0:
273,113,29585,1,8,2:2:0:0:
226,60,29808,2,0,P|164:63|111:92,1,105,8|0,2:3|2:2,2:3:0:0:
73,172,30480,1,8,2:2:0:0:
121,222,30704,6,0,B|149:198|149:198|236:186,2,105,8|0|8,2:3|2:2|2:2,2:3:0:0:
172,268,31599,2,0,P|171:316|131:356,1,105,4|0,2:2|2:2,2:3:0:0:
105,290,32159,1,8,2:2:0:0:
78,188,32495,6,0,L|97:69,1,105,8|0,2:3|2:2,2:3:0:0:
185,138,33167,1,8,2:2:0:0:
244,100,33391,2,0,L|346:79,1,105,8|0,2:3|2:2,2:3:0:0:
431,140,34062,1,8,2:2:0:0:
422,209,34286,6,0,B|391:255|391:255|322:270,2,105,8|0|8,2:3|2:2|2:2,2:3:0:0:
487,184,35182,1,4,2:2:0:0:
472,80,35517,2,0,P|443:52|402:34,1,70,8|0,2:2|2:2,2:3:0:0:
328,96,36077,6,0,P|277:111|198:100,1,105,8|0,2:3|2:2,2:3:0:0:
128,68,36749,1,8,2:2:0:0:
76,115,36973,2,0,P|73:167|88:217,2,105,8|0|8,2:3|2:2|2:2,2:3:0:0:
61,46,37868,5,8,2:3:0:0:
165,34,38204,2,0,L|279:44,1,105,0|8,2:3|2:2,2:3:0:0:
317,94,38764,1,4,2:2:0:0:
219,135,39099,2,0,L|139:141,1,70,8|8,2:2|2:2,2:3:0:0:
58,191,39659,6,0,P|64:243|99:293,2,105,8|2|8,2:3|2:2|2:2,2:3:0:0:
68,121,40555,2,0,B|96:82|96:82|164:76,1,105,8|2,2:3|2:2,2:3:0:0:
251,112,41226,1,8,2:2:0:0:
315,84,41450,6,0,B|342:109|342:109|354:140|337:193,1,105,8|2,2:3|2:2,2:3:0:0:
252,232,42122,1,8,2:2:0:0:
188,202,42346,5,4,2:2:0:0:
135,293,42682,2,0,L|65:288,1,70,8|8,2:2|2:2,2:3:0:0:
76,181,43241,6,0,P|55:126|84:70,2,105,8|2|8,2:3|2:2|2:2,2:3:0:0:
142,202,44137,2,0,L|250:207,1,105,8|2,2:3|2:2,2:3:0:0:
351,216,44808,1,8,2:2:0:0:
408,256,45032,6,0,P|421:212|388:157,2,105,8|2|8,2:3|2:2|2:2,2:3:0:0:
354,302,45928,2,0,L|208:295,1,140,4|4,2:2|2:2,2:3:0:0:
