osu file format v14

[General]
AudioFilename: audio.mp3
AudioLeadIn: 0
PreviewTime: 97842
Countdown: 0
SampleSet: Normal
StackLeniency: 0.2
Mode: 0
LetterboxInBreaks: 0
WidescreenStoryboard: 0

[Editor]
Bookmarks: 16127,30036,36990,194359,208272,209576,211315,214793,216533,218272
DistanceSpacing: 1.8
BeatDivisor: 4
GridSize: 16
TimelineZoom: 2.699999

[Metadata]
Title:Renai Junkie
TitleUnicode:オトナチック
Artist:Gesu no Kiwami Otome
ArtistUnicode:ゲスの極み乙女。
Creator:Hecs
Version:Magisterium
Source:
Tags:ゲスの極み乙女。 Gesu no Kiwami Otome オトナチック Renai Junkie
BeatmapID:1361269
BeatmapSetID:642047

[Difficulty]
HPDrainRate:6
CircleSize:4
OverallDifficulty:7.8
ApproachRate:9.6
SliderMultiplier:2.1
SliderTickRate:1

[Events]
//Background and Video events
0,0,"fairytale.jpg",0,0
//Break Periods
2,30236,36450
2,84133,89149
2,112837,122185
2,166750,178924
2,246733,249359
//Storyboard Layer 0 (Background)
//Storyboard Layer 1 (Fail)
//Storyboard Layer 2 (Pass)
//Storyboard Layer 3 (Foreground)
//Storyboard Sound Samples

[TimingPoints]
2218,434.656621269197,4,1,0,50,1,0
2652,-133.333333333333,4,1,0,50,0,0
3956,-100,4,1,0,50,0,0
4391,-133.333333333333,4,1,0,50,0,0
5695,-100,4,1,0,50,0,0
6129,-133.333333333333,4,1,0,50,0,0
8520,-100,4,1,0,50,0,0
9607,-76.9230769230769,4,1,0,50,0,0
16127,-100,4,1,0,50,0,0
22864,-200,4,1,0,50,0,0
22972,-200,4,1,0,5,0,0
23081,-100,4,1,0,50,0,0
29166,-500,4,1,0,50,0,0
29927,-500,4,1,0,5,0,0
30036,-500,4,1,0,50,0,0
43510,-200,4,1,0,50,0,0
43945,-100,4,1,0,50,0,0
56115,-86.9565217391304,4,1,0,50,0,1
61331,-133.333333333333,4,1,0,50,0,1
61657,-86.9565217391304,4,1,0,50,0,1
75240,-133.333333333333,4,1,0,50,0,1
75674,-86.9565217391304,4,1,0,50,0,1
80456,-100,4,1,0,50,0,0
83064,-500,4,1,0,50,0,0
90018,-100,4,1,0,50,0,0
112620,434.782608695652,4,1,0,50,1,0
123054,-166.666666666667,4,1,0,50,0,0
126533,-100,4,1,0,50,0,0
138706,-86.9565217391304,4,1,0,50,0,1
143924,-133.333333333333,4,1,0,50,0,1
144359,-86.9565217391304,4,1,0,50,0,1
157837,-133.333333333333,4,1,0,50,0,1
158272,-86.9565217391304,4,1,0,50,0,1
163054,-166.666666666667,4,1,0,50,0,0
163489,-100,4,1,0,50,0,0
164141,-86.9565217391304,4,1,0,50,0,0
180011,-133.333333333333,4,1,0,50,0,0
180446,-66.6666666666667,4,1,0,50,0,0
208272,-500.666666666667,4,1,0,50,0,0
218706,-100,4,1,0,50,0,0
222185,-86.9565217391304,4,1,0,50,0,1
246533,-100,4,1,0,50,0,0

[HitObjects]
195,49,2000,5,0,0:0:0:0:
90,92,2218,2,0,P|75:156|106:203,1,105
31,256,2543,5,0,0:0:0:0:
95,316,2652,2,0,L|184:286,1,78.7500030040742
311,332,3087,1,0,0:0:0:0:
324,345,3521,1,0,0:0:0:0:
403,180,3956,6,0,P|374:240|394:302,1,105
324,345,4282,1,0,0:0:0:0:
270,272,4391,2,0,L|181:242,1,78.7500030040742
332,74,4825,5,0,0:0:0:0:
352,55,5151,1,0,0:0:0:0:
358,81,5477,1,0,0:0:0:0:
172,41,5695,6,0,P|158:97|178:144,1,105
259,149,6021,1,0,0:0:0:0:
249,239,6129,2,0,L|323:213,1,78.7500030040742
81,146,6564,5,0,0:0:0:0:
70,171,6999,1,0,0:0:0:0:
326,115,7433,6,0,P|367:187|317:261,2,157.500006008148
112,60,8411,1,0,0:0:0:0:
125,82,8520,2,0,L|205:95,1,52.5
288,185,8737,2,0,L|208:198,1,52.5
428,61,8955,5,0,0:0:0:0:
269,102,9063,1,0,0:0:0:0:
428,61,9172,2,0,P|462:110|449:183,1,105
336,348,9498,1,0,0:0:0:0:
336,348,9607,2,0,L|374:202,1,136.499993751526
249,296,9933,5,0,0:0:0:0:
249,296,10041,2,0,L|161:306,1,68.2499968757631
0,200,10259,2,0,L|88:190,1,68.2499968757631
143,235,10476,1,0,0:0:0:0:
110,116,10585,1,0,0:0:0:0:
196,149,10693,2,0,L|284:159,1,68.2499968757631
379,32,10911,5,0,0:0:0:0:
359,51,11019,2,0,L|351:138,1,68.2499968757631
445,273,11237,1,0,0:0:0:0:
465,254,11345,2,0,L|477:111,1,136.499993751526
307,206,11780,2,0,P|229:191|189:124,1,136.499993751526
257,0,12106,5,0,0:0:0:0:
277,19,12214,2,0,L|285:106,1,68.2499968757631
150,249,12432,1,0,0:0:0:0:
247,288,12541,1,0,0:0:0:0:
195,148,12649,6,0,L|55:195,1,136.499993751526
190,355,12975,1,0,0:0:0:0:
184,354,13084,2,0,P|259:376|324:335,1,136.499993751526
395,185,13410,5,0,0:0:0:0:
395,185,13519,2,0,L|408:251,1,68.2499968757631
311,104,13736,2,0,L|297:170,1,68.2499968757631
463,60,13953,1,0,0:0:0:0:
407,19,14062,1,0,0:0:0:0:
340,3,14171,1,0,0:0:0:0:
274,21,14279,1,0,0:0:0:0:
228,71,14388,1,0,0:0:0:0:
203,57,14714,5,0,0:0:0:0:
144,176,15040,1,0,0:0:0:0:
394,103,15257,1,0,0:0:0:0:
64,323,16127,6,0,L|138:301,1,52.5
240,242,16344,1,0,0:0:0:0:
240,242,16453,1,0,0:0:0:0:
240,242,16561,2,0,L|290:256,1,52.5
397,327,16778,5,0,0:0:0:0:
421,317,16887,1,0,0:0:0:0:
438,297,16996,1,0,0:0:0:0:
448,273,17104,1,0,0:0:0:0:
450,246,17213,2,0,L|440:182,1,52.5
178,372,17430,2,0,L|196:321,1,52.5
336,96,17648,5,0,0:0:0:0:
361,89,17756,1,0,0:0:0:0:
387,90,17865,2,0,P|412:103|422:124,1,52.5
240,242,18082,5,0,0:0:0:0:
215,249,18190,1,0,0:0:0:0:
189,248,18299,2,0,P|163:234|153:213,1,52.5
152,4,18517,5,0,0:0:0:0:
170,23,18626,1,0,0:0:0:0:
182,45,18734,1,0,0:0:0:0:
185,71,18843,1,0,0:0:0:0:
254,27,18952,2,0,L|309:27,1,52.5
109,110,19169,2,0,L|56:110,1,52.5
278,173,19386,2,0,L|330:173,1,52.5
70,320,19604,5,0,0:0:0:0:
82,310,19712,1,0,0:0:0:0:
96,304,19821,1,0,0:0:0:0:
111,302,19930,1,0,0:0:0:0:
147,322,20038,2,0,L|169:260,1,52.5
297,340,20256,5,0,0:0:0:0:
321,347,20364,1,0,0:0:0:0:
347,348,20473,1,0,0:0:0:0:
372,341,20582,1,0,0:0:0:0:
393,299,20690,2,0,L|409:348,1,52.5
243,111,20908,2,0,L|226:160,1,52.5
427,212,21125,5,0,0:0:0:0:
452,219,21233,1,0,0:0:0:0:
478,218,21342,2,0,P|503:204|513:183,1,52.5
426,7,21560,5,0,0:0:0:0:
401,0,21668,1,0,0:0:0:0:
375,1,21777,2,0,P|349:14|339:35,1,52.5
309,210,21994,5,0,0:0:0:0:
290,228,22103,1,0,0:0:0:0:
266,240,22212,1,0,0:0:0:0:
240,243,22320,1,0,0:0:0:0:
214,235,22429,2,0,P|190:217|174:173,1,52.5
241,22,22646,5,0,0:0:0:0:
161,99,22755,1,0,0:0:0:0:
368,114,22864,2,0,L|352:154,1,26.25
121,12,23081,5,0,0:0:0:0:
90,33,23190,1,0,0:0:0:0:
67,62,23298,1,0,0:0:0:0:
59,98,23407,1,0,0:0:0:0:
65,134,23516,2,0,L|118:195,1,52.5
309,210,23733,5,0,0:0:0:0:
306,247,23842,1,0,0:0:0:0:
292,281,23950,1,0,0:0:0:0:
265,306,24059,1,0,0:0:0:0:
231,319,24168,2,0,L|151:303,1,52.5
393,251,24385,2,0,L|472:266,1,52.5
152,199,24602,5,0,0:0:0:0:
177,170,24711,1,0,0:0:0:0:
212,160,24820,2,0,P|238:173|263:213,1,52.5
479,97,25037,5,0,0:0:0:0:
454,126,25146,1,0,0:0:0:0:
419,136,25255,2,0,P|392:122|367:82,1,52.5
211,38,25472,5,0,0:0:0:0:
194,70,25580,1,0,0:0:0:0:
177,102,25689,2,0,L|243:91,1,52.5
315,269,25906,2,0,L|249:258,1,52.5
70,167,26124,1,0,0:0:0:0:
53,199,26233,2,0,L|119:188,1,52.5
298,237,26450,1,0,0:0:0:0:
315,269,26559,2,0,L|249:258,1,52.5
7,299,26776,5,0,0:0:0:0:
41,312,26884,1,0,0:0:0:0:
77,306,26993,2,0,P|103:292|128:252,1,52.5
296,150,27210,5,0,0:0:0:0:
330,162,27319,1,0,0:0:0:0:
364,175,27428,2,0,L|441:199,1,52.5
202,285,27645,1,0,0:0:0:0:
168,272,27754,2,0,L|91:248,1,52.5
124,81,27971,2,0,L|201:105,1,52.5
414,190,28188,1,0,0:0:0:0:
364,175,28297,2,0,L|313:159,1,52.5
424,38,28514,5,0,0:0:0:0:
454,58,28623,1,0,0:0:0:0:
473,89,28732,1,0,0:0:0:0:
478,125,28840,1,0,0:0:0:0:
414,190,28949,5,0,0:0:0:0:
397,245,29058,1,0,0:0:0:0:
416,298,29166,2,0,L|342:278,1,73.5
166,324,30036,1,0,0:0:0:0:
71,70,36990,5,0,0:0:0:0:
86,99,37425,1,0,0:0:0:0:
212,27,37859,5,0,0:0:0:0:
257,121,38294,1,0,0:0:0:0:
203,211,38729,1,0,0:0:0:0:
98,216,39163,1,0,0:0:0:0:
203,211,39598,1,0,0:0:0:0:
261,298,40033,1,0,0:0:0:0:
413,62,40467,5,0,0:0:0:0:
407,93,40902,1,0,0:0:0:0:
429,195,41337,1,0,0:0:0:0:
407,297,41771,1,0,0:0:0:0:
429,315,42206,5,0,0:0:0:0:
329,237,42641,1,0,0:0:0:0:
203,241,43075,1,0,0:0:0:0:
119,335,43510,2,0,L|93:243,1,78.75
157,137,43945,6,0,L|275:157,1,105
407,93,44379,1,0,0:0:0:0:
77,100,44597,1,0,0:0:0:0:
77,100,44705,1,0,0:0:0:0:
77,100,44814,2,0,P|69:157|101:203,1,105
266,324,45249,1,0,0:0:0:0:
219,66,45466,1,0,0:0:0:0:
409,220,45683,6,0,L|291:240,1,105
157,137,46118,1,0,0:0:0:0:
468,159,46335,1,0,0:0:0:0:
468,159,46443,1,0,0:0:0:0:
468,159,46552,2,0,P|493:205|484:256,1,105
322,42,46987,1,0,0:0:0:0:
372,310,47204,1,0,0:0:0:0:
53,119,47422,6,0,L|171:139,1,105
121,268,47856,1,0,0:0:0:0:
271,162,48074,1,0,0:0:0:0:
271,162,48182,1,0,0:0:0:0:
271,162,48291,2,0,L|389:142,1,105
229,72,48726,1,0,0:0:0:0:
293,354,48943,1,0,0:0:0:0:
54,207,49160,1,0,0:0:0:0:
364,256,49378,5,0,0:0:0:0:
364,256,49486,1,0,0:0:0:0:
364,256,49595,2,0,L|349:323,1,52.5
166,296,49812,2,0,L|151:363,1,52.5
271,162,50030,2,0,L|389:142,1,105
469,218,50356,1,0,0:0:0:0:
469,218,50464,2,0,P|486:162|472:104,1,105
162,46,50899,6,0,P|154:97|171:146,1,105
364,256,51225,1,0,0:0:0:0:
364,256,51334,2,0,L|349:323,1,52.5
154,347,51551,2,0,L|166:296,1,52.5
296,73,51768,6,0,L|358:73,1,52.5
105,197,51986,2,0,L|52:197,1,52.5
154,347,52203,2,0,L|166:296,1,52.5
280,158,52420,2,0,L|292:209,1,52.5
443,318,52638,6,0,P|460:268|452:217,1,105
280,158,52964,1,0,0:0:0:0:
280,158,53072,2,0,L|292:209,1,52.5
256,255,53290,2,0,L|244:204,1,52.5
364,269,53507,6,0,L|352:320,1,52.5
154,347,53724,2,0,L|166:296,1,52.5
440,166,53942,2,0,L|452:217,1,52.5
115,190,54159,5,0,0:0:0:0:
115,190,54268,1,0,0:0:0:0:
115,190,54376,1,0,0:0:0:0:
186,129,54594,1,0,0:0:0:0:
78,86,54811,1,0,0:0:0:0:
257,37,55028,5,0,0:0:0:0:
284,52,55137,1,0,0:0:0:0:
303,76,55246,1,0,0:0:0:0:
309,111,55354,1,0,0:0:0:0:
286,146,55463,5,0,0:0:0:0:
336,130,55572,1,0,0:0:0:0:
385,145,55680,1,0,0:0:0:0:
418,185,55789,1,0,0:0:0:0:
418,237,55898,1,0,0:0:0:0:
385,278,56006,1,0,0:0:0:0:
308,254,56115,6,0,L|194:293,1,120.750002303124
51,147,56441,1,0,0:0:0:0:
51,147,56550,2,0,L|29:230,1,60.3750011515618
222,197,56767,5,0,0:0:0:0:
35,205,56876,1,0,0:0:0:0:
109,282,56984,2,0,L|131:365,1,60.3750011515618
141,149,57202,5,0,0:0:0:0:
222,197,57310,1,0,0:0:0:0:
216,106,57419,2,0,L|200:47,1,60.3750011515618
288,64,57636,5,0,0:0:0:0:
360,229,57745,1,0,0:0:0:0:
445,140,57854,2,0,P|484:227|452:314,1,181.125003454685
210,108,58288,2,0,L|406:63,1,181.125003454685
242,286,58723,2,0,L|46:241,1,181.125003454685
56,52,59158,2,0,P|38:83|36:120,1,60.3750011515618
141,178,59375,2,0,P|135:148|119:123,1,60.3750011515618
6,333,59592,5,0,0:0:0:0:
65,245,59701,1,0,0:0:0:0:
136,298,59810,2,0,L|200:313,1,60.3750011515618
358,185,60027,2,0,L|294:200,1,60.3750011515618
450,346,60244,1,0,0:0:0:0:
305,293,60353,1,0,0:0:0:0:
450,346,60461,2,0,L|436:273,1,60.3750011515618
310,94,60679,5,0,0:0:0:0:
455,125,60787,1,0,0:0:0:0:
305,293,60896,2,0,L|327:173,1,120.750002303124
201,42,61222,1,0,0:0:0:0:
201,42,61331,2,0,P|160:49|126:89,1,78.7500030040742
51,316,61657,1,0,0:0:0:0:
69,335,61765,6,0,L|140:328,1,60.3750011515618
270,256,61983,2,0,L|199:249,1,60.3750011515618
0,213,62200,2,0,L|71:220,1,60.3750011515618
337,355,62417,2,0,L|276:360,1,60.3750011515618
200,123,62635,5,0,0:0:0:0:
241,119,62743,1,0,0:0:0:0:
282,128,62852,1,0,0:0:0:0:
314,155,62961,1,0,0:0:0:0:
327,194,63069,2,0,P|326:262|282:307,1,120.750002303124
102,131,63395,5,0,0:0:0:0:
102,131,63504,2,0,L|119:62,1,60.3750011515618
239,204,63721,1,0,0:0:0:0:
134,249,63830,1,0,0:0:0:0:
293,300,63939,2,0,L|307:358,1,60.3750011515618
239,204,64156,2,0,L|225:146,1,60.3750011515618
427,63,64373,5,0,0:0:0:0:
484,191,64482,1,0,0:0:0:0:
305,108,64591,1,0,0:0:0:0:
427,63,64699,1,0,0:0:0:0:
305,108,64808,6,0,P|212:93|130:172,1,181.125003454685
363,328,65243,2,0,L|414:116,1,181.125003454685
42,96,65677,2,0,L|84:272,1,181.125003454685
263,223,66112,2,0,P|249:187|213:156,1,60.3750011515618
177,260,66329,2,0,P|190:295|226:326,1,60.3750011515618
386,236,66547,6,0,L|461:256,1,60.3750011515618
317,306,66764,1,0,0:0:0:0:
395,145,66873,1,0,0:0:0:0:
465,350,66981,2,0,L|390:370,1,60.3750011515618
314,127,67199,1,0,0:0:0:0:
487,120,67307,6,0,L|508:199,1,60.3750011515618
314,127,67525,1,0,0:0:0:0:
314,127,67633,2,0,L|329:68,1,60.3750011515618
156,123,67851,2,0,L|171:181,1,60.3750011515618
0,129,68068,2,0,L|15:70,1,60.3750011515618
60,270,68285,1,0,0:0:0:0:
60,270,68503,5,0,0:0:0:0:
60,270,68611,1,0,0:0:0:0:
60,270,68720,2,0,L|75:329,1,60.3750011515618
237,245,68937,5,0,0:0:0:0:
237,245,69045,1,0,0:0:0:0:
237,245,69154,2,0,L|252:186,1,60.3750011515618
164,174,69372,2,0,L|105:191,1,60.3750011515618
286,325,69589,2,0,L|344:307,1,60.3750011515618
60,270,69807,2,0,L|75:329,1,60.3750011515618
408,238,70024,6,0,P|419:168|388:111,1,120.750002303124
191,82,70350,1,0,0:0:0:0:
259,152,70459,2,0,L|245:216,1,60.3750011515618
75,329,70676,2,0,L|60:270,1,60.3750011515618
191,82,70893,5,0,0:0:0:0:
3,153,71002,1,0,0:0:0:0:
162,173,71111,1,0,0:0:0:0:
121,4,71219,1,0,0:0:0:0:
73,211,71328,2,0,L|59:275,1,60.3750011515618
224,332,71545,2,0,P|197:310|146:302,1,60.3750011515618
321,251,71763,6,0,P|406:239|483:315,1,181.125003454685
216,223,72197,2,0,L|258:14,1,181.125003454685
224,332,72632,2,0,P|139:344|62:268,1,181.125003454685
133,105,73067,2,0,P|150:140|145:195,1,60.3750011515618
69,286,73284,6,0,P|52:251|57:196,1,60.3750011515618
164,256,73501,2,0,P|197:252|222:237,1,60.3750011515618
237,153,73719,2,0,P|270:157|295:172,1,60.3750011515618
323,318,73936,2,0,P|319:284|305:259,1,60.3750011515618
381,203,74153,5,0,0:0:0:0:
472,281,74262,1,0,0:0:0:0:
381,203,74370,2,0,L|372:125,1,60.3750011515618
469,40,74588,5,0,0:0:0:0:
328,173,74696,1,0,0:0:0:0:
205,72,74805,2,0,L|281:78,1,60.3750011515618
107,188,75022,2,0,L|31:194,1,60.3750011515618
193,342,75240,6,0,P|234:328|255:294,1,78.7500030040742
123,152,75566,5,0,0:0:0:0:
107,188,75674,2,0,L|31:194,1,60.3750011515618
205,72,75892,2,0,L|281:78,1,60.3750011515618
323,318,76109,6,0,P|319:284|305:259,1,60.3750011515618
237,153,76326,2,0,P|270:157|295:172,1,60.3750011515618
164,256,76544,2,0,P|197:252|222:237,1,60.3750011515618
69,286,76761,2,0,P|52:251|57:196,1,60.3750011515618
350,108,76978,6,0,P|379:171|366:253,1,120.750002303124
152,140,77304,1,0,0:0:0:0:
205,72,77413,2,0,L|187:5,1,60.3750011515618
71,167,77630,2,0,L|55:225,1,60.3750011515618
133,349,77848,5,0,0:0:0:0:
255,239,77956,1,0,0:0:0:0:
152,140,78065,1,0,0:0:0:0:
233,337,78174,1,0,0:0:0:0:
288,145,78282,2,0,L|303:86,1,60.3750011515618
403,192,78500,5,0,0:0:0:0:
362,28,78608,1,0,0:0:0:0:
403,192,78717,2,0,L|454:378,1,181.125003454685
105,215,79152,2,0,L|152:40,1,181.125003454685
394,296,79586,2,0,P|335:364|234:369,1,181.125003454685
224,125,80021,2,0,P|280:70|321:138,1,181.125003454685
59,283,80456,6,0,L|-4:294,2,52.5
138,324,80782,2,0,L|86:314,2,52.5
217,283,81108,2,0,L|165:292,2,52.5
296,324,81434,2,0,L|244:314,2,52.5
375,283,81760,2,0,L|323:292,2,52.5
458,221,82086,5,0,0:0:0:0:
477,88,82194,1,0,0:0:0:0:
353,139,82303,1,0,0:0:0:0:
505,160,82412,5,0,0:0:0:0:
400,77,82520,1,0,0:0:0:0:
382,210,82629,1,0,0:0:0:0:
477,88,82738,5,0,0:0:0:0:
353,139,82846,1,0,0:0:0:0:
458,221,82955,1,0,0:0:0:0:
438,259,83064,2,0,L|506:246,1,63
46,47,83933,1,0,0:0:0:0:
305,237,90018,6,0,P|261:203|254:141,1,105
152,80,90344,1,0,0:0:0:0:
15,193,90453,5,0,0:0:0:0:
15,239,90561,1,0,0:0:0:0:
33,282,90670,1,0,0:0:0:0:
68,313,90779,1,0,0:0:0:0:
114,320,90887,2,0,L|232:308,1,105
330,158,91213,1,0,0:0:0:0:
330,158,91322,2,0,L|381:211,1,52.5
435,342,91539,2,0,L|466:289,1,52.5
423,76,91757,6,0,P|371:57|309:67,1,105
218,200,92083,1,0,0:0:0:0:
218,200,92191,2,0,L|236:132,1,52.5
134,35,92409,2,0,L|120:85,1,52.5
218,309,92626,5,0,0:0:0:0:
218,309,92735,2,0,L|296:281,1,52.5
83,169,92952,1,0,0:0:0:0:
83,169,93061,2,0,L|33:186,1,52.5
218,200,93278,2,0,L|236:132,1,52.5
423,76,93495,6,0,P|458:126|454:187,1,105
218,200,93821,1,0,0:0:0:0:
218,200,93930,2,0,L|236:132,1,52.5
416,284,94147,1,0,0:0:0:0:
445,320,94256,1,0,0:0:0:0:
475,356,94365,6,0,L|357:338,1,105
130,254,94691,1,0,0:0:0:0:
130,254,94799,2,0,L|110:330,1,52.5
308,236,95017,2,0,L|294:286,1,52.5
53,214,95234,6,0,P|99:173|166:177,1,105
267,268,95560,1,0,0:0:0:0:
294,286,95669,2,0,L|308:236,1,52.5
53,214,95886,6,0,L|37:284,1,52.5
172,350,96212,2,0,L|160:298,2,52.5
282,234,96647,2,0,L|298:304,2,52.5
443,316,97081,2,0,L|431:367,6,52.5
319,142,97842,5,0,0:0:0:0:
251,154,97951,1,0,0:0:0:0:
211,209,98059,1,0,0:0:0:0:
218,277,98168,1,0,0:0:0:0:
445,157,98385,5,0,0:0:0:0:
130,231,98603,5,0,0:0:0:0:
123,299,98712,1,0,0:0:0:0:
163,354,98820,1,0,0:0:0:0:
231,366,98929,1,0,0:0:0:0:
291,334,99037,1,0,0:0:0:0:
148,148,99255,6,0,L|83:142,1,52.5
284,54,99472,5,0,0:0:0:0:
344,22,99580,1,0,0:0:0:0:
412,34,99689,1,0,0:0:0:0:
452,89,99797,1,0,0:0:0:0:
445,157,99906,1,0,0:0:0:0:
218,277,100124,5,0,0:0:0:0:
68,93,100341,5,0,0:0:0:0:
41,155,100450,1,0,0:0:0:0:
69,217,100559,1,0,0:0:0:0:
41,279,100667,1,0,0:0:0:0:
69,341,100776,1,0,0:0:0:0:
69,341,100885,1,0,0:0:0:0:
56,360,101102,5,0,0:0:0:0:
269,206,101319,5,0,0:0:0:0:
300,177,101428,1,0,0:0:0:0:
342,175,101537,1,0,0:0:0:0:
380,192,101645,1,0,0:0:0:0:
298,362,101863,5,0,0:0:0:0:
182,142,102080,5,0,0:0:0:0:
171,209,102189,1,0,0:0:0:0:
200,270,102297,1,0,0:0:0:0:
257,306,102406,1,0,0:0:0:0:
325,297,102515,1,0,0:0:0:0:
451,135,102732,6,0,L|469:212,1,52.5
228,28,102949,5,0,0:0:0:0:
155,39,103058,1,0,0:0:0:0:
95,82,103167,1,0,0:0:0:0:
72,151,103275,1,0,0:0:0:0:
82,223,103384,1,0,0:0:0:0:
269,206,103601,6,0,L|280:154,1,52.5
426,272,103818,5,0,0:0:0:0:
399,335,103927,1,0,0:0:0:0:
339,368,104036,1,0,0:0:0:0:
271,361,104144,1,0,0:0:0:0:
218,317,104253,1,0,0:0:0:0:
218,317,104362,1,0,0:0:0:0:
186,332,104579,5,0,0:0:0:0:
41,279,104796,5,0,0:0:0:0:
69,217,104904,1,0,0:0:0:0:
41,155,105013,1,0,0:0:0:0:
68,93,105122,1,0,0:0:0:0:
99,348,105340,5,0,0:0:0:0:
304,78,105557,5,0,0:0:0:0:
365,106,105665,1,0,0:0:0:0:
400,164,105774,1,0,0:0:0:0:
392,232,105883,1,0,0:0:0:0:
343,279,105991,1,0,0:0:0:0:
126,303,106209,2,0,L|82:374,1,52.5
317,185,106426,5,0,0:0:0:0:
261,144,106535,1,0,0:0:0:0:
192,137,106644,1,0,0:0:0:0:
134,172,106752,1,0,0:0:0:0:
107,234,106861,1,0,0:0:0:0:
247,340,107078,5,0,0:0:0:0:
474,86,107296,5,0,0:0:0:0:
501,148,107405,1,0,0:0:0:0:
473,210,107514,1,0,0:0:0:0:
501,272,107622,1,0,0:0:0:0:
473,334,107730,1,0,0:0:0:0:
473,334,107839,1,0,0:0:0:0:
483,353,108056,5,0,0:0:0:0:
214,46,108274,5,0,0:0:0:0:
276,50,108382,1,0,0:0:0:0:
330,82,108491,1,0,0:0:0:0:
352,141,108600,1,0,0:0:0:0:
219,232,108817,5,0,0:0:0:0:
126,45,109034,5,0,0:0:0:0:
70,75,109143,1,0,0:0:0:0:
39,130,109252,1,0,0:0:0:0:
38,192,109360,1,0,0:0:0:0:
67,247,109469,1,0,0:0:0:0:
276,293,109686,2,0,L|266:345,1,52.5
139,153,109904,5,0,0:0:0:0:
190,101,110012,1,0,0:0:0:0:
262,86,110121,1,0,0:0:0:0:
333,105,110230,1,0,0:0:0:0:
385,155,110338,1,0,0:0:0:0:
160,314,110556,5,0,0:0:0:0:
144,335,110664,2,0,L|79:342,1,52.5
426,69,110882,1,0,0:0:0:0:
412,105,111099,1,0,0:0:0:0:
438,189,111316,1,0,0:0:0:0:
412,273,111534,1,0,0:0:0:0:
207,377,111751,5,0,0:0:0:0:
181,293,111968,1,0,0:0:0:0:
207,209,112186,1,0,0:0:0:0:
68,133,112403,1,0,0:0:0:0:
323,41,112620,1,0,0:0:0:0:
178,74,123054,6,0,L|155:206,1,125.999996154785
53,277,123706,1,0,0:0:0:0:
304,235,123924,1,0,0:0:0:0:
92,126,124141,1,0,0:0:0:0:
216,350,124359,5,0,0:0:0:0:
178,74,124576,1,0,0:0:0:0:
53,277,124793,1,0,0:0:0:0:
304,235,125011,1,0,0:0:0:0:
29,190,125228,5,0,0:0:0:0:
216,350,125446,1,0,0:0:0:0:
332,82,125663,1,0,0:0:0:0:
53,277,125880,1,0,0:0:0:0:
375,164,126098,5,0,0:0:0:0:
486,197,126206,1,0,0:0:0:0:
370,180,126315,5,0,0:0:0:0:
481,213,126423,1,0,0:0:0:0:
365,196,126533,5,0,0:0:0:0:
315,180,126641,1,0,0:0:0:0:
262,186,126750,1,0,0:0:0:0:
228,226,126859,1,0,0:0:0:0:
221,277,126967,2,0,L|156:261,1,52.5
36,131,127185,2,0,L|101:147,1,52.5
321,287,127402,5,0,0:0:0:0:
361,321,127511,1,0,0:0:0:0:
411,336,127620,1,0,0:0:0:0:
462,329,127728,1,0,0:0:0:0:
501,293,127837,2,0,P|516:263|513:220,1,52.5
412,52,128054,2,0,P|397:82|400:125,1,52.5
171,161,128272,5,0,0:0:0:0:
119,168,128380,1,0,0:0:0:0:
75,197,128489,1,0,0:0:0:0:
61,247,128598,1,0,0:0:0:0:
70,298,128706,2,0,P|90:323|121:336,1,52.5
279,187,128924,2,0,L|221:236,1,52.5
78,61,129141,5,0,0:0:0:0:
125,39,129250,1,0,0:0:0:0:
177,39,129359,1,0,0:0:0:0:
226,55,129467,1,0,0:0:0:0:
256,98,129576,2,0,P|257:131|239:164,1,52.5
187,334,129793,2,0,P|179:309|181:283,1,52.5
349,194,130011,5,0,0:0:0:0:
401,200,130120,1,0,0:0:0:0:
450,182,130228,1,0,0:0:0:0:
478,137,130337,1,0,0:0:0:0:
467,85,130446,2,0,L|436:29,1,52.5
251,267,130663,2,0,L|282:211,1,52.5
279,27,130880,5,0,0:0:0:0:
226,24,130989,1,0,0:0:0:0:
177,43,131098,1,0,0:0:0:0:
155,90,131206,1,0,0:0:0:0:
153,142,131315,2,0,P|164:172|207:196,1,52.5
372,320,131533,2,0,P|361:290|318:266,1,52.5
40,239,131750,5,0,0:0:0:0:
66,284,131859,1,0,0:0:0:0:
110,311,131967,1,0,0:0:0:0:
162,312,132076,1,0,0:0:0:0:
207,284,132185,1,0,0:0:0:0:
228,236,132293,1,0,0:0:0:0:
298,154,132402,5,0,0:0:0:0:
345,131,132511,1,0,0:0:0:0:
397,137,132620,1,0,0:0:0:0:
439,166,132728,1,0,0:0:0:0:
463,212,132837,1,0,0:0:0:0:
451,263,132946,1,0,0:0:0:0:
208,150,133054,5,0,0:0:0:0:
216,96,133163,1,0,0:0:0:0:
245,52,133272,1,0,0:0:0:0:
294,34,133380,1,0,0:0:0:0:
112,53,133489,5,0,0:0:0:0:
69,83,133598,1,0,0:0:0:0:
52,132,133706,1,0,0:0:0:0:
59,184,133815,1,0,0:0:0:0:
90,225,133924,2,0,P|117:238|160:241,1,52.5
375,248,134141,2,0,P|347:234|305:232,1,52.5
146,328,134359,5,0,0:0:0:0:
191,352,134467,1,0,0:0:0:0:
243,352,134576,1,0,0:0:0:0:
286,322,134685,1,0,0:0:0:0:
307,274,134793,2,0,L|323:344,1,52.5
219,98,135011,2,0,L|203:168,1,52.5
364,39,135228,5,0,0:0:0:0:
415,51,135337,1,0,0:0:0:0:
456,83,135446,1,0,0:0:0:0:
478,130,135554,1,0,0:0:0:0:
469,182,135663,2,0,L|439:256,1,52.5
250,229,135880,2,0,L|269:180,1,52.5
33,236,136098,5,0,0:0:0:0:
35,288,136206,1,0,0:0:0:0:
63,332,136315,1,0,0:0:0:0:
114,345,136424,1,0,0:0:0:0:
162,324,136533,2,0,P|181:298|189:255,1,52.5
33,109,136750,2,0,P|14:135|6:178,1,52.5
339,235,136967,6,0,L|398:235,3,52.5
294,214,137402,2,0,L|241:214,3,52.5
339,193,137837,1,0,0:0:0:0:
256,62,138054,1,0,0:0:0:0:
156,134,138272,5,0,0:0:0:0:
146,160,138344,1,0,0:0:0:0:
136,186,138417,1,0,0:0:0:0:
127,212,138489,1,0,0:0:0:0:
118,238,138562,1,0,0:0:0:0:
109,264,138634,1,0,0:0:0:0:
104,280,138706,6,0,L|175:263,1,60.3750011515618
252,156,138924,1,0,0:0:0:0:
346,278,139033,1,0,0:0:0:0:
407,167,139141,2,0,L|348:181,1,60.3750011515618
256,306,139359,5,0,0:0:0:0:
156,134,139467,1,0,0:0:0:0:
77,317,139576,2,0,L|148:300,1,60.3750011515618
291,234,139793,2,0,L|220:217,1,60.3750011515618
67,73,140011,5,0,0:0:0:0:
26,236,140120,1,0,0:0:0:0:
156,134,140228,1,0,0:0:0:0:
67,73,140337,1,0,0:0:0:0:
156,134,140446,6,0,P|232:89|321:121,1,181.125003454685
373,335,140880,2,0,L|389:126,1,181.125003454685
67,73,141315,2,0,L|80:253,1,181.125003454685
275,218,141750,2,0,P|260:184|226:162,1,60.3750011515618
181,252,141967,2,0,P|196:286|230:308,1,60.3750011515618
373,335,142185,6,0,L|443:331,1,60.3750011515618
386,154,142402,1,0,0:0:0:0:
275,218,142511,1,0,0:0:0:0:
386,154,142620,2,0,P|422:161|449:182,1,60.3750011515618
268,320,142837,2,0,P|232:313|205:292,1,60.3750011515618
133,110,143054,5,0,0:0:0:0:
275,218,143163,1,0,0:0:0:0:
133,110,143272,2,0,L|54:126,1,60.3750011515618
268,320,143489,2,0,L|347:336,1,60.3750011515618
445,142,143706,2,0,L|366:158,1,60.3750011515618
58,249,143924,6,0,P|87:281|146:283,1,78.7500030040742
361,134,144250,1,0,0:0:0:0:
385,153,144359,2,0,L|445:142,1,60.3750011515618
268,320,144576,2,0,L|347:336,1,60.3750011515618
133,110,144793,2,0,L|54:126,1,60.3750011515618
386,154,145011,6,0,P|422:161|449:182,1,60.3750011515618
268,320,145228,2,0,P|232:313|205:292,1,60.3750011515618
373,335,145446,2,0,L|443:331,1,60.3750011515618
215,54,145663,6,0,L|209:129,1,60.3750011515618
292,168,145880,1,0,0:0:0:0:
145,199,145989,1,0,0:0:0:0:
268,320,146098,2,0,L|274:395,1,60.3750011515618
215,54,146315,2,0,L|209:129,1,60.3750011515618
342,248,146533,5,0,0:0:0:0:
432,139,146641,1,0,0:0:0:0:
292,168,146750,1,0,0:0:0:0:
436,233,146859,1,0,0:0:0:0:
350,104,146967,2,0,P|320:88|287:85,1,60.3750011515618
100,269,147185,2,0,P|130:285|163:288,1,60.3750011515618
53,157,147402,6,0,L|71:370,1,181.125003454685
215,54,147837,2,0,L|199:234,1,181.125003454685
459,227,148272,2,0,L|441:14,1,181.125003454685
297,330,148707,2,0,L|312:149,1,181.125003454685
119,89,149141,5,0,0:0:0:0:
228,177,149250,1,0,0:0:0:0:
119,89,149359,2,0,L|106:164,1,60.3750011515618
221,74,149576,5,0,0:0:0:0:
149,222,149685,2,0,L|194:271,1,60.3750011515618
34,116,149902,5,0,0:0:0:0:
309,156,150011,2,0,L|295:76,1,60.3750011515618
66,220,150228,2,0,L|55:279,1,60.3750011515618
244,378,150446,2,0,L|233:318,1,60.3750011515618
392,184,150663,1,0,0:0:0:0:
392,184,150772,1,0,0:0:0:0:
392,184,150880,1,0,0:0:0:0:
392,184,151098,6,0,L|403:100,1,60.3750011515618
241,258,151315,2,0,L|230:342,1,60.3750011515618
392,331,151533,2,0,L|475:316,1,60.3750011515618
190,162,151750,2,0,L|106:176,1,60.3750011515618
271,384,151967,2,0,L|332:325,1,60.3750011515618
319,91,152185,2,0,L|257:149,1,60.3750011515618
466,238,152402,2,0,L|479:156,1,60.3750011515618
61,118,152620,6,0,P|44:188|69:239,1,120.750002303124
160,249,152946,1,0,0:0:0:0:
127,340,153054,2,0,L|192:326,1,60.3750011515618
196,172,153272,5,0,0:0:0:0:
341,331,153380,1,0,0:0:0:0:
127,340,153489,2,0,L|67:352,1,60.3750011515618
261,209,153706,2,0,L|320:196,1,60.3750011515618
412,254,153924,5,0,0:0:0:0:
267,83,154033,1,0,0:0:0:0:
261,209,154141,1,0,0:0:0:0:
402,118,154250,1,0,0:0:0:0:
267,83,154359,6,0,P|181:79|127:160,1,181.125003454685
332,345,154793,2,0,P|332:258|250:207,1,181.125003454685
30,237,155228,2,0,P|111:264|185:201,1,181.125003454685
277,23,155663,2,0,L|263:103,1,60.3750011515618
338,182,155880,2,0,L|348:122,1,60.3750011515618
448,64,156098,6,0,P|480:86|497:125,1,60.3750011515618
404,244,156315,1,0,0:0:0:0:
509,184,156424,1,0,0:0:0:0:
262,161,156533,2,0,P|230:183|213:222,1,60.3750011515618
436,317,156750,2,0,P|468:295|485:256,1,60.3750011515618
315,297,156967,5,0,0:0:0:0:
404,244,157076,1,0,0:0:0:0:
262,161,157185,1,0,0:0:0:0:
404,244,157293,1,0,0:0:0:0:
315,297,157402,2,0,P|261:326|188:308,1,120.750002303124
112,121,157728,5,0,0:0:0:0:
112,121,157837,2,0,L|100:231,1,78.7500030040742
210,342,158163,5,0,0:0:0:0:
204,317,158272,2,0,P|173:306|131:311,1,60.3750011515618
277,231,158489,2,0,P|308:220|350:225,1,60.3750011515618
112,121,158706,2,0,L|43:109,1,60.3750011515618
372,64,158924,2,0,L|441:52,1,60.3750011515618
494,266,159141,5,0,0:0:0:0:
475,242,159250,1,0,0:0:0:0:
456,218,159359,1,0,0:0:0:0:
437,194,159467,1,0,0:0:0:0:
418,169,159576,6,0,L|437:339,1,120.750002303124
279,135,159902,1,0,0:0:0:0:
279,135,160011,2,0,L|268:239,1,60.3750011515618
425,349,160228,2,0,L|436:245,1,60.3750011515618
183,233,160446,5,0,0:0:0:0:
328,281,160554,1,0,0:0:0:0:
202,325,160663,1,0,0:0:0:0:
272,195,160772,1,0,0:0:0:0:
202,325,160880,2,0,P|144:350|71:321,1,120.750002303124
185,92,161206,5,0,0:0:0:0:
185,92,161315,2,0,L|268:278,1,181.125003454685
106,22,161750,2,0,L|23:208,1,181.125003454685
411,22,162185,2,0,L|494:208,1,181.125003454685
121,244,162620,2,0,P|173:327|298:315,1,181.125003454685
397,293,163054,6,0,L|435:268,3,31.4999990386963
247,256,163598,2,0,L|200:225,3,52.5
401,145,164141,2,0,L|450:111,3,60.3750011515618
164,41,164685,5,0,0:0:0:0:
304,92,164793,1,0,0:0:0:0:
174,127,164902,1,0,0:0:0:0:
314,178,165011,1,0,0:0:0:0:
314,178,165228,5,0,0:0:0:0:
387,50,165337,1,0,0:0:0:0:
422,229,165446,1,0,0:0:0:0:
304,92,165554,1,0,0:0:0:0:
304,92,165772,5,0,0:0:0:0:
210,247,165880,1,0,0:0:0:0:
392,133,165989,1,0,0:0:0:0:
174,127,166098,1,0,0:0:0:0:
357,286,166533,5,0,0:0:0:0:
412,69,180011,6,0,L|397:173,1,78.7500030040742
438,232,180337,1,0,0:0:0:0:
457,251,180446,2,0,P|379:237|309:306,1,157.500006008148
214,348,180772,1,0,0:0:0:0:
214,348,180880,2,0,L|231:259,1,78.7500030040742
199,191,181098,6,0,B|161:214|161:214|145:278,2,78.7500030040742
281,198,181424,1,0,0:0:0:0:
281,198,181533,2,0,B|319:175|319:175|335:111,1,78.7500030040742
406,161,181750,2,0,P|385:85|278:77,1,157.500006008148
141,129,182076,2,0,L|152:78,1,39.3750015020371
118,136,182185,2,0,B|80:192|49:200|49:200|70:212|87:282,1,157.500006008148
231,267,182511,5,0,0:0:0:0:
231,267,182619,2,0,B|269:290|269:290|285:354,2,78.7500030040742
371,236,182946,1,0,0:0:0:0:
371,236,183054,2,0,P|352:197|310:178,1,78.7500030040742
453,259,183272,2,0,P|434:298|392:317,1,78.7500030040742
304,99,183489,2,0,B|395:91|444:180|444:180|469:118,1,236.250009012223
224,46,183924,6,0,B|214:171|214:171|254:149,1,157.500006008148
315,247,184250,2,0,B|338:185|338:185|238:248,1,157.500006008148
169,308,184576,1,0,0:0:0:0:
262,324,184685,1,0,0:0:0:0:
354,341,184793,1,0,0:0:0:0:
169,308,185011,2,0,L|87:290,1,78.7500030040742
26,103,185228,6,0,P|109:98|161:185,1,157.500006008148
260,233,185554,2,0,L|270:177,1,39.3750015020371
281,256,185663,2,0,B|311:211|367:231|367:231|350:159,1,157.500006008148
407,75,185989,2,0,B|431:163|431:163|464:140|507:155,1,157.500006008148
499,346,186315,1,0,0:0:0:0:
499,346,186424,1,0,0:0:0:0:
499,346,186533,2,0,P|477:230|444:257,1,236.250009012223
285,115,186967,5,0,0:0:0:0:
155,148,187185,2,0,L|174:43,1,78.7500030040742
59,190,187402,2,0,P|144:158|206:215,1,157.500006008148
192,270,187728,2,0,B|226:271|226:271|258:240,2,78.7500030040742
115,239,188054,2,0,B|100:281|100:281|115:311,1,78.7500030040742
301,358,188272,1,0,0:0:0:0:
116,313,188489,1,0,0:0:0:0:
344,174,188706,6,0,P|391:239|349:303,1,157.500006008148
155,148,189033,2,0,L|161:97,1,39.3750015020371
118,174,189141,2,0,B|88:218|88:218|121:275|121:275|110:348,1,157.500006008148
243,108,189467,2,0,P|230:62|178:27,1,78.7500030040742
45,109,189685,2,0,P|19:138|11:176,2,78.7500030040742
188,216,190011,6,0,B|222:243|222:243|269:230,1,78.7500030040742
391,80,190228,2,0,B|356:70|356:70|322:97,1,78.7500030040742
447,242,190446,2,0,B|373:158|373:158|315:204,1,157.500006008148
353,314,190772,6,0,L|348:353,1,39.3750015020371
322,339,190880,2,0,P|245:363|193:314,1,157.500006008148
121,272,191206,2,0,P|79:287|53:330,1,78.7500030040742
187,216,191424,2,0,L|108:164,2,78.7500030040742
225,74,191750,6,0,L|256:163,1,78.7500030040742
318,220,191967,2,0,L|343:145,1,78.7500030040742
413,41,192185,2,0,P|475:90|468:175,1,157.500006008148
394,297,192511,6,0,L|400:244,1,39.3750015020371
420,317,192619,2,0,B|458:342|458:342|393:333|337:370,1,157.500006008148
200,319,192946,1,0,0:0:0:0:
177,336,193054,2,0,P|138:323|110:291,1,78.7500030040742
136,84,193272,5,0,0:0:0:0:
149,76,193380,1,0,0:0:0:0:
164,72,193489,1,0,0:0:0:0:
179,71,193598,1,0,0:0:0:0:
240,171,193706,5,0,0:0:0:0:
209,167,193815,1,0,0:0:0:0:
182,152,193924,1,0,0:0:0:0:
219,129,194033,5,0,0:0:0:0:
94,163,194141,1,0,0:0:0:0:
319,174,194250,1,0,0:0:0:0:
269,260,194359,6,0,P|318:326|435:300,1,157.500006008148
512,254,194685,2,0,B|486:255|486:255|451:250|451:250|421:254,2,78.7500030040742
381,42,195011,1,0,0:0:0:0:
381,42,195228,2,0,P|427:106|383:191,1,157.500006008148
222,268,195663,6,0,B|252:255|268:222|268:222|306:256|360:240,1,157.500006008148
187,191,195989,1,0,0:0:0:0:
187,191,196098,2,0,P|150:222|140:276,2,78.7500030040742
324,162,196424,5,0,0:0:0:0:
324,162,196533,2,0,P|260:63|151:100,1,236.250009012223
60,294,196967,2,0,L|78:48,1,236.250009012223
251,378,197402,2,0,L|233:132,1,236.250009012223
261,194,197837,6,0,L|359:206,2,78.7500030040742
222,261,198163,1,0,0:0:0:0:
222,261,198272,2,0,L|124:273,1,78.7500030040742
347,338,198489,1,0,0:0:0:0:
347,338,198598,1,0,0:0:0:0:
347,338,198706,2,0,P|416:300|421:224,1,157.500006008148
325,62,199033,5,0,0:0:0:0:
341,85,199141,2,0,B|386:61|386:61|421:103|421:103|481:77,1,157.500006008148
261,113,199467,1,0,0:0:0:0:
233,127,199576,2,0,L|156:167,2,78.7500030040742
65,52,199902,1,0,0:0:0:0:
65,52,200011,2,0,P|29:126|81:197,1,157.500006008148
263,338,200446,6,0,B|304:289|304:289|456:329,1,157.500006008148
212,270,200772,2,0,B|171:319|171:319|19:279,1,157.500006008148
104,120,201098,1,0,0:0:0:0:
146,208,201206,5,0,0:0:0:0:
146,208,201261,1,0,0:0:0:0:
146,208,201315,2,0,L|205:124,1,78.7500030040742
310,51,201533,1,0,0:0:0:0:
331,77,201641,2,0,P|407:70|436:-4,2,157.500006008148
65,52,202185,1,0,0:0:0:0:
305,235,202402,6,0,L|286:159,1,78.7500030040742
387,193,202619,2,0,L|406:269,1,78.7500030040742
254,362,202837,2,0,L|234:285,1,78.7500030040742
476,71,203054,6,0,P|412:112|336:74,1,157.500006008148
231,93,203380,1,0,0:0:0:0:
202,74,203489,2,0,P|129:96|107:168,1,157.500006008148
38,279,203924,6,0,L|137:241,1,78.7500030040742
234,285,204141,2,0,L|160:313,1,78.7500030040742
203,186,204359,2,0,L|302:148,2,78.7500030040742
317,84,204685,5,0,0:0:0:0:
317,84,204793,2,0,P|369:140|320:230,1,157.500006008148
234,285,205119,1,0,0:0:0:0:
411,287,205228,2,0,L|394:364,2,78.7500030040742
485,220,205554,2,0,P|504:147|453:92,1,157.500006008148
211,72,205880,2,0,B|256:113|256:113|371:101,1,157.500006008148
53,45,206315,6,0,L|34:158,1,78.7500030040742
144,204,206533,2,0,L|130:126,1,78.7500030040742
260,111,206750,2,0,L|246:188,1,78.7500030040742
29,303,206967,2,0,L|42:225,1,78.7500030040742
217,349,207185,2,0,L|203:271,1,78.7500030040742
345,163,207402,2,0,L|358:240,3,78.7500030040742
435,40,207837,5,0,0:0:0:0:
345,163,207946,1,0,0:0:0:0:
490,116,208054,1,0,0:0:0:0:
345,69,208163,1,0,0:0:0:0:
435,193,208272,6,0,P|475:249|462:306,1,125.832226258385
291,309,210011,2,0,P|340:261|399:266,1,125.832226258385
123,232,211750,2,0,B|86:277|86:277|137:331|216:268|216:268|270:266|294:316,1,293.608527936232
65,52,215228,2,0,L|47:178,1,125.832226258385
288,199,216750,1,0,0:0:0:0:
288,199,216967,2,0,L|270:74,1,125.832226258385
386,220,218706,6,0,L|380:178,1,26.25
61,178,220446,5,0,0:0:0:0:
84,280,220554,1,0,0:0:0:0:
144,206,220663,5,0,0:0:0:0:
168,308,220771,1,0,0:0:0:0:
227,234,220881,5,0,0:0:0:0:
251,337,220989,1,0,0:0:0:0:
310,262,221098,5,0,0:0:0:0:
334,365,221206,1,0,0:0:0:0:
383,204,221315,5,0,0:0:0:0:
378,190,221388,1,0,0:0:0:0:
374,176,221460,1,0,0:0:0:0:
369,162,221533,1,0,0:0:0:0:
365,148,221605,1,0,0:0:0:0:
361,134,221677,1,0,0:0:0:0:
356,118,221750,2,0,L|340:62,1,35
72,51,222185,6,0,P|53:110|78:170,1,120.750002303124
194,229,222511,1,0,0:0:0:0:
227,233,222619,2,0,P|236:271|221:310,1,60.3750011515618
43,367,222837,2,0,P|34:329|49:290,1,60.3750011515618
164,146,223054,5,0,0:0:0:0:
122,279,223163,1,0,0:0:0:0:
3,226,223272,1,0,0:0:0:0:
164,146,223380,1,0,0:0:0:0:
227,233,223489,2,0,P|236:271|221:310,1,60.3750011515618
365,350,223706,2,0,P|374:312|359:273,1,60.3750011515618
308,51,223924,6,0,L|473:152,1,181.125003454685
286,355,224359,2,0,L|328:153,1,181.125003454685
200,47,224793,2,0,P|111:60|66:137,1,181.125003454685
224,267,225228,2,0,P|232:222|222:183,1,60.3750011515618
157,130,225446,2,0,P|149:175|159:214,1,60.3750011515618
384,283,225663,5,0,0:0:0:0:
322,177,225772,1,0,0:0:0:0:
456,193,225880,2,0,L|521:200,1,60.3750011515618
320,352,226098,2,0,L|255:359,1,60.3750011515618
393,89,226315,5,0,0:0:0:0:
456,193,226424,1,0,0:0:0:0:
393,89,226533,2,0,L|311:83,1,60.3750011515618
266,202,226750,2,0,L|184:208,1,60.3750011515618
70,59,226967,2,0,L|152:65,1,60.3750011515618
25,197,227185,5,0,0:0:0:0:
225,105,227293,1,0,0:0:0:0:
25,197,227402,2,0,P|36:260|105:297,1,120.750002303124
266,202,227728,5,0,0:0:0:0:
266,202,227837,2,0,L|247:289,1,60.3750011515618
25,197,228054,2,0,L|37:138,1,60.3750011515618
178,277,228272,5,0,0:0:0:0:
130,114,228380,1,0,0:0:0:0:
311,125,228489,2,0,L|354:176,1,60.3750011515618
117,339,228706,2,0,L|78:292,1,60.3750011515618
401,57,228924,1,0,0:0:0:0:
401,57,229141,6,0,P|448:103|445:177,1,120.750002303124
383,344,229467,1,0,0:0:0:0:
383,344,229576,2,0,P|358:321|350:283,1,60.3750011515618
413,222,229793,5,0,0:0:0:0:
259,266,229902,1,0,0:0:0:0:
311,125,230011,2,0,L|349:171,1,60.3750011515618
208,346,230228,2,0,L|169:299,1,60.3750011515618
201,103,230446,5,0,0:0:0:0:
90,146,230554,1,0,0:0:0:0:
289,213,230663,1,0,0:0:0:0:
201,103,230772,1,0,0:0:0:0:
90,146,230880,6,0,P|55:237|108:315,1,181.125003454685
367,144,231315,2,0,L|228:13,1,181.125003454685
365,299,231750,2,0,P|456:264|449:149,1,181.125003454685
245,158,232185,2,0,L|192:367,1,181.125003454685
445,96,232619,6,0,L|425:31,1,60.3750011515618
362,147,232837,1,0,0:0:0:0:
470,189,232946,1,0,0:0:0:0:
291,76,233054,2,0,L|216:92,1,60.3750011515618
330,245,233272,2,0,L|389:232,1,60.3750011515618
353,27,233489,5,0,0:0:0:0:
243,186,233598,1,0,0:0:0:0:
445,96,233706,2,0,L|425:31,1,60.3750011515618
243,186,233924,2,0,L|225:243,1,60.3750011515618
67,96,234141,1,0,0:0:0:0:
67,96,234250,1,0,0:0:0:0:
67,96,234359,1,0,0:0:0:0:
67,96,234576,6,0,L|87:31,1,60.3750011515618
144,237,234793,1,0,0:0:0:0:
8,190,234902,1,0,0:0:0:0:
268,104,235011,2,0,P|320:146|314:237,1,120.750002303124
48,274,235446,5,0,0:0:0:0:
266,348,235663,1,0,0:0:0:0:
171,21,235880,1,0,0:0:0:0:
245,291,236098,6,0,L|273:370,1,60.3750011515618
329,196,236315,1,0,0:0:0:0:
387,333,236424,1,0,0:0:0:0:
463,194,236533,2,0,L|442:137,1,60.3750011515618
256,88,236750,5,0,0:0:0:0:
445,51,236859,1,0,0:0:0:0:
189,34,236967,2,0,L|168:91,1,60.3750011515618
329,196,237185,1,0,0:0:0:0:
329,196,237293,1,0,0:0:0:0:
329,196,237402,2,0,L|350:139,1,60.3750011515618
202,205,237619,5,0,0:0:0:0:
276,307,237728,1,0,0:0:0:0:
55,288,237837,2,0,L|72:215,1,60.3750011515618
126,362,238054,2,0,L|143:289,1,60.3750011515618
329,196,238272,2,0,L|346:269,1,60.3750011515618
400,122,238489,2,0,L|417:195,1,60.3750011515618
55,97,238706,5,0,0:0:0:0:
89,54,238815,1,0,0:0:0:0:
141,41,238924,1,0,0:0:0:0:
193,54,239033,1,0,0:0:0:0:
261,147,239141,5,0,0:0:0:0:
306,187,239250,1,0,0:0:0:0:
365,197,239359,1,0,0:0:0:0:
419,171,239467,1,0,0:0:0:0:
450,119,239576,2,0,P|460:84|455:47,1,60.3750011515618
179,135,239793,2,0,P|169:170|174:207,1,60.3750011515618
317,270,240011,5,0,0:0:0:0:
124,264,240119,1,0,0:0:0:0:
335,287,240228,2,0,B|352:306|373:317|373:317|334:310|278:337,1,120.750002303124
66,326,240554,1,0,0:0:0:0:
66,326,240663,2,0,P|39:271|63:201,1,120.750002303124
109,60,240989,1,0,0:0:0:0:
131,76,241098,2,0,L|120:164,1,60.3750011515618
248,260,241315,6,0,L|240:200,1,60.3750011515618
381,76,241533,2,0,L|392:164,1,60.3750011515618
154,365,241750,2,0,L|161:305,1,60.3750011515618
457,183,241967,5,0,0:0:0:0:
498,227,242076,1,0,0:0:0:0:
504,287,242185,2,0,P|486:322|452:341,1,60.3750011515618
264,112,242402,2,0,P|282:77|316:58,1,60.3750011515618
343,352,242619,2,0,L|361:263,2,60.3750011515618
186,88,242946,5,0,0:0:0:0:
186,88,243054,2,0,P|163:107|151:135,1,60.3750011515618
248,260,243272,1,0,0:0:0:0:
78,182,243380,1,0,0:0:0:0:
109,317,243489,1,0,0:0:0:0:
217,182,243598,1,0,0:0:0:0:
109,317,243706,2,0,P|86:297|74:269,1,60.3750011515618
276,113,243924,2,0,P|320:163|316:233,1,120.750002303124
196,329,244250,5,0,0:0:0:0:
211,352,244359,2,0,L|281:336,1,60.3750011515618
512,283,244576,2,0,L|453:269,1,60.3750011515618
146,111,244793,2,0,L|47:136,1,60.3750011515618
322,214,245011,2,0,L|380:199,1,60.3750011515618
263,25,245228,2,0,P|236:86|257:142,1,120.750002303124
403,104,245554,5,0,0:0:0:0:
458,127,245663,1,0,0:0:0:0:
496,173,245772,1,0,0:0:0:0:
497,232,245880,1,0,0:0:0:0:
169,236,246098,5,0,0:0:0:0:
360,24,246315,1,0,0:0:0:0:
376,340,246533,1,0,0:0:0:0:
376,340,250011,5,0,0:0:0:0:
206,242,251098,5,0,0:0:0:0:
419,263,251315,1,0,0:0:0:0:
110,74,251750,5,0,0:0:0:0:
246,22,252837,5,0,0:0:0:0:
114,246,253054,1,0,0:0:0:0:
449,64,253489,5,0,0:0:0:0:
398,246,254576,5,0,0:0:0:0:
351,24,254794,1,0,0:0:0:0:
211,334,255228,5,0,0:0:0:0:
55,248,256315,5,0,0:0:0:0:
216,153,256533,2,0,P|248:218|244:217,1,157.5
50,99,256967,5,0,0:0:0:0:
74,71,257076,1,0,0:0:0:0:
108,58,257185,1,0,0:0:0:0:
144,57,257293,1,0,0:0:0:0:
178,68,257402,2,0,P|210:84|232:120,1,52.5
360,242,257619,5,0,0:0:0:0:
336,270,257728,1,0,0:0:0:0:
303,287,257837,1,0,0:0:0:0:
266,291,257946,1,0,0:0:0:0:
231,278,258054,2,0,L|188:241,1,52.5
399,92,258272,2,0,L|438:126,1,52.5
338,15,258489,5,0,0:0:0:0:
302,37,258598,1,0,0:0:0:0:
286,75,258706,2,0,P|289:106|311:140,1,52.5
410,328,258924,5,0,0:0:0:0:
446,306,259033,1,0,0:0:0:0:
462,268,259141,2,0,P|458:236|437:203,1,52.5
130,153,259359,5,0,0:0:0:0:
94,184,259467,1,0,0:0:0:0:
76,228,259576,1,0,0:0:0:0:
82,274,259685,1,0,0:0:0:0:
105,314,259793,2,0,L|165:348,1,52.5
357,206,260011,2,0,L|297:240,1,52.5
358,122,260228,5,0,0:0:0:0:
408,135,260337,1,0,0:0:0:0:
440,176,260446,2,0,P|447:214|425:263,1,52.5
285,330,260663,5,0,0:0:0:0:
235,317,260772,1,0,0:0:0:0:
203,276,260881,2,0,P|196:238|218:189,1,52.5
370,37,261098,5,0,0:0:0:0:
328,76,261206,1,0,0:0:0:0:
271,89,261315,1,0,0:0:0:0:
218,64,261424,1,0,0:0:0:0:
161,53,261533,1,0,0:0:0:0:
106,71,261641,1,0,0:0:0:0:
81,123,261750,1,0,0:0:0:0:
94,179,261859,1,0,0:0:0:0:
132,212,261967,2,0,B|198:217|197:217,1,52.5
266,128,262185,5,0,0:0:0:0:
158,130,262293,1,0,0:0:0:0:
205,240,262402,1,0,0:0:0:0:
151,111,262511,5,0,0:0:0:0:
236,343,262728,1,0,0:0:0:0:
385,48,262982,1,0,0:0:0:0:
