osu file format v14

[General]
AudioFilename: audio.mp3
AudioLeadIn: 0
PreviewTime: -1
Countdown: 1
SampleSet: Normal
StackLeniency: 0.7
Mode: 0
LetterboxInBreaks: 0
WidescreenStoryboard: 0

[Editor]
DistanceSpacing: 1.3
BeatDivisor: 16
GridSize: 4
TimelineZoom: 2.1

[Metadata]
Title:Aleph
TitleUnicode:Aleph
Artist:Gesaffelstein
ArtistUnicode:Gesaffelstein
Creator:Derr Rtee
Version:aleph
Source:
Tags:
BeatmapID:1935522
BeatmapSetID:926642

[Difficulty]
HPDrainRate:6
CircleSize:3.8
OverallDifficulty:8
ApproachRate:9.5
SliderMultiplier:1.1
SliderTickRate:1

[Events]
//Background and Video events
0,0,"hqdefault.jpg",0,0
//Break Periods
//Storyboard Layer 0 (Background)
//Storyboard Layer 1 (Fail)
//Storyboard Layer 2 (Pass)
//Storyboard Layer 3 (Foreground)
//Storyboard Sound Samples

[TimingPoints]
195,370.37037037037,4,1,0,100,1,0
195,-181.818181818181,4,1,1,100,0,0
47602,-28.5714285714286,4,1,1,100,0,0

[Colours]
Combo1 : 162,162,162
Combo2 : 255,255,255

[HitObjects]
140,361,195,6,8,B|76:337|76:337|94:299|94:299|149:317|149:317|180:239|180:239|204:171|204:171|70:132,1,423.500012924195,8|12,1:0|1:0,1:0:0:0:
108,143,3157,2,0,B|168:163|168:163|154:224|154:224|205:238|205:238|257:64|257:64|329:77,1,423.500012924195,8|4,1:0|1:0,1:0:0:0:
319,75,6120,2,0,B|251:65|251:65|243:119|243:119|313:129|313:129|356:193|356:193|413:273|413:273|346:275,1,423.500012924195,8|4,2:0|2:0,1:0:0:0:
359,276,9083,2,8,B|249:282|249:282|257:171|127:70|127:70|85:111,1,423.500012924195,8|12,1:0|1:0,1:0:0:0:
85,110,12046,6,8,P|78:144|88:186,1,60.5000018463135
161,158,12787,2,8,P|161:196|126:249,1,60.5000018463135
87,277,13528,6,8,P|118:292|161:293,1,60.5000018463135
153,216,14269,2,8,P|189:225|231:273,1,60.5000018463135
283,288,15009,6,8,P|290:254|280:212,1,60.5000018463135
207,238,15750,2,8,P|207:200|243:148,1,60.5000018463135
257,100,16491,6,8,P|294:80|337:91,1,60.5000018463135
311,80,17232,6,8,P|281:83|257:100,1,60.5000018463135
199,163,17787,1,4,0:0:0:0:
427,110,17972,6,8,P|434:144|424:186,1,60.5000018463135,8|8,3:0|3:0,3:0:0:0:
351,158,18713,2,8,P|351:196|386:249,1,60.5000018463135,8|8,3:0|3:0,3:0:0:0:
425,277,19454,6,8,P|394:292|351:293,1,60.5000018463135,8|8,3:0|3:0,3:0:0:0:
359,216,20195,2,8,P|323:225|281:273,1,60.5000018463135,8|8,3:0|3:0,3:0:0:0:
229,288,20935,6,8,P|221:254|231:212,1,60.5000018463135,8|8,3:0|3:0,3:0:0:0:
305,238,21676,2,8,P|304:200|268:148,1,60.5000018463135,8|8,3:0|3:0,3:0:0:0:
255,100,22417,6,8,P|218:80|175:91,1,60.5000018463135,8|8,3:0|3:0,3:0:0:0:
200,80,23158,6,8,P|230:83|255:100,1,60.5000018463135,8|8,3:0|3:0,3:0:0:0:
313,163,23713,1,4,0:0:0:0:
85,110,23898,6,8,P|78:144|88:186,1,60.5000018463135,8|8,1:0|1:0,1:0:0:0:
161,158,24639,2,8,P|161:196|126:249,1,60.5000018463135,8|8,1:0|1:0,1:0:0:0:
87,277,25380,6,8,P|118:292|161:293,1,60.5000018463135,8|8,1:0|1:0,1:0:0:0:
153,216,26121,2,8,P|189:225|231:273,1,60.5000018463135,8|8,1:0|1:0,1:0:0:0:
283,288,26861,6,8,P|290:254|220:59,1,242.000007385254,8|8,1:0|1:0,1:0:0:0:
136,38,28528,1,4,0:0:0:0:
121,121,28713,1,2,0:0:0:0:
211,136,28898,1,4,0:0:0:0:
226,46,29083,1,2,0:0:0:0:
121,121,29269,1,4,0:0:0:0:
136,38,29454,1,2,0:0:0:0:
211,136,29639,1,4,0:0:0:0:
427,110,29824,6,8,P|434:144|424:186,1,60.5000018463135
351,158,30565,2,8,P|351:196|386:249,1,60.5000018463135
425,277,31306,6,8,P|394:292|351:293,1,60.5000018463135
359,216,32047,2,8,P|323:225|281:273,1,60.5000018463135
229,288,32787,6,8,P|221:254|292:59,1,242.000007385254
376,38,34454,1,4,0:0:0:0:
391,121,34639,1,2,0:0:0:0:
301,136,34824,1,4,0:0:0:0:
286,46,35009,1,2,0:0:0:0:
391,121,35195,1,4,0:0:0:0:
376,38,35380,1,2,0:0:0:0:
301,136,35565,1,4,0:0:0:0:
207,164,35750,5,2,0:0:0:0:
117,187,35935,1,2,0:0:0:0:
32,213,36120,1,2,0:0:0:0:
58,297,36306,1,2,0:0:0:0:
90,375,36491,1,2,0:0:0:0:
172,359,36676,1,2,0:0:0:0:
145,277,36861,1,2,0:0:0:0:
233,250,37046,1,2,0:0:0:0:
207,164,37232,1,2,0:0:0:0:
117,187,37417,5,2,0:0:0:0:
32,213,37602,1,2,0:0:0:0:
58,297,37788,1,2,0:0:0:0:
90,375,37973,1,2,0:0:0:0:
172,359,38158,1,2,0:0:0:0:
145,277,38343,1,2,0:0:0:0:
233,250,38528,1,2,0:0:0:0:
204,161,38713,2,8,L|451:77,1,242.000007385254
433,83,40380,5,4,0:0:0:0:
360,108,40565,1,2,0:0:0:0:
280,136,40750,1,4,0:0:0:0:
204,161,40935,1,2,0:0:0:0:
440,88,41120,1,4,0:0:0:0:
280,136,41306,1,2,0:0:0:0:
360,108,41491,1,4,0:0:0:0:
280,136,41676,5,2,0:0:0:0:
370,159,41861,1,2,0:0:0:0:
455,185,42046,1,2,0:0:0:0:
429,269,42232,1,2,0:0:0:0:
397,347,42417,1,2,0:0:0:0:
315,331,42602,1,2,0:0:0:0:
342,249,42787,1,2,0:0:0:0:
254,222,42972,1,2,0:0:0:0:
280,136,43158,1,2,0:0:0:0:
370,159,43343,5,2,0:0:0:0:
455,185,43528,1,2,0:0:0:0:
429,269,43714,1,2,0:0:0:0:
397,347,43899,1,2,0:0:0:0:
315,331,44084,1,2,0:0:0:0:
342,249,44269,1,2,0:0:0:0:
254,222,44454,1,2,0:0:0:0:
283,133,44639,2,8,L|36:49,1,242.000007385254
53,55,46306,5,4,0:0:0:0:
127,80,46491,1,2,0:0:0:0:
207,108,46676,1,4,0:0:0:0:
283,133,46861,1,2,0:0:0:0:
47,60,47046,1,4,0:0:0:0:
207,108,47232,1,2,0:0:0:0:
127,80,47417,1,4,0:0:0:0:
283,133,47602,6,4,B|360:156|360:156|352:264,1,126.500002412796,4|0,0:0|0:0,0:0:0:0:
350,282,47972,1,0,0:0:0:0:
266,266,48157,1,0,0:0:0:0:
366,180,48343,2,8,B|377:245|377:245|343:287,1,110,8|0,0:0|0:0,0:0:0:0:
456,300,48528,1,0,0:0:0:0:
466,195,48713,1,0,0:0:0:0:
366,180,48898,1,0,0:0:0:0:
349,279,49083,6,0,B|264:267|264:267|180:195,1,192.500001835823,4|0,0:0|0:0,0:0:0:0:
104,107,49454,1,0,0:0:0:0:
205,43,49639,1,0,0:0:0:0:
283,134,49824,2,0,B|336:93|336:93|309:-3,1,96.2500009179115,8|0,0:0|0:0,0:0:0:0:
183,197,50009,1,0,0:0:0:0:
104,107,50194,1,0,0:0:0:0:
205,43,50380,1,0,0:0:0:0:
255,349,50565,6,0,L|256:250,1,96.2500009179115,4|0,0:0|0:0,0:0:0:0:
346,239,50750,1,2,0:0:0:0:
363,54,50935,1,2,0:0:0:0:
449,158,51120,1,2,0:0:0:0:
256,22,51306,2,0,L|256:129,1,96.2500009179115,8|0,0:0|0:0,0:0:0:0:
152,240,51491,1,2,0:0:0:0:
135,55,51676,1,2,0:0:0:0:
49,159,51861,1,2,0:0:0:0:
255,22,52046,6,0,L|256:121,1,96.2500009179115,4|0,0:0|0:0,0:0:0:0:
346,132,52231,1,2,0:0:0:0:
363,317,52416,1,2,0:0:0:0:
449,213,52601,1,2,0:0:0:0:
256,349,52787,2,0,L|256:242,1,96.2500009179115,8|0,0:0|0:0,0:0:0:0:
152,131,52972,1,2,0:0:0:0:
135,316,53157,1,2,0:0:0:0:
49,212,53342,1,2,0:0:0:0:
283,133,53528,6,0,B|360:156|360:156|352:264,1,126.500002412796,4|0,0:0|0:0,0:0:0:0:
350,282,53898,1,0,0:0:0:0:
266,266,54083,1,0,0:0:0:0:
366,180,54269,2,0,B|377:245|377:245|343:287,1,110,8|0,0:0|0:0,0:0:0:0:
456,300,54454,1,0,0:0:0:0:
466,195,54639,1,0,0:0:0:0:
366,180,54824,1,0,0:0:0:0:
349,279,55009,6,0,B|264:267|264:267|180:195,1,192.500001835823,4|0,0:0|0:0,0:0:0:0:
104,107,55380,1,0,0:0:0:0:
205,43,55565,1,0,0:0:0:0:
283,134,55750,2,0,B|336:93|336:93|309:-3,1,96.2500009179115,8|0,0:0|0:0,0:0:0:0:
183,197,55935,1,0,0:0:0:0:
104,107,56120,1,0,0:0:0:0:
205,43,56306,1,0,0:0:0:0:
255,349,56491,6,0,L|256:250,1,96.2500009179115,4|0,0:0|0:0,0:0:0:0:
346,239,56676,1,2,0:0:0:0:
363,54,56861,1,2,0:0:0:0:
449,158,57046,1,2,0:0:0:0:
256,22,57232,2,0,L|256:129,1,96.2500009179115,4|0,0:0|0:0,0:0:0:0:
152,240,57417,1,2,0:0:0:0:
135,55,57602,1,2,0:0:0:0:
49,159,57787,1,2,0:0:0:0:
255,22,57972,6,0,L|256:121,1,96.2500009179115,4|0,0:0|0:0,0:0:0:0:
346,132,58157,1,2,0:0:0:0:
363,317,58342,1,2,0:0:0:0:
449,213,58527,1,2,0:0:0:0:
256,349,58713,2,0,L|256:242,1,96.2500009179115,8|0,0:0|0:0,0:0:0:0:
152,131,58898,1,2,0:0:0:0:
135,316,59083,1,2,0:0:0:0:
49,212,59268,1,2,0:0:0:0:
217,213,59454,6,0,L|344:213,1,96.2500009179115,4|0,0:0|0:0,0:0:0:0:
19,212,59639,1,0,0:0:0:0:
122,55,59824,1,0,0:0:0:0:
216,210,60009,1,0,0:0:0:0:
314,213,60194,6,0,L|187:213,1,96.2500009179115,8|0,0:0|0:0,0:0:0:0:
512,209,60379,1,0,0:0:0:0:
409,55,60564,1,0,0:0:0:0:
315,210,60749,1,0,0:0:0:0:
257,150,60935,6,0,L|257:257,1,96.2500009179115,4|0,0:0|0:0,0:0:0:0:
258,1,61120,1,0,0:0:0:0:
96,144,61306,1,0,0:0:0:0:
429,144,61491,1,0,0:0:0:0:
256,235,61676,6,0,L|256:128,1,96.2500009179115,8|0,0:0|0:0,0:0:0:0:
257,384,61861,1,0,0:0:0:0:
95,241,62047,1,0,0:0:0:0:
428,241,62232,1,0,0:0:0:0:
197,254,62417,5,4,0:0:0:0:
196,131,62602,1,2,0:0:0:0:
323,130,62787,1,2,0:0:0:0:
325,255,62972,1,2,0:0:0:0:
130,190,63157,5,2,0:0:0:0:
257,61,63342,1,2,0:0:0:0:
390,192,63527,1,2,0:0:0:0:
262,324,63712,1,2,0:0:0:0:
325,255,63898,5,4,0:0:0:0:
326,132,64083,1,2,0:0:0:0:
199,131,64268,1,2,0:0:0:0:
197,256,64453,1,2,0:0:0:0:
392,191,64638,5,8,0:0:0:0:
265,62,64823,1,2,0:0:0:0:
132,193,65008,1,2,0:0:0:0:
260,325,65193,1,2,0:0:0:0:
295,213,65380,6,0,L|168:213,1,96.2500009179115,4|0,0:0|0:0,0:0:0:0:
493,212,65565,1,0,0:0:0:0:
390,55,65750,1,0,0:0:0:0:
296,210,65935,1,0,0:0:0:0:
198,213,66120,6,0,L|325:213,1,96.2500009179115,8|0,0:0|0:0,0:0:0:0:
0,209,66305,1,0,0:0:0:0:
103,55,66490,1,0,0:0:0:0:
197,210,66675,1,0,0:0:0:0:
255,150,66861,6,0,L|255:257,1,96.2500009179115,4|0,0:0|0:0,0:0:0:0:
254,1,67046,1,0,0:0:0:0:
416,144,67232,1,0,0:0:0:0:
83,144,67417,1,0,0:0:0:0:
256,235,67602,6,0,L|256:128,1,96.2500009179115,8|0,0:0|0:0,0:0:0:0:
255,384,67787,1,0,0:0:0:0:
417,241,67973,1,0,0:0:0:0:
84,241,68158,1,0,0:0:0:0:
315,254,68343,5,4,0:0:0:0:
316,131,68528,1,2,0:0:0:0:
189,130,68713,1,2,0:0:0:0:
187,255,68898,1,2,0:0:0:0:
381,190,69083,5,8,0:0:0:0:
254,61,69268,1,2,0:0:0:0:
121,192,69453,1,2,0:0:0:0:
249,324,69638,1,2,0:0:0:0:
187,255,69824,5,4,0:0:0:0:
186,132,70009,1,2,0:0:0:0:
313,131,70194,1,2,0:0:0:0:
315,256,70379,1,2,0:0:0:0:
120,191,70564,5,8,0:0:0:0:
247,62,70749,1,2,0:0:0:0:
380,193,70934,1,2,0:0:0:0:
252,325,71119,1,2,0:0:0:0:
247,62,71306,5,4,0:0:0:0:
252,325,71491,1,0,0:0:0:0:
247,62,71676,6,0,L|247:168,1,96.2500009179115,4|0,2:0|0:0,0:0:0:0:
394,295,71861,1,0,0:0:0:0:
96,290,72047,1,8,0:0:0:0:
252,325,72232,1,0,0:0:0:0:
96,290,72417,1,0,0:0:0:0:
394,295,72602,1,0,0:0:0:0:
247,62,72787,6,0,L|247:168,1,96.2500009179115,4|0,2:0|0:0,0:0:0:0:
252,325,72972,1,0,0:0:0:0:
247,62,73157,6,4,L|352:61,1,96.2500009179115,4|0,2:0|2:0,2:0:0:0:
481,61,73343,1,0,0:0:0:0:
257,329,73528,1,8,0:0:0:0:
243,64,73713,1,0,0:0:0:0:
481,61,73898,1,0,0:0:0:0:
257,329,74083,1,0,0:0:0:0:
439,280,74269,5,4,0:0:0:0:
243,64,74454,1,2,0:0:0:0:
439,280,74639,1,2,0:0:0:0:
56,286,74824,1,2,0:0:0:0:
249,63,75009,1,4,0:0:0:0:
56,286,75194,1,2,0:0:0:0:
439,280,75380,1,2,0:0:0:0:
243,64,75565,1,2,0:0:0:0:
439,280,75750,5,4,0:0:0:0:
56,286,75935,1,2,0:0:0:0:
243,64,76120,1,2,0:0:0:0:
439,280,76306,1,2,0:0:0:0:
56,286,76491,1,8,0:0:0:0:
439,280,76676,1,2,0:0:0:0:
243,64,76861,1,2,0:0:0:0:
56,286,77046,1,2,0:0:0:0:
245,63,77232,5,4,0:0:0:0:
240,326,77417,1,0,0:0:0:0:
245,63,77602,6,0,L|245:169,1,96.2500009179115,4|0,2:0|0:0,0:0:0:0:
98,296,77787,1,0,0:0:0:0:
396,291,77973,1,8,0:0:0:0:
240,326,78158,1,0,0:0:0:0:
396,291,78343,1,0,0:0:0:0:
98,296,78528,1,0,0:0:0:0:
245,63,78713,6,0,L|245:169,1,96.2500009179115,4|0,2:0|0:0,0:0:0:0:
240,326,78898,1,0,0:0:0:0:
245,63,79083,6,4,L|140:62,1,96.2500009179115,4|0,2:0|2:0,2:0:0:0:
11,62,79269,1,0,0:0:0:0:
235,330,79454,1,8,0:0:0:0:
249,65,79639,1,0,0:0:0:0:
11,62,79824,1,0,0:0:0:0:
235,330,80009,1,0,0:0:0:0:
53,281,80195,5,4,0:0:0:0:
249,65,80380,1,2,0:0:0:0:
53,281,80565,1,2,0:0:0:0:
436,287,80750,1,2,0:0:0:0:
243,64,80935,1,4,0:0:0:0:
436,287,81120,1,2,0:0:0:0:
53,281,81306,1,2,0:0:0:0:
249,65,81491,1,2,0:0:0:0:
53,281,81676,5,4,0:0:0:0:
436,287,81861,1,2,0:0:0:0:
249,65,82046,1,2,0:0:0:0:
53,281,82232,1,2,0:0:0:0:
436,287,82417,1,8,0:0:0:0:
53,281,82602,1,2,0:0:0:0:
249,65,82787,1,2,0:0:0:0:
436,287,82972,1,2,0:0:0:0:
46,44,83157,6,0,B|121:41|121:41|126:143,1,96.2500009179115
119,189,83343,1,0,0:0:0:0:
466,44,83528,6,0,B|391:41|391:41|386:143,1,96.2500009179115
386,189,83714,1,0,0:0:0:0:
250,39,83898,5,0,0:0:0:0:
262,373,83991,1,0,0:0:0:0:
