osu file format v14

[General]
AudioFilename: audio.mp3
AudioLeadIn: 0
PreviewTime: 52554
Countdown: 0
SampleSet: Soft
StackLeniency: 0.2
Mode: 0
LetterboxInBreaks: 0
WidescreenStoryboard: 1

[Editor]
Bookmarks: 17645,35100,52554,61281,70009,87463,104918,122372
DistanceSpacing: 1.3
BeatDivisor: 4
GridSize: 32
TimelineZoom: 2

[Metadata]
Title:Stardust (Cut Ver.)
TitleUnicode:Stardust (Cut Ver.)
Artist:Geoxor
ArtistUnicode:Geoxor
Creator:Zer0-
Version:Pachiru's Insane
Source:
Tags:electronic instrumental dubstep pachiru glitch hop featured artist fa
BeatmapID:2794533
BeatmapSetID:1349715

[Difficulty]
HPDrainRate:6
CircleSize:4
OverallDifficulty:7
ApproachRate:9
SliderMultiplier:1.8
SliderTickRate:1

[Events]
//Background and Video events
0,0,"65329348_p0.jpg",0,0
//Break Periods
2,52762,60689
//Storyboard Layer 0 (Background)
//Storyboard Layer 1 (Fail)
//Storyboard Layer 2 (Pass)
//Storyboard Layer 3 (Foreground)
//Storyboard Layer 4 (Overlay)
//Storyboard Sound Samples

[TimingPoints]
199,545.454545454546,4,2,1,40,1,0
199,-133.333333333333,4,2,1,40,0,0
17653,-100,4,2,1,70,0,0
35108,-80,4,2,1,70,0,1
52562,-133.333333333333,4,2,1,70,0,0
61289,-133.333333333333,4,2,1,40,0,0
69471,-133.333333333333,4,2,1,70,0,0
70017,-58.8235294117647,4,2,1,70,0,0

[Colours]
Combo1 : 175,68,85
Combo2 : 64,94,128
Combo3 : 200,172,172
Combo4 : 42,104,166

[HitObjects]
404,74,199,5,2,0:0:0:0:
315,113,471,1,2,0:0:0:0:
227,151,744,1,2,0:0:0:0:
404,74,1017,5,2,0:0:0:0:
359,93,1153,1,2,0:0:0:0:
315,113,1289,2,0,L|282:130,2,33.7500012874604,2|2|2,0:0|0:0|0:0,0:0:0:0:
328,194,1699,2,0,L|357:177,2,33.7500012874604,2|2|2,0:0|0:0|0:0,0:0:0:0:
393,251,2108,2,0,L|363:266,1,33.7500012874604,2|2,0:0|0:0,0:0:0:0:
224,367,2380,5,2,0:0:0:0:
179,296,2653,1,2,0:0:0:0:
97,279,2926,1,2,0:0:0:0:
224,367,3199,5,2,0:0:0:0:
256,337,3335,1,2,0:0:0:0:
267,294,3471,2,0,P|266:268|260:248,2,33.7500012874604,2|2|2,0:0|0:0|0:0,0:0:0:0:
331,223,3880,2,0,P|316:201|300:188,2,33.7500012874604,2|2|2,0:0|0:0|0:0,0:0:0:0:
360,138,4289,2,0,P|338:123|318:117,1,33.7500012874604,2|2,0:0|0:0,0:0:0:0:
173,36,4562,5,2,0:0:0:0:
184,117,4835,1,2,0:0:0:0:
198,199,5108,1,2,0:0:0:0:
92,95,5380,5,2,0:0:0:0:
98,138,5517,1,2,0:0:0:0:
103,181,5653,2,0,L|109:220,2,33.7500012874604,2|2|2,0:0|0:0|0:0,0:0:0:0:
50,266,6062,2,0,L|56:305,2,33.7500012874604,2|2|2,0:0|0:0|0:0,0:0:0:0:
103,181,6471,2,0,L|110:221,1,33.7500012874604,2|2,0:0|0:0,0:0:0:0:
202,345,6744,5,2,0:0:0:0:
273,292,7017,1,2,0:0:0:0:
359,308,7289,1,2,0:0:0:0:
191,258,7562,5,2,0:0:0:0:
191,258,7699,1,2,0:0:0:0:
231,193,7835,2,0,P|218:164|175:140,1,67.5000025749208,2|2,0:0|0:0,0:0:0:0:
153,134,8244,1,2,0:0:0:0:
153,134,8380,2,0,P|181:121|206:78,1,67.5000025749208,2|2,0:0|0:0,0:0:0:0:
345,33,8926,5,2,0:0:0:0:
399,104,9199,1,2,0:0:0:0:
379,187,9471,1,2,0:0:0:0:
463,52,9744,5,2,0:0:0:0:
478,83,9880,1,2,0:0:0:0:
479,120,10017,2,0,P|473:145|460:159,2,33.7500012874604,2|2|2,0:0|0:0|0:0,0:0:0:0:
492,221,10426,2,0,P|470:234|450:235,2,33.7500012874604,2|2|2,0:0|0:0|0:0,0:0:0:0:
450,308,10835,2,0,P|426:303|408:290,1,33.7500012874604,2|2,0:0|0:0,0:0:0:0:
273,366,11108,5,2,0:0:0:0:
215,302,11380,1,2,0:0:0:0:
244,221,11653,1,2,0:0:0:0:
183,379,11926,5,2,0:0:0:0:
143,372,12062,1,2,0:0:0:0:
105,367,12199,2,0,L|70:362,2,33.7500012874604,2|2|2,0:0|0:0|0:0,0:0:0:0:
89,284,12608,2,0,L|124:289,2,33.7500012874604,2|2|2,0:0|0:0|0:0,0:0:0:0:
135,212,13017,2,0,L|100:207,1,33.7500012874604,2|2,0:0|0:0,0:0:0:0:
44,83,13289,5,2,0:0:0:0:
118,36,13562,1,2,0:0:0:0:
200,58,13835,1,2,0:0:0:0:
44,83,14108,5,2,0:0:0:0:
48,112,14244,1,2,0:0:0:0:
53,146,14380,2,0,L|58:183,2,33.7500012874604,2|2|2,0:0|0:0|0:0,0:0:0:0:
119,229,14789,2,0,L|114:266,2,33.7500012874604,2|2|2,0:0|0:0|0:0,0:0:0:0:
187,175,15199,2,0,L|228:169,1,33.7500012874604,2|2,0:0|0:0,0:0:0:0:
352,93,15471,5,2,0:0:0:0:
432,136,15744,1,2,0:0:0:0:
424,220,16017,1,2,0:0:0:0:
443,55,16289,5,2,0:0:0:0:
443,55,16426,1,2,0:0:0:0:
382,11,16562,2,0,L|314:17,1,67.5000025749208,2|2,0:0|0:0,0:0:0:0:
281,23,16971,1,2,0:0:0:0:
225,103,17108,5,10,0:0:0:0:
389,304,17653,6,0,P|408:320|430:347,1,45,4|0,1:2|0:0,0:0:0:0:
259,256,17926,2,0,P|236:266|202:274,1,45
365,172,18199,2,0,P|374:148|392:118,1,45,8|0,0:0|0:0,0:0:0:0:
338,245,18471,1,0,0:0:0:0:
338,245,18608,1,0,0:0:0:0:
241,136,18744,5,2,1:2:0:0:
160,176,18880,2,0,P|134:174|107:159,2,45,2|2|2,0:0|0:0|0:0,0:0:0:0:
258,62,19289,1,10,0:0:0:0:
175,85,19426,2,0,P|149:83|122:68,2,45,2|2|2,0:0|0:0|0:0,0:0:0:0:
402,125,19835,6,0,P|389:94|389:75,1,45,0|0,1:2|0:0,0:0:0:0:
302,203,20108,2,0,P|315:172|315:153,1,45
405,277,20380,2,0,P|392:246|392:227,1,45,8|0,0:0|0:0,0:0:0:0:
237,158,20653,1,0,0:0:0:0:
237,158,20789,1,0,0:0:0:0:
277,305,20926,5,2,1:2:0:0:
202,354,21062,2,0,L|143:366,2,45,2|2|2,0:0|0:0|0:0,0:0:0:0:
87,289,21471,1,10,0:0:0:0:
162,240,21607,2,0,L|221:228,2,45,2|2|2,0:0|0:0|0:0,0:0:0:0:
49,40,22017,6,0,P|62:57|79:72,1,45,0|0,1:2|0:0,0:0:0:0:
221,95,22290,2,0,P|199:99|178:108,1,45
78,212,22563,2,0,P|89:192|97:171,1,45,8|0,0:0|0:0,0:0:0:0:
212,268,22835,1,0,0:0:0:0:
212,268,22971,1,0,0:0:0:0:
297,165,23108,5,2,1:2:0:0:
363,225,23244,2,0,P|349:273|346:277,2,45,2|2|2,0:0|0:0|0:0,0:0:0:0:
342,94,23653,1,10,0:0:0:0:
419,138,23789,2,0,P|467:124|471:121,2,45,2|2|2,0:0|0:0|0:0,0:0:0:0:
252,91,24199,6,0,P|183:76|141:49,1,90,0|0,1:2|0:0,0:0:0:0:
56,264,24744,2,0,P|82:228|84:219,1,45,8|0,0:0|0:0,0:0:0:0:
8,207,25017,1,0,0:0:0:0:
8,207,25153,1,0,0:0:0:0:
131,356,25289,2,0,P|181:343|190:334,1,45,0|0,1:2|0:0,0:0:0:0:
236,306,25562,1,0,0:0:0:0:
236,306,25699,1,0,0:0:0:0:
426,377,25835,6,0,P|404:329|399:272,1,90,8|0,0:0|0:0,0:0:0:0:
183,68,26380,6,0,P|200:53|224:64,1,45,0|0,1:2|0:0,0:0:0:0:
132,176,26653,2,0,P|117:159|128:135,1,45
249,211,26926,2,0,P|232:226|208:215,1,45,8|0,0:0|0:0,0:0:0:0:
306,146,27199,1,0,0:0:0:0:
306,146,27335,1,0,0:0:0:0:
280,325,27471,5,2,1:2:0:0:
353,271,27608,2,0,L|363:207,2,45,2|2|2,0:0|0:0|0:0,0:0:0:0:
487,360,28017,1,10,0:0:0:0:
431,287,28154,2,0,L|436:242,2,45,2|2|2,0:0|0:0|0:0,0:0:0:0:
255,341,28562,6,0,L|195:348,1,45,0|0,1:2|0:0,0:0:0:0:
53,263,28835,2,0,L|111:257,1,45
224,134,29108,2,0,L|164:141,1,45,8|0,0:0|0:0,0:0:0:0:
70,80,29380,1,0,0:0:0:0:
70,80,29517,1,0,0:0:0:0:
184,224,29653,5,2,1:2:0:0:
272,210,29789,2,0,L|326:203,2,45,2|2|2,0:0|0:0|0:0,0:0:0:0:
153,310,30199,1,10,0:0:0:0:
241,296,30335,2,0,L|295:289,2,45,2|2|2,0:0|0:0|0:0,0:0:0:0:
409,309,30744,6,0,P|416:332|419:367,1,45,0|0,1:2|0:0,0:0:0:0:
326,197,31017,2,0,P|301:192|268:181,1,45
460,185,31290,2,0,P|480:169|512:154,1,45,8|0,0:0|0:0,0:0:0:0:
397,232,31562,1,0,0:0:0:0:
397,232,31699,1,0,0:0:0:0:
357,68,31835,5,2,1:2:0:0:
422,6,31971,2,0,P|439:34|445:62,2,45,2|2|2,0:0|0:0|0:0,0:0:0:0:
303,120,32380,1,10,0:0:0:0:
230,65,32517,2,0,P|212:93|206:121,2,45,2|2|2,0:0|0:0|0:0,0:0:0:0:
45,182,32926,6,0,P|63:213|77:286,1,90,0|0,1:2|0:0,0:0:0:0:
303,231,33471,2,0,P|279:258|273:281,1,45,8|0,0:0|0:0,0:0:0:0:
352,289,33744,1,0,0:0:0:0:
352,289,33880,1,0,0:0:0:0:
231,156,34017,2,0,P|224:135|207:117,1,45,2|2,1:2|0:0,0:0:0:0:
155,179,34290,1,2,0:0:0:0:
155,179,34426,1,2,0:0:0:0:
47,308,34562,6,0,L|56:360,1,45,10|2,0:0|0:0,0:0:0:0:
127,339,34835,2,0,L|119:294,1,45,2|2,0:0|0:0,0:0:0:0:
56,58,35108,6,0,P|89:37|115:30,1,56.25,4|0,1:2|0:0,0:0:0:0:
234,115,35380,2,0,P|222:77|206:55,1,56.25
127,227,35653,2,0,P|153:217|176:200,1,56.25,8|0,0:0|0:0,0:0:0:0:
266,238,35926,1,0,0:0:0:0:
266,238,36062,1,0,0:0:0:0:
343,151,36199,5,2,1:2:0:0:
459,162,36335,1,2,0:0:0:0:
435,200,36471,1,2,0:0:0:0:
435,245,36608,2,0,P|451:282|477:296,1,56.25
344,281,36880,1,2,0:0:0:0:
352,325,37017,1,2,0:0:0:0:
381,358,37153,1,2,0:0:0:0:
422,375,37289,6,0,P|457:378|489:366,1,56.25,0|0,1:2|0:0,0:0:0:0:
343,204,37562,2,0,P|308:201|276:213,1,56.25
189,372,37835,2,0,P|224:375|256:363,1,56.25,8|0,0:0|0:0,0:0:0:0:
206,274,38108,1,0,0:0:0:0:
206,274,38244,1,0,0:0:0:0:
86,335,38380,5,2,1:2:0:0:
98,230,38517,1,2,0:0:0:0:
92,185,38653,1,2,0:0:0:0:
85,140,38789,2,0,L|77:80,1,56.25
176,152,39062,1,2,0:0:0:0:
182,106,39198,1,2,0:0:0:0:
190,61,39335,1,2,0:0:0:0:
198,16,39471,6,0,L|272:25,1,56.25,0|0,1:2|0:0,0:0:0:0:
436,130,39744,2,0,L|362:139,1,56.25
199,227,40017,2,0,L|273:236,1,56.25,8|0,0:0|0:0,0:0:0:0:
353,243,40289,1,0,0:0:0:0:
353,243,40426,1,0,0:0:0:0:
261,148,40562,5,2,1:2:0:0:
339,60,40699,1,2,0:0:0:0:
371,91,40835,1,2,0:0:0:0:
381,134,40971,2,0,P|379:179|366:192,1,56.25
460,229,41244,1,2,0:0:0:0:
433,265,41380,1,2,0:0:0:0:
392,282,41516,1,2,0:0:0:0:
346,278,41653,6,0,B|314:272|294:292|294:292|276:312|242:311,1,112.5,0|0,1:2|0:0,0:0:0:0:
37,199,42199,2,0,P|61:224|64:255,1,56.25,8|0,0:0|0:0,0:0:0:0:
30,312,42471,1,0,0:0:0:0:
30,312,42608,1,0,0:0:0:0:
157,209,42744,1,0,1:2:0:0:
157,209,42880,1,0,0:0:0:0:
148,174,43017,1,0,0:0:0:0:
140,143,43153,1,0,0:0:0:0:
234,42,43289,2,0,L|245:100,1,56.25,8|0,0:0|0:0,0:0:0:0:
124,58,43562,1,0,0:0:0:0:
305,227,43835,6,0,P|322:214|348:186,1,56.25,0|0,1:2|0:0,0:0:0:0:
355,52,44108,2,0,P|359:74|373:106,1,56.25
479,192,44381,2,0,P|459:181|420:170,1,56.25,8|0,0:0|0:0,0:0:0:0:
411,269,44653,1,0,0:0:0:0:
411,269,44789,1,0,0:0:0:0:
389,138,44926,5,2,1:2:0:0:
289,165,45062,1,2,0:0:0:0:
244,158,45199,1,2,0:0:0:0:
199,151,45335,2,0,L|143:142,1,56.25
97,61,45608,1,2,0:0:0:0:
65,92,45744,1,2,0:0:0:0:
53,135,45880,1,2,0:0:0:0:
55,180,46017,6,0,P|67:205|88:223,1,56.25,0|0,1:2|0:0,0:0:0:0:
127,363,46289,2,0,P|147:344|158:319,1,56.25
252,167,46562,2,0,P|225:181|204:209,1,56.25,8|0,0:0|0:0,0:0:0:0:
258,291,46835,1,0,0:0:0:0:
258,291,46971,1,0,0:0:0:0:
372,245,47108,5,2,1:2:0:0:
475,290,47244,1,2,0:0:0:0:
452,328,47380,1,2,0:0:0:0:
413,351,47517,2,0,P|389:359|351:348,1,56.25
302,297,47789,1,2,0:0:0:0:
258,291,47925,1,2,0:0:0:0:
217,310,48062,1,2,0:0:0:0:
187,343,48199,6,0,P|156:340|131:319,1,56.25,0|0,1:2|0:0,0:0:0:0:
16,258,48471,2,0,P|34:232|65:222,1,56.25
181,150,48744,2,0,P|181:181|164:208,1,56.25,8|0,0:0|0:0,0:0:0:0:
68,121,49017,1,0,0:0:0:0:
68,121,49153,1,0,0:0:0:0:
160,59,49289,5,2,1:2:0:0:
262,93,49426,1,2,0:0:0:0:
306,85,49562,1,2,0:0:0:0:
342,58,49699,2,0,P|364:28|367:9,1,56.25
456,39,49971,1,2,0:0:0:0:
433,77,50107,1,2,0:0:0:0:
429,122,50244,1,2,0:0:0:0:
447,162,50380,6,0,P|500:174|510:127,1,112.5,0|0,1:2|0:0,0:0:0:0:
272,217,50926,2,0,P|269:253|254:276,1,56.25,8|0,0:0|0:0,0:0:0:0:
194,223,51199,1,0,0:0:0:0:
194,223,51335,1,0,0:0:0:0:
303,134,51471,1,2,1:2:0:0:
303,134,51608,1,2,0:0:0:0:
347,128,51744,1,2,0:0:0:0:
391,123,51880,1,2,0:0:0:0:
415,42,52017,6,0,L|360:49,1,56.25,10|2,0:0|0:0,0:0:0:0:
107,128,52289,2,0,L|165:133,1,56.25,2|2,0:0|0:0,0:0:0:0:
272,217,52562,5,4,1:2:0:0:
94,363,61289,5,2,1:2:0:0:
67,272,61562,1,2,0:0:0:0:
41,169,61835,2,0,P|77:193|111:193,1,67.5000025749208,10|2,0:0|0:0,0:0:0:0:
157,147,62244,2,0,P|153:126|137:103,1,33.7500012874604,0|2,0:0|0:0,0:0:0:0:
128,95,62517,1,2,0:0:0:0:
128,95,62653,1,2,1:2:0:0:
255,26,62926,1,10,0:0:0:0:
308,275,63335,1,2,0:0:0:0:
308,275,63471,5,2,1:2:0:0:
387,199,63744,1,2,0:0:0:0:
478,270,64017,2,0,L|468:344,1,67.5000025749208,10|2,0:0|0:0,0:0:0:0:
389,348,64426,2,0,L|396:302,1,33.7500012874604,0|2,0:0|0:0,0:0:0:0:
397,287,64699,1,2,0:0:0:0:
397,287,64835,1,2,1:2:0:0:
255,161,65108,1,10,0:0:0:0:
97,319,65517,1,2,0:0:0:0:
97,319,65653,5,0,1:2:0:0:
84,220,65926,1,0,0:0:0:0:
69,120,66199,2,0,P|106:111|133:77,1,67.5000025749208,8|0,0:0|0:0,0:0:0:0:
166,26,66608,2,0,L|213:22,1,33.7500012874604,0|0,0:0|1:2,0:0:0:0:
226,21,66880,1,0,0:0:0:0:
226,21,67017,1,0,1:2:0:0:
389,121,67289,1,10,0:0:0:0:
254,305,67699,1,2,0:0:0:0:
254,305,67835,5,2,1:2:0:0:
361,269,68108,1,2,0:0:0:0:
473,232,68380,2,0,P|468:192|438:159,1,67.5000025749208,10|2,0:0|0:0,0:0:0:0:
401,120,68789,2,0,P|368:142|350:143,1,33.7500012874604,2|2,0:0|1:2,0:0:0:0:
348,72,69062,1,2,0:0:0:0:
348,72,69199,1,2,0:0:0:0:
99,319,69471,5,8,0:0:0:0:
99,319,69744,6,0,L|93:298,1,16.8750006437302
55,82,70017,6,0,P|132:118|276:96,1,229.500004377365,4|0,1:2|0:0,0:0:0:0:
487,115,70562,2,0,P|410:79|266:101,1,229.500004377365,8|0,0:0|0:0,0:0:0:0:
433,265,71108,6,0,P|393:183|297:256,1,229.500004377365,0|0,1:2|0:0,0:0:0:0:
79,265,71653,2,0,P|119:183|215:256,1,229.500004377365,8|0,0:0|0:0,0:0:0:0:
365,335,72199,5,0,1:2:0:0:
440,370,72335,2,0,B|458:332|440:298|440:298|416:258|434:212,1,153.000002918243
507,250,72744,1,10,0:0:0:0:
424,141,72880,1,2,0:0:0:0:
378,147,73017,1,2,0:0:0:0:
333,155,73153,1,2,0:0:0:0:
288,163,73289,5,0,1:2:0:0:
211,128,73426,2,0,P|163:113|205:42,1,153.000002918243
213,154,73835,2,0,P|150:129|217:20,1,229.500004377365,8|0,0:0|0:0,0:0:0:0:
97,220,74380,6,0,P|135:290|136:305,1,76.5000014591217,0|0,1:2|0:0,0:0:0:0:
112,295,74653,2,0,P|74:225|73:210,1,76.5000014591217
298,352,74926,6,0,B|318:317|318:317|312:281,1,76.5000014591217,8|0,0:0|0:0,0:0:0:0:
290,277,75199,2,0,B|269:311|269:311|275:347,1,76.5000014591217
416,185,75471,6,0,P|457:186|436:216,1,76.5000014591217,0|0,1:2|0:0,0:0:0:0:
479,224,75744,2,0,P|446:233|442:200,1,76.5000014591217
226,98,76017,6,0,P|255:62|301:54,1,76.5000014591217,8|0,0:0|0:0,0:0:0:0:
267,40,76289,2,0,P|232:53|211:84,1,76.5000014591217
35,233,76562,5,0,1:2:0:0:
97,163,76699,2,0,B|139:155|166:184|166:184|197:218|239:210,1,153.000002918243
299,155,77108,1,10,0:0:0:0:
116,245,77244,1,2,0:0:0:0:
122,290,77380,1,2,0:0:0:0:
125,336,77517,1,2,0:0:0:0:
130,381,77653,5,0,1:2:0:0:
212,350,77789,2,0,B|263:331|264:331|387:361,1,153.000002918243
473,277,78199,1,8,0:0:0:0:
470,292,78335,1,0,0:0:0:0:
467,307,78471,1,0,0:0:0:0:
465,321,78608,1,0,0:0:0:0:
387,176,78744,6,0,B|334:157|297:186|297:186|261:164|261:164|207:195|162:172,1,229.500004377365,0|0,1:2|0:0,0:0:0:0:
30,42,79289,2,0,P|105:7|202:105,1,229.500004377365,8|0,0:0|0:0,0:0:0:0:
75,312,79835,6,0,B|98:258|75:202|75:202|98:258|166:274,1,229.500004377365,0|0,1:2|0:0,0:0:0:0:
382,351,80380,2,0,P|362:264|246:315,1,229.500004377365,8|0,0:0|0:0,0:0:0:0:
457,202,80926,5,0,1:2:0:0:
382,151,81062,2,0,P|396:97|478:118,1,153.000002918243
457,202,81471,1,10,0:0:0:0:
294,143,81608,1,2,0:0:0:0:
299,188,81744,1,2,0:0:0:0:
304,233,81880,1,2,0:0:0:0:
308,278,82017,5,0,1:2:0:0:
184,337,82153,2,0,B|232:327|261:347|261:347|295:370|346:355,1,153.000002918243
166,253,82562,2,0,B|98:270|94:334|94:334|68:267|13:261,1,229.500004377365,8|0,0:0|0:0,0:0:0:0:
90,70,83108,6,0,L|176:56,1,76.5000014591217,0|0,1:2|0:0,0:0:0:0:
168,73,83380,2,0,L|93:86,1,76.5000014591217
375,164,83653,6,0,P|363:115|335:106,1,76.5000014591217,8|0,0:0|0:0,0:0:0:0:
357,98,83926,2,0,P|388:119|390:156,1,76.5000014591217
138,284,84199,6,0,B|164:254|164:254|203:257,1,76.5000014591217,0|0,1:2|0:0,0:0:0:0:
193,241,84471,2,0,B|156:238|156:238|130:267,1,76.5000014591217
365,325,84744,6,0,P|410:333|444:366,1,76.5000014591217,8|0,0:0|0:0,0:0:0:0:
440,336,85017,2,0,P|408:314|371:309,1,76.5000014591217
193,241,85289,5,0,1:2:0:0:
100,274,85426,2,0,B|108:205|108:205|114:199|114:199|122:125,1,153.000002918243
135,39,85835,1,10,0:0:0:0:
265,114,85971,1,2,0:0:0:0:
310,110,86108,1,2,0:0:0:0:
355,105,86244,1,2,0:0:0:0:
400,102,86380,5,0,1:2:0:0:
466,147,86517,2,0,P|427:227|428:305,1,153.000002918243
326,374,86926,1,8,0:0:0:0:
331,359,87062,1,0,0:0:0:0:
340,347,87199,1,0,0:0:0:0:
352,338,87335,1,0,0:0:0:0:
241,251,87471,6,0,P|168:302|17:310,1,229.500004377365,6|0,1:2|0:0,0:0:0:0:
168,196,88017,2,0,P|116:226|81:231,1,76.5000014591217,10|0,0:0|0:0,0:0:0:0:
34,192,88289,1,2,0:0:0:0:
281,129,88562,2,0,P|311:181|316:216,1,76.5000014591217,2|0,1:2|0:0,0:0:0:0:
277,263,88834,1,2,0:0:0:0:
95,139,89108,2,0,P|65:87|60:52,1,76.5000014591217,10|0,0:0|0:0,0:0:0:0:
99,5,89380,1,2,0:0:0:0:
318,101,89653,6,0,B|292:162|321:212|321:212|361:268|337:335,1,229.500004377365,2|0,1:2|0:0,0:0:0:0:
397,157,90199,2,0,P|434:134|478:135,1,76.5000014591217,10|0,0:0|0:0,0:0:0:0:
456,212,90471,1,2,0:0:0:0:
248,292,90744,2,0,P|211:269|167:270,1,76.5000014591217,2|0,1:2|0:0,0:0:0:0:
189,347,91016,1,2,0:0:0:0:
226,81,91289,2,0,P|194:114|154:120,1,76.5000014591217,10|0,0:0|0:0,0:0:0:0:
95,88,91562,2,0,P|127:55|167:49,1,76.5000014591217
326,167,91835,5,0,1:2:0:0:
271,237,91971,2,0,B|225:227|200:251|200:251|165:283|107:261,1,153.000002918243
149,189,92380,1,10,0:0:0:0:
247,315,92517,1,2,0:0:0:0:
292,315,92653,1,2,0:0:0:0:
332,293,92789,1,2,0:0:0:0:
353,252,92926,5,0,1:2:0:0:
445,287,93062,2,0,B|433:214|433:214|428:207|428:207|415:133,1,153.000002918243
486,312,93471,2,0,B|469:201|469:201|461:196|461:196|440:85,1,229.500004377365,8|0,0:0|0:0,0:0:0:0:
274,177,94017,5,0,1:2:0:0:
208,229,94153,2,0,P|130:220|100:151,1,153.000002918243
144,87,94562,1,10,0:0:0:0:
12,168,94699,1,2,0:0:0:0:
18,213,94835,1,2,0:0:0:0:
22,258,94971,1,2,0:0:0:0:
27,303,95108,2,0,B|69:291|102:315|102:315|135:339|191:325,1,153.000002918243,0|0,1:2|0:0,0:0:0:0:
243,290,95517,1,0,0:0:0:0:
356,367,95653,6,0,P|343:326|298:306,1,76.5000014591217,10|0,0:0|0:0,0:0:0:0:
239,127,95926,2,0,P|252:168|297:188,1,76.5000014591217,2|0,0:0|0:0,0:0:0:0:
489,2,96199,6,0,P|410:6|320:124,1,229.500004377365,2|0,1:2|0:0,0:0:0:0:
468,76,96744,2,0,P|420:94|404:124,1,76.5000014591217,10|0,0:0|0:0,0:0:0:0:
478,151,97017,1,2,0:0:0:0:
184,76,97289,2,0,P|232:94|248:124,1,76.5000014591217,2|0,1:2|0:0,0:0:0:0:
174,151,97562,1,2,0:0:0:0:
376,314,97835,2,0,P|335:303|297:316,1,76.5000014591217,10|0,0:0|0:0,0:0:0:0:
340,380,98108,1,2,0:0:0:0:
66,312,98380,6,0,B|93:265|65:202|65:202|102:259|162:265,1,229.500004377365,2|0,1:2|0:0,0:0:0:0:
134,136,98926,2,0,P|155:166|191:178,1,76.5000014591217,10|0,0:0|0:0,0:0:0:0:
202,99,99199,1,2,0:0:0:0:
475,300,99471,2,0,P|453:330|417:342,1,76.5000014591217,2|0,1:2|0:0,0:0:0:0:
407,263,99744,1,2,0:0:0:0:
430,50,100017,2,0,L|505:41,1,76.5000014591217,10|0,0:0|0:0,0:0:0:0:
442,126,100289,2,0,L|367:135,1,76.5000014591217
115,8,100562,5,0,1:2:0:0:
171,64,100699,2,0,L|158:251,1,153.000002918243
157,298,101108,1,10,0:0:0:0:
262,166,101244,1,2,0:0:0:0:
260,210,101380,1,2,0:0:0:0:
257,256,101517,1,2,0:0:0:0:
255,301,101653,5,0,1:2:0:0:
343,347,101789,2,0,P|409:286|392:215,1,153.000002918243
351,377,102199,2,0,P|422:333|407:200,1,229.500004377365,8|0,0:0|0:0,0:0:0:0:
460,49,102744,5,0,1:2:0:0:
389,111,102880,2,0,B|340:102|315:127|315:127|286:156|231:147,1,153.000002918243
365,188,103289,1,10,0:0:0:0:
257,71,103426,1,2,0:0:0:0:
212,81,103562,1,2,0:0:0:0:
177,111,103699,1,2,0:0:0:0:
166,155,103835,2,0,B|148:208|180:250|180:250|200:270|200:302,1,153.000002918243,0|0,1:2|0:0,0:0:0:0:
121,305,104244,1,0,0:0:0:0:
311,283,104380,6,0,P|288:324|292:366,1,76.5000014591217,10|0,0:0|0:0,0:0:0:0:
245,185,104653,2,0,P|268:144|264:102,1,76.5000014591217,2|0,0:0|0:0,0:0:0:0:
485,285,104926,6,0,B|498:252|498:196|426:167|381:195|381:195|357:212|308:204,1,229.500004377365,4|0,1:2|0:0,0:0:0:0:
171,114,105471,2,0,L|159:26,1,76.5000014591217,10|0,0:0|0:0,0:0:0:0:
237,44,105744,1,2,0:0:0:0:
345,335,106017,2,0,L|357:247,1,76.5000014591217,2|0,1:2|0:0,0:0:0:0:
279,265,106290,1,2,0:0:0:0:
32,191,106562,2,0,L|120:179,1,76.5000014591217,10|0,0:0|0:0,0:0:0:0:
102,257,106835,1,2,0:0:0:0:
438,162,107108,6,0,P|479:136|493:103,1,76.5000014591217,2|0,1:2|0:0,0:0:0:0:
416,90,107380,1,2,0:0:0:0:
251,298,107653,2,0,P|286:330|322:335,1,76.5000014591217,10|0,0:0|0:0,0:0:0:0:
314,258,107925,1,2,0:0:0:0:
131,68,108199,2,0,P|92:97|81:131,1,76.5000014591217,2|0,1:2|0:0,0:0:0:0:
159,137,108471,1,2,0:0:0:0:
457,57,108744,2,0,P|394:59|375:74,1,76.5000014591217,10|0,0:0|0:0,0:0:0:0:
356,137,109017,2,0,P|418:134|437:119,1,76.5000014591217
228,39,109289,5,0,1:2:0:0:
174,113,109426,2,0,P|199:159|212:274,1,153.000002918243
156,322,109835,1,10,0:0:0:0:
305,271,109971,1,2,0:0:0:0:
350,279,110108,1,2,0:0:0:0:
386,306,110244,1,2,0:0:0:0:
406,346,110380,5,0,1:2:0:0:
484,269,110517,2,0,B|498:222|472:190|472:190|447:154|460:106,1,153.000002918243
512,299,110926,2,0,B|533:235|503:194|503:194|468:145|497:69,1,229.500004377365,8|0,0:0|0:0,0:0:0:0:
346,18,111471,5,0,1:2:0:0:
282,86,111608,2,0,B|202:93|202:93|196:99|196:99|124:106,1,153.000002918243
48,112,112017,1,10,0:0:0:0:
146,195,112153,1,2,0:0:0:0:
190,189,112289,1,2,0:0:0:0:
236,184,112426,1,2,0:0:0:0:
281,177,112562,2,0,B|329:177|359:149|359:149|333:182|341:224,1,153.000002918243,0|0,1:2|0:0,0:0:0:0:
417,205,112971,1,0,0:0:0:0:
257,275,113108,6,0,P|230:317|227:365,1,76.5000014591217,10|0,0:0|0:0,0:0:0:0:
110,149,113380,2,0,P|83:107|80:59,1,76.5000014591217,2|0,0:0|0:0,0:0:0:0:
34,348,113653,6,0,P|77:267|210:214,1,229.500004377365,2|0,1:2|0:0,0:0:0:0:
289,63,114199,2,0,P|247:87|191:78,1,76.5000014591217,10|0,0:0|0:0,0:0:0:0:
158,37,114471,1,2,0:0:0:0:
463,225,114744,2,0,P|439:183|448:127,1,76.5000014591217,2|0,1:2|0:0,0:0:0:0:
489,94,115016,1,2,0:0:0:0:
244,358,115289,2,0,P|286:334|342:343,1,76.5000014591217,10|0,0:0|0:0,0:0:0:0:
375,384,115561,1,2,0:0:0:0:
139,147,115835,6,0,B|121:112|121:112|143:64,1,76.5000014591217,2|0,1:2|0:0,0:0:0:0:
206,111,116108,1,2,0:0:0:0:
420,315,116380,2,0,B|438:280|438:280|416:232,1,76.5000014591217,10|0,0:0|0:0,0:0:0:0:
353,279,116653,1,2,0:0:0:0:
85,318,116926,2,0,B|120:336|120:336|168:314,1,76.5000014591217,2|0,1:2|0:0,0:0:0:0:
121,251,117199,1,2,0:0:0:0:
420,115,117471,2,0,P|392:83|343:78,1,76.5000014591217,10|0,0:0|0:0,0:0:0:0:
457,182,117744,2,0,P|489:154|494:105,1,76.5000014591217
375,341,118017,5,0,1:2:0:0:
302,303,118153,2,0,B|263:284|263:284|134:317|134:318|132:315,1,153.000002918243
76,335,118562,1,10,0:0:0:0:
159,214,118699,1,2,0:0:0:0:
115,197,118835,1,2,0:0:0:0:
70,208,118971,1,2,0:0:0:0:
47,248,119108,5,0,1:2:0:0:
191,295,119244,2,0,P|248:235|229:164,1,153.000002918243
196,334,119653,2,0,P|267:281|251:137,1,229.500004377365,8|0,0:0|0:0,0:0:0:0:
86,39,120199,5,0,1:2:0:0:
153,92,120335,2,0,B|145:163|145:163|151:176|151:176|145:247,1,153.000002918243
137,327,120744,1,10,0:0:0:0:
226,278,120880,1,2,0:0:0:0:
271,270,121017,1,2,0:0:0:0:
316,264,121153,1,2,0:0:0:0:
361,257,121289,2,0,B|403:243|439:267|439:267|425:227|446:194,1,153.000002918243,0|0,1:2|0:0,0:0:0:0:
511,238,121699,1,0,0:0:0:0:
347,131,121835,6,0,P|315:153|265:158,1,76.5000014591217,8|0,0:0|0:0,0:0:0:0:
104,360,122108,2,0,P|136:338|186:333,1,76.5000014591217
98,135,122380,5,4,1:2:0:0:
