osu file format v14

[General]
AudioFilename: audio.mp3
AudioLeadIn: 0
PreviewTime: 52554
Countdown: 0
SampleSet: Soft
StackLeniency: 0.7
Mode: 0
LetterboxInBreaks: 0
WidescreenStoryboard: 1

[Editor]
Bookmarks: 17645,35100,52554,61281,70009,87463,104918,122372
DistanceSpacing: 1.2
BeatDivisor: 4
GridSize: 32
TimelineZoom: 2

[Metadata]
Title:Stardust (Cut Ver.)
TitleUnicode:Stardust (Cut Ver.)
Artist:Geoxor
ArtistUnicode:Geoxor
Creator:Zer0-
Version:Easy
Source:
Tags:electronic instrumental dubstep pachiru glitch hop featured artist fa
BeatmapID:2794530
BeatmapSetID:1349715

[Difficulty]
HPDrainRate:4
CircleSize:3
OverallDifficulty:3
ApproachRate:4
SliderMultiplier:1
SliderTickRate:1

[Events]
//Background and Video events
0,0,"65329348_p0.jpg",0,0
//Break Periods
2,52762,59969
//Storyboard Layer 0 (Background)
//Storyboard Layer 1 (Fail)
//Storyboard Layer 2 (Pass)
//Storyboard Layer 3 (Foreground)
//Storyboard Layer 4 (Overlay)
//Storyboard Sound Samples

[TimingPoints]
199,545.454545454546,4,2,1,40,1,0
17653,-100,4,2,1,70,0,0
35108,-100,4,2,1,70,0,1
52562,-100,4,2,1,70,0,0
61289,-100,4,2,1,40,0,0
69471,-100,4,2,1,70,0,0
70017,-100,4,2,1,70,0,0

[Colours]
Combo1 : 175,68,85
Combo2 : 64,94,128
Combo3 : 200,172,172
Combo4 : 42,104,166

[HitObjects]
185,292,199,6,0,B|191:239|123:184|105:134|111:47|210:23|283:58|274:156|230:170,1,400,2|2,0:0|0:0,0:0:0:0:
300,268,2926,1,2,0:0:0:0:
417,290,3471,1,2,0:0:0:0:
497,200,4017,1,2,0:0:0:0:
452,78,4562,6,0,B|269:29|277:234|75:146,1,400,2|2,0:0|0:0,0:0:0:0:
27,255,7289,1,2,0:0:0:0:
115,336,7835,1,2,0:0:0:0:
216,271,8380,1,2,0:0:0:0:
200,151,8926,6,0,P|242:86|407:251,1,400,2|2,0:0|0:0,0:0:0:0:
341,328,11653,1,2,0:0:0:0:
237,266,12199,1,2,0:0:0:0:
145,343,12744,1,2,0:0:0:0:
55,263,13289,6,0,B|26:164|26:164|37:124|37:124|8:7|8:7|74:31|74:31|93:93,1,400,2|2,0:0|0:0,0:0:0:0:
173,181,16017,1,2,0:0:0:0:
284,136,16562,1,2,0:0:0:0:
364,224,17108,2,0,P|358:248|345:269,1,50,10|2,0:0|0:0,0:0:0:0:
287,286,17653,5,4,1:2:0:0:
186,351,18199,2,0,B|86:350|87:251|-14:276,1,200,8|10,0:0|0:0,0:0:0:0:
4,152,19835,1,0,1:2:0:0:
95,74,20380,2,0,P|182:119|280:109,1,200,8|10,0:0|0:0,0:0:0:0:
381,43,22017,5,0,1:2:0:0:
455,136,22562,2,0,L|425:346,1,200,8|10,0:0|0:0,0:0:0:0:
310,365,24199,1,0,1:2:0:0:
232,273,24744,1,8,0:0:0:0:
138,348,25289,1,0,1:2:0:0:
62,254,25835,2,0,L|71:189,1,50,8|0,0:0|0:0,0:0:0:0:
77,145,26380,5,0,1:2:0:0:
180,83,26926,2,0,P|259:138|352:113,1,200,8|10,0:0|0:0,0:0:0:0:
462,65,28562,1,0,1:2:0:0:
499,178,29108,2,0,L|469:381,1,200,8|10,0:0|0:0,0:0:0:0:
367,313,30744,5,0,1:2:0:0:
254,354,31289,2,0,P|190:352|91:254,1,200,8|10,0:0|0:0,0:0:0:0:
43,154,32926,1,0,1:2:0:0:
126,67,33471,1,8,0:0:0:0:
226,132,34017,1,2,1:2:0:0:
316,53,34562,2,0,P|342:54|364:64,1,50,10|2,0:0|0:0,0:0:0:0:
413,97,35108,5,4,1:2:0:0:
367,207,35653,2,0,B|275:235|267:124|170:170,1,200,8|10,0:0|0:0,0:0:0:0:
71,212,37289,1,0,1:2:0:0:
110,325,37835,2,0,B|182:314|182:314|208:322|208:322|312:304,1,200,8|10,0:0|0:0,0:0:0:0:
424,283,39471,5,0,1:2:0:0:
480,177,40017,2,0,P|416:195|297:108,1,200,8|10,0:0|0:0,0:0:0:0:
262,25,41653,1,0,1:2:0:0:
171,103,42199,1,8,0:0:0:0:
179,222,42744,1,0,1:2:0:0:
92,305,43289,2,0,P|54:304|35:293,1,50,8|0,0:0|0:0,0:0:0:0:
23,242,43835,5,0,1:2:0:0:
34,122,44380,2,0,B|125:105|124:198|216:184,1,200,8|10,0:0|0:0,0:0:0:0:
329,145,46017,1,0,1:2:0:0:
404,237,46562,2,0,B|436:271|451:321|451:321|459:270|493:229,1,200,8|10,0:0|0:0,0:0:0:0:
503,109,48199,5,0,1:2:0:0:
408,35,48744,2,0,P|319:85|321:202,1,200,8|10,0:0|0:0,0:0:0:0:
325,293,50380,1,0,1:2:0:0:
214,340,50926,1,8,0:0:0:0:
106,287,51471,1,2,1:2:0:0:
93,167,52017,2,0,L|94:117,1,50,10|2,0:0|0:0,0:0:0:0:
98,57,52562,5,4,1:2:0:0:
344,98,61289,5,2,1:2:0:0:
344,98,61835,2,0,P|312:131|168:100,1,200,10|10,0:0|0:0,0:0:0:0:
70,46,63471,1,2,1:2:0:0:
70,46,64017,2,0,L|84:250,1,200,10|10,0:0|0:0,0:0:0:0:
164,334,65653,5,0,1:2:0:0:
164,334,66199,2,0,B|254:350|254:253|338:253,1,200,8|10,0:0|0:0,0:0:0:0:
456,237,67835,1,2,1:2:0:0:
490,122,68380,1,10,0:0:0:0:
398,44,68926,1,2,1:2:0:0:
295,106,69471,1,8,0:0:0:0:
174,104,70017,6,0,P|160:32|128:2,2,100,4|8|0,1:2|0:0|1:2,0:0:0:0:
111,206,71653,1,8,0:0:0:0:
164,312,72199,2,0,P|211:296|260:293,1,100,0|10,1:2|0:0,0:0:0:0:
349,213,73289,2,0,P|396:229|445:232,1,100,0|8,1:2|0:0,0:0:0:0:
500,125,74380,5,0,1:2:0:0:
417,37,74926,1,8,0:0:0:0:
300,64,75471,1,0,1:2:0:0:
264,178,76017,1,8,0:0:0:0:
147,204,76562,2,0,P|89:195|53:150,1,100,0|10,1:2|0:0,0:0:0:0:
116,60,77653,2,0,P|173:68|209:113,1,100,0|8,1:2|0:0,0:0:0:0:
256,203,78744,6,0,L|241:301,2,100,0|8|0,1:2|0:0|1:2,0:0:0:0:
355,135,80380,1,8,0:0:0:0:
264,56,80926,2,0,B|210:51|210:51|172:77,1,100,0|10,1:2|0:0,0:0:0:0:
64,130,82017,2,0,B|59:184|59:184|85:221,1,100,0|8,1:2|0:0,0:0:0:0:
98,340,83108,5,0,1:2:0:0:
211,301,83653,1,8,0:0:0:0:
324,340,84199,1,0,1:2:0:0:
437,301,84745,1,8,0:0:0:0:
452,182,85289,2,0,P|404:172|368:204,1,100,0|10,1:2|0:0,0:0:0:0:
253,170,86380,2,0,P|205:179|169:147,1,100,0|8,1:2|0:0,0:0:0:0:
53,116,87471,6,0,L|66:215,1,100,6|10,1:2|0:0,0:0:0:0:
96,331,88562,1,2,1:2:0:0:
212,360,89108,1,10,0:0:0:0:
324,317,89653,2,0,P|300:273|257:248,1,100,2|10,1:2|0:0,0:0:0:0:
149,197,90744,1,2,1:2:0:0:
153,77,91289,1,10,0:0:0:0:
254,141,91835,6,0,P|303:136|343:108,1,100,0|10,1:2|0:0,0:0:0:0:
445,171,92926,2,0,P|424:216|428:265,1,100,0|8,1:2|0:0,0:0:0:0:
346,353,94017,2,0,P|234:320|132:332,1,200,0|0,1:2|1:2,0:0:0:0:
34,304,95653,1,10,0:0:0:0:
12,185,96199,6,0,L|25:85,1,100,2|10,1:2|0:0,0:0:0:0:
126,21,97289,1,2,1:2:0:0:
224,89,97835,1,10,0:0:0:0:
338,54,98380,2,0,L|441:85,1,100,2|10,1:2|0:0,0:0:0:0:
503,180,99471,1,2,1:2:0:0:
432,277,100017,1,10,0:0:0:0:
326,219,100562,6,0,P|280:238|256:281,1,100,0|10,1:2|0:0,0:0:0:0:
139,253,101653,2,0,P|145:204|120:162,1,100,0|8,1:2|0:0,0:0:0:0:
58,59,102744,2,0,B|134:51|134:51|164:64|164:64|257:52,1,200,0|0,1:2|1:2,0:0:0:0:
372,33,104380,1,10,0:0:0:0:
447,126,104926,6,0,B|471:172|471:172|444:212,1,100,4|10,1:2|0:0,0:0:0:0:
329,248,106017,2,0,L|339:347,2,100,2|10|2,1:2|0:0|1:2,0:0:0:0:
244,162,107653,1,10,0:0:0:0:
162,250,108199,1,2,1:2:0:0:
62,182,108744,1,10,0:0:0:0:
50,62,109289,6,0,P|91:89|140:95,1,100,0|10,1:2|0:0,0:0:0:0:
235,169,110380,2,0,P|276:141|325:135,1,100,0|8,1:2|0:0,0:0:0:0:
437,90,111471,2,0,L|410:312,1,200,0|0,1:2|1:2,0:0:0:0:
330,376,113108,1,10,0:0:0:0:
241,295,113653,6,0,L|138:308,1,100,2|10,1:2|0:0,0:0:0:0:
23,288,114744,2,0,P|13:336|29:383,2,100,2|10|2,1:2|0:0|1:2,0:0:0:0:
90,188,116380,1,10,0:0:0:0:
50,74,116926,1,2,1:2:0:0:
148,5,117471,1,10,0:0:0:0:
233,89,118017,6,0,P|282:90|327:70,1,100,0|10,1:2|0:0,0:0:0:0:
383,176,119108,2,0,P|432:174|477:194,1,100,0|8,1:2|0:0,0:0:0:0:
483,314,120199,2,0,B|387:289|386:386|298:355,1,200,0|0,1:2|1:2,0:0:0:0:
201,281,121835,1,8,0:0:0:0:
100,345,122380,5,4,1:2:0:0:
