osu file format v14

[General]
AudioFilename: Variations on the Kanon by Pachelbel.mp3
AudioLeadIn: 2000
PreviewTime: 107802
Countdown: 0
SampleSet: Soft
StackLeniency: 0.6
Mode: 0
LetterboxInBreaks: 0
WidescreenStoryboard: 1

[Editor]
Bookmarks: 173,13510,26985,40603,54498,68145,81829,95033,108007,121208,134051,146879,160017,173776,187017,200258,213293,226327,239258,252293,265431,278465,292017,308052
DistanceSpacing: 0.8
BeatDivisor: 4
GridSize: 4
TimelineZoom: 1.4

[Metadata]
Title:Variations on the Kanon by Pachelbel
TitleUnicode:Variations on the Kanon by Pachelbel
Artist:George Winston
ArtistUnicode:George Winston
Creator:liangv587
Version::D
Source:
Tags:December Canon Johann
BeatmapID:674887
BeatmapSetID:278727

[Difficulty]
HPDrainRate:5
CircleSize:4.8
OverallDifficulty:7
ApproachRate:8
SliderMultiplier:1.6
SliderTickRate:1

[Events]
//Background and Video events
0,0,"37203249_p0.jpg",0,0
//Break Periods
//Storyboard Layer 0 (Background)
//Storyboard Layer 1 (Fail)
//Storyboard Layer 2 (Pass)
//Storyboard Layer 3 (Foreground)
//Storyboard Sound Samples

[TimingPoints]
321,419.58041958042,4,2,1,30,1,0
321,-200,4,2,1,30,0,0
635,-200,4,2,1,20,0,0
1055,-200,4,2,1,15,0,0
1474,-200,4,2,1,10,0,0
1999,413.793103448276,4,2,1,20,1,0
3654,422.535211267606,4,2,1,30,1,0
3654,-200,4,2,1,30,0,0
3970,-200,4,2,1,20,0,0
4393,-200,4,2,1,15,0,0
4815,-200,4,2,1,10,0,0
5344,404.040404040404,4,2,1,20,1,0
6960,413.793103448276,4,2,1,30,1,0
6960,-200,4,2,1,30,0,0
7270,-200,4,2,1,20,0,0
7684,-200,4,2,1,15,0,0
8097,-200,4,2,1,10,0,0
8615,428.571428571429,4,2,1,10,1,0
10329,431.654676258993,4,2,1,30,1,0
10329,-200,4,2,1,30,0,0
10652,-200,4,2,1,20,0,0
11084,-200,4,2,1,15,0,0
11516,-200,4,2,1,10,0,0
12055,402.684563758389,4,2,1,20,1,0
13665,405.405405405405,4,2,1,30,1,0
13665,-200,4,2,1,30,0,0
14374,-200,4,2,1,30,0,0
15286,419.58041958042,4,2,1,30,1,0
16964,434.782608695652,4,2,1,30,1,0
16964,-200,4,2,1,30,0,0
17290,-200,4,2,1,20,0,0
17724,-200,4,2,1,30,0,0
18159,-200,4,2,1,20,0,0
18703,413.793103448276,4,2,1,30,1,0
20358,421.644413211525,4,2,1,30,1,0
20358,-200,4,2,1,30,0,0
20674,-200,4,2,1,20,0,0
21095,-200,4,2,1,30,0,0
21517,-200,4,2,1,20,0,0
22044,431.654676258993,4,2,1,10,1,0
23770,421.644413211525,4,2,1,30,1,0
23770,-200,4,2,1,30,0,0
24086,-200,4,2,1,20,0,0
24507,-200,4,2,1,30,0,0
24929,-200,4,2,1,20,0,0
25456,425.531914893617,4,2,1,30,1,0
27158,408.997955010225,4,2,1,30,1,0
27158,-200,4,2,1,30,0,0
28282,-200,4,2,1,10,0,0
28793,434.782608695652,4,2,1,40,1,0
29553,-100,4,2,1,20,0,0
30532,419.58041958042,4,2,1,30,1,0
30532,-200,4,2,1,30,0,0
31685,-200,4,2,1,10,0,0
32210,437.956204379562,4,2,1,40,1,0
33085,428.571428571429,4,2,1,30,1,0
33942,422.535211267606,4,2,1,30,1,0
33942,-200,4,2,1,30,0,0
35103,-200,4,2,1,5,0,0
35632,437.956204379562,4,2,1,20,1,0
36507,408.163265306122,4,2,1,20,1,0
37323,431.654676258993,4,2,1,20,1,0
37323,-200,4,2,1,20,0,0
38510,-200,4,2,1,10,0,0
39049,454.545454545455,4,2,1,40,1,0
39958,419.58041958042,4,2,1,20,1,0
40797,451.127819548872,4,2,1,30,1,0
40797,-166.666666666667,4,2,1,30,0,0
41135,-166.666666666667,4,2,1,20,0,0
41699,434.782608695652,4,2,1,20,1,0
42568,431.654676258993,4,2,1,30,1,0
42568,-166.666666666667,4,2,1,30,0,0
42999,410.958904109589,4,2,1,20,1,0
43409,447.761194029851,4,2,1,30,1,0
44304,437.956204379562,4,2,1,30,1,0
44304,-166.666666666667,4,2,1,30,0,0
44632,-166.666666666667,4,2,1,20,0,0
45179,451.127819548872,4,2,1,30,1,0
46081,428.571428571429,4,2,1,30,1,0
46081,-166.666666666667,4,2,1,30,0,0
46402,-166.666666666667,4,2,1,20,0,0
46938,434.782608695652,4,2,1,30,1,0
47807,419.58041958042,4,2,1,30,1,0
48646,425.531914893617,4,2,1,30,1,0
49497,444.444444444444,4,2,1,30,1,0
49497,-200,4,2,1,30,0,0
49941,422.535211267606,4,2,1,20,1,0
50363,437.956204379562,4,2,1,30,1,0
51238,444.444444444444,4,2,1,30,1,0
51238,-200,4,2,1,30,0,0
51682,419.58041958042,4,2,1,20,1,0
52101,428.571428571429,4,2,1,30,1,0
52958,458.015267175573,4,2,1,30,1,0
52958,-200,4,2,1,30,0,0
53416,425.531914893617,4,2,1,20,1,0
53841,431.654676258993,4,2,1,30,1,0
54164,-100,4,2,1,20,0,0
54704,422.535211267606,4,2,1,30,1,0
55126,431.654676258993,4,2,1,20,1,0
55557,434.782608695652,4,2,1,30,1,0
55991,422.535211267606,4,2,1,20,1,0
56413,454.545454545455,4,2,1,30,1,0
56413,-200,4,2,1,30,0,0
56867,428.571428571429,4,2,1,20,1,0
57295,428.571428571429,4,2,1,30,1,0
58152,454.545454545455,4,2,1,30,1,0
58152,-200,4,2,1,30,0,0
58606,410.958904109589,4,2,1,20,1,0
59016,441.176470588235,4,2,1,30,1,0
59016,-200,4,2,1,30,0,0
59457,444.444444444444,4,2,1,20,1,0
59901,416.666666666667,4,2,1,30,1,0
60213,-100,4,2,1,20,0,0
60734,428.571428571429,4,2,1,30,1,0
61162,434.782608695652,4,2,1,20,1,0
61596,419.58041958042,4,2,1,30,1,0
61596,-200,4,2,1,30,0,0
62015,410.958904109589,4,2,1,20,1,0
62425,-200,4,2,1,30,0,0
62836,422.535211267606,4,2,1,20,1,0
63258,425.531914893617,4,2,1,30,1,0
63683,416.666666666667,4,2,1,20,1,0
64099,410.958904109589,4,2,1,30,1,0
64509,441.176470588235,4,2,1,20,1,0
64950,419.58041958042,4,2,1,30,1,0
65789,-200,4,2,1,30,0,0
66208,422.535211267606,4,2,1,20,1,0
66630,434.782608695652,4,2,1,30,1,0
66630,-200,4,2,1,30,0,0
67064,437.956204379562,4,2,1,30,1,0
67939,428.571428571429,4,2,1,30,1,0
68367,416.666666666667,4,2,1,30,1,0
68783,428.571428571429,4,2,1,30,1,0
69211,422.535211267606,4,2,1,30,1,0
69633,441.176470588235,4,2,1,30,1,0
70074,441.176470588235,4,2,1,30,1,0
70074,-200,4,2,1,30,0,0
70956,428.571428571429,4,2,1,30,1,0
70956,-200,4,2,1,30,0,0
71384,416.666666666667,4,2,1,30,1,0
71800,461.538461538462,4,2,1,30,1,0
71800,-200,4,2,1,30,0,0
72261,428.571428571429,4,2,1,20,1,0
72689,428.571428571429,4,2,1,30,1,0
72689,-200,4,2,1,30,0,0
73117,444.444444444444,4,2,1,30,1,0
73561,422.535211267606,4,2,1,30,1,0
73983,413.793103448276,4,2,1,30,1,0
74396,434.782608695652,4,2,1,30,1,0
74396,-200,4,2,1,30,0,0
75265,416.666666666667,4,2,1,30,1,0
75681,413.793103448276,4,2,1,30,1,0
76094,441.176470588235,4,2,1,30,1,0
76094,-200,4,2,1,30,0,0
76535,405.405405405405,4,2,1,30,1,0
76940,441.176470588235,4,2,1,30,1,0
77822,416.666666666667,4,2,1,30,1,0
77822,-200,4,2,1,30,0,0
78238,425.531914893617,4,2,1,20,1,0
78663,431.654676258993,4,2,1,30,1,0
79094,419.58041958042,4,2,1,30,1,0
79933,428.571428571429,4,2,1,30,1,0
80361,441.176470588235,4,2,1,30,1,0
80361,-133.333333333333,4,2,1,30,0,0
80802,413.793103448276,4,2,1,30,1,0
81215,-133.333333333333,4,2,1,30,0,0
81628,416.666666666667,4,2,1,30,1,0
82044,434.782608695652,4,2,1,30,1,0
82478,400,4,2,1,30,1,0
82478,-133.333333333333,4,2,1,30,0,0
82578,-133.333333333333,4,2,1,20,0,0
82878,419.58041958042,4,2,1,30,1,0
83717,428.571428571429,4,2,1,30,1,0
83717,-133.333333333333,4,2,1,30,0,0
84145,422.535211267606,4,2,1,30,1,0
84356,408.163265306122,4,2,1,30,1,0
84968,422.535211267606,4,2,1,30,1,0
84968,-133.333333333333,4,2,1,30,0,0
85390,434.782608695652,4,2,1,30,1,0
85390,-133.333333333333,4,2,1,30,0,0
86042,405.405405405405,4,2,1,30,1,0
86042,-133.333333333333,4,2,1,30,0,0
86447,392.156862745098,4,2,1,30,1,0
86643,422.535211267606,4,2,1,30,1,0
86643,-133.333333333333,4,2,1,30,0,0
87065,405.405405405405,4,2,1,30,1,0
87470,405.405405405405,4,2,1,30,1,0
87470,-133.333333333333,4,2,1,30,0,0
87875,410.958904109589,4,2,1,30,1,0
88285,400,4,2,1,30,1,0
88685,413.793103448276,4,2,1,30,1,0
88685,-133.333333333333,4,2,1,30,0,0
89305,405.405405405405,4,2,1,30,1,0
89305,-133.333333333333,4,2,1,30,0,0
89913,394.736842105263,4,2,1,30,1,0
90110,441.176470588235,4,2,1,30,1,0
90330,428.571428571429,4,2,1,30,1,0
90758,410.958904109589,4,2,1,30,1,0
91990,419.58041958042,4,2,1,30,1,0
91990,-133.333333333333,4,2,1,30,0,0
92619,379.746835443038,4,2,1,30,1,0
92808,410.958904109589,4,2,1,30,1,0
93629,416.666666666667,4,2,1,30,1,0
93837,392.156862745098,4,2,1,30,1,0
94229,413.793103448276,4,2,1,30,1,0
94435,422.535211267606,4,2,1,30,1,0
94435,-133.333333333333,4,2,1,30,0,0
94857,400,4,2,1,30,1,0
94857,-133.333333333333,4,2,1,30,0,0
95257,416.666666666667,4,2,1,30,1,0
95673,410.958904109589,4,2,1,30,1,0
96083,413.793103448276,4,2,1,30,1,0
96496,405.405405405405,4,2,1,30,1,0
96698,468.75,4,2,1,30,1,0
96932,400,4,2,1,30,1,0
97132,-133.333333333333,4,2,1,30,0,0
97332,413.793103448276,4,2,1,30,1,0
97538,400,4,2,1,30,1,0
97738,394.736842105263,4,2,1,30,1,0
97738,-133.333333333333,4,2,1,30,0,0
98330,472.44094488189,4,2,1,30,1,0
98566,422.535211267606,4,2,1,30,1,0
98566,-133.333333333333,4,2,1,30,0,0
98988,352.941176470588,4,2,1,30,1,0
99164,454.545454545455,4,2,1,30,1,0
99164,-133.333333333333,4,2,1,30,0,0
99391,410.958904109589,4,2,1,30,1,0
99596,379.746835443038,4,2,1,30,1,0
99785,413.793103448276,4,2,1,30,1,0
99785,-133.333333333333,4,2,1,30,0,0
99991,441.176470588235,4,2,1,30,1,0
100211,384.615384615385,4,2,1,30,1,0
100595,408.163265306122,4,2,1,30,1,0
100595,-133.333333333333,4,2,1,30,0,0
101615,416.666666666667,4,2,1,30,1,0
101823,413.793103448276,4,2,1,30,1,0
101823,-133.333333333333,4,2,1,30,0,0
102443,379.746835443038,4,2,1,30,1,0
102443,-133.333333333333,4,2,1,30,0,0
102632,400,4,2,1,30,1,0
102832,387.096774193548,4,2,1,30,1,0
103025,405.405405405405,4,2,1,30,1,0
103025,-133.333333333333,4,2,1,30,0,0
103430,413.793103448276,4,2,1,30,1,0
103430,-133.333333333333,4,2,1,30,0,0
103843,394.736842105263,4,2,1,30,1,0
104237,422.535211267606,4,2,1,30,1,0
104237,-133.333333333333,4,2,1,30,0,0
104659,408.163265306122,4,2,1,30,1,0
105067,413.793103448276,4,2,1,30,1,0
105067,-133.333333333333,4,2,1,30,0,0
105273,419.58041958042,4,2,1,30,1,0
105482,402.684563758389,4,2,1,30,1,0
105482,-133.333333333333,4,2,1,30,0,0
106287,394.736842105263,4,2,1,30,1,0
106681,408.163265306122,4,2,1,30,1,0
106681,-133.333333333333,4,2,1,30,0,0
107905,410.958904109589,4,2,1,30,1,0
108110,434.782608695652,4,2,1,30,1,0
108327,422.535211267606,4,2,1,40,1,0
108749,400,4,2,1,40,1,0
109149,405.405405405405,4,2,1,40,1,0
109554,375,4,2,1,40,1,0
109929,422.535211267606,4,2,1,40,1,0
110351,394.736842105263,4,2,1,40,1,0
110548,410.958904109589,4,2,1,40,1,0
110753,444.444444444444,4,2,1,40,1,0
110975,400,4,2,1,40,1,0
111175,405.405405405405,4,2,1,40,1,0
111580,416.666666666667,4,2,1,40,1,0
111996,405.405405405405,4,2,1,40,1,0
112401,405.405405405405,4,2,1,40,1,0
113211,405.405405405405,4,2,1,40,1,0
113413,363.636363636364,4,2,1,40,1,0
113594,434.782608695652,4,2,1,40,1,0
113811,428.571428571429,4,2,1,40,1,0
114025,394.736842105263,4,2,1,40,1,0
114222,416.666666666667,4,2,1,40,1,0
114430,379.746835443038,4,2,1,40,1,0
114619,425.531914893617,4,2,1,40,1,0
114831,405.405405405405,4,2,1,40,1,0
115236,394.736842105263,4,2,1,40,1,0
115630,419.58041958042,4,2,1,40,1,0
116049,387.096774193548,4,2,1,40,1,0
116242,454.545454545455,4,2,1,40,1,0
116469,389.61038961039,4,2,1,40,1,0
116858,392.156862745098,4,2,1,40,1,0
117250,408.163265306122,4,2,1,40,1,0
118066,405.405405405405,4,2,1,40,1,0
118876,413.793103448276,4,2,1,40,1,0
119703,405.405405405405,4,2,1,40,1,0
120716,384.615384615385,4,2,1,40,1,0
120908,400,4,2,1,40,1,0
121308,428.571428571429,4,2,1,40,1,1
121736,389.61038961039,4,2,1,40,1,1
122125,410.958904109589,4,2,1,40,1,1
122535,375,4,2,1,40,1,1
122910,413.793103448276,4,2,1,40,1,1
123737,389.61038961039,4,2,1,40,1,1
124126,400,4,2,1,40,1,1
124526,425.531914893617,4,2,1,40,1,1
124951,387.096774193548,4,2,1,40,1,1
125338,405.405405405405,4,2,1,40,1,1
125743,400,4,2,1,40,1,1
126143,400,4,2,1,40,1,1
127543,394.736842105263,4,2,1,40,1,1
127740,405.405405405405,4,2,1,40,1,1
129361,389.61038961039,4,2,1,40,1,1
129750,379.746835443038,4,2,1,40,1,1
129939,410.958904109589,4,2,1,40,1,1
130144,422.535211267606,4,2,1,40,1,1
130566,400,4,2,1,40,1,1
130966,400,4,2,1,40,1,1
131766,405.405405405405,4,2,1,40,1,1
132576,400,4,2,1,40,1,1
133776,384.615384615385,4,2,1,40,1,1
134160,428.571428571429,4,2,1,40,1,1
134588,394.736842105263,4,2,1,40,1,1
134785,416.666666666667,4,2,1,40,1,1
134993,410.958904109589,4,2,1,40,1,1
135403,384.615384615385,4,2,1,40,1,1
135787,400,4,2,1,40,1,1
137387,422.535211267606,4,2,1,40,1,1
137809,400,4,2,1,40,1,1
138209,394.736842105263,4,2,1,40,1,1
138603,405.405405405405,4,2,1,40,1,1
139008,394.736842105263,4,2,1,40,1,1
140192,416.666666666667,4,2,1,40,1,1
140608,402.684563758389,4,2,1,40,1,1
141010,384.615384615385,4,2,1,40,1,1
141202,422.535211267606,4,2,1,40,1,1
141413,410.958904109589,4,2,1,40,1,1
141823,379.746835443038,4,2,1,40,1,1
142012,428.571428571429,4,2,1,40,1,1
142226,387.096774193548,4,2,1,40,1,1
143000,405.405405405405,4,2,1,40,1,1
143202,441.176470588235,4,2,1,40,1,1
143422,389.61038961039,4,2,1,40,1,1
143616,416.666666666667,4,2,1,40,1,1
143824,410.958904109589,4,2,1,40,1,1
144234,405.405405405405,4,2,1,40,1,1
144639,410.958904109589,4,2,1,40,1,1
145460,402.684563758389,4,2,1,40,1,1
147070,422.535211267606,4,2,1,30,1,0
148548,400,4,2,1,30,1,0
148748,408.163265306122,4,2,1,30,1,0
150380,402.684563758389,4,2,1,30,1,0
150782,413.793103448276,4,2,1,30,1,0
151195,428.571428571429,4,2,1,30,1,0
151623,405.405405405405,4,2,1,30,1,0
152028,422.535211267606,4,2,1,30,1,0
152239,384.615384615385,4,2,1,30,1,0
152431,434.782608695652,4,2,1,30,1,0
152648,400,4,2,1,30,1,0
152848,428.571428571429,4,2,1,30,1,0
153276,389.61038961039,4,2,1,30,1,0
153665,413.793103448276,4,2,1,30,1,0
154078,405.405405405405,4,2,1,30,1,0
154483,413.793103448276,4,2,1,30,1,0
154896,431.654676258993,4,2,1,30,1,0
155327,434.782608695652,4,2,1,30,1,0
155544,405.405405405405,4,2,1,30,1,0
155746,405.405405405405,4,2,1,30,1,0
156151,387.096774193548,4,2,1,30,1,0
156344,416.666666666667,4,2,1,30,1,0
156552,400,4,2,1,30,1,0
156952,419.58041958042,4,2,1,30,1,0
158630,394.736842105263,4,2,1,30,1,0
159419,410.958904109589,4,2,1,30,1,0
160240,427.655024946543,4,2,1,30,1,0
160240,-133.333333333333,4,2,1,30,0,0
162805,437.956204379562,4,2,1,30,1,0
163242,434.782608695652,4,2,1,30,1,0
163676,422.535211267606,4,2,1,30,1,0
163676,-133.333333333333,4,2,1,30,0,0
164521,434.782608695652,4,2,1,30,1,0
165390,419.58041958042,4,2,1,30,1,0
165390,-133.333333333333,4,2,1,30,0,0
167068,428.571428571429,4,2,1,30,1,0
167068,-133.333333333333,4,2,1,30,0,0
169639,422.535211267606,4,2,1,30,1,0
170061,468.75,4,2,1,30,1,0
170529,410.958904109589,4,2,1,30,1,0
170529,-133.333333333333,4,2,1,30,0,0
171761,451.127819548872,4,2,1,30,1,0
172212,400,4,2,1,30,1,0
172212,-133.333333333333,4,2,1,30,0,0
172612,444.444444444444,4,2,1,30,1,0
173056,410.958904109589,4,2,1,30,1,0
173466,441.176470588235,4,2,1,30,1,0
173466,-133.333333333333,4,2,1,30,0,0
173907,413.793103448276,4,2,1,30,1,0
174320,422.535211267606,4,2,1,30,1,0
174320,-133.333333333333,4,2,1,30,0,0
174742,400,4,2,1,30,1,0
175142,461.538461538462,4,2,1,30,1,0
175142,-133.333333333333,4,2,1,30,0,0
175603,384.615384615385,4,2,1,30,1,0
175987,422.535211267606,4,2,1,30,1,0
176832,434.782608695652,4,2,1,30,1,0
176832,-133.333333333333,4,2,1,30,0,0
177266,434.782608695652,4,2,1,30,1,0
177483,379.746835443038,4,2,1,30,1,0
177672,447.761194029851,4,2,1,30,1,0
177672,-133.333333333333,4,2,1,30,0,0
178119,387.096774193548,4,2,1,30,1,0
178506,444.444444444444,4,2,1,30,1,0
178506,-133.333333333333,4,2,1,30,0,0
178950,441.176470588235,4,2,1,30,1,0
179170,379.746835443038,4,2,1,30,1,0
179359,410.958904109589,4,2,1,30,1,0
179359,-133.333333333333,4,2,1,30,0,0
180180,461.538461538462,4,2,1,30,1,0
180180,-133.333333333333,4,2,1,30,0,0
180641,375,4,2,1,30,1,0
180828,400,4,2,1,30,1,0
181028,405.405405405405,4,2,1,30,1,0
181028,-133.333333333333,4,2,1,30,0,0
181433,422.535211267606,4,2,1,30,1,0
181855,454.545454545455,4,2,1,30,1,0
181855,-133.333333333333,4,2,1,30,0,0
182309,400,4,2,1,30,1,0
182709,-133.333333333333,4,2,1,30,0,0
183509,428.571428571429,4,2,1,30,1,0
183509,-133.333333333333,4,2,1,30,0,0
183937,400,4,2,1,30,1,0
184737,-133.333333333333,4,2,1,30,0,0
185537,413.793103448276,4,2,1,30,1,0
186778,444.444444444444,4,2,1,30,1,0
187222,375,4,2,1,30,1,0
187409,400,4,2,1,30,1,0
187609,387.096774193548,4,2,1,30,1,0
187609,-133.333333333333,4,2,1,30,0,0
187802,437.956204379562,4,2,1,30,1,0
188020,428.571428571429,4,2,1,30,1,0
188877,428.571428571429,4,2,1,30,1,0
189305,405.405405405405,4,2,1,30,1,0
189710,-133.333333333333,4,2,1,30,0,0
190115,434.782608695652,4,2,1,30,1,0
190115,-133.333333333333,4,2,1,30,0,0
190549,389.61038961039,4,2,1,30,1,0
190938,405.405405405405,4,2,1,30,1,0
190938,-133.333333333333,4,2,1,30,0,0
191343,416.666666666667,4,2,1,30,1,0
191759,422.535211267606,4,2,1,30,1,0
192181,405.405405405405,4,2,1,30,1,0
192586,416.666666666667,4,2,1,30,1,0
192586,-133.333333333333,4,2,1,30,0,0
193002,405.405405405405,4,2,1,30,1,0
193407,-133.333333333333,4,2,1,30,0,0
193812,410.958904109589,4,2,1,40,1,0
193812,-133.333333333333,4,2,1,40,0,0
194222,454.545454545455,4,2,1,40,1,0
194449,384.615384615385,4,2,1,40,1,0
194641,422.535211267606,4,2,1,40,1,0
195063,400,4,2,1,40,1,0
195063,-133.333333333333,4,2,1,40,0,0
195263,410.958904109589,4,2,1,40,1,0
195468,413.793103448276,4,2,1,40,1,0
195468,-133.333333333333,4,2,1,40,0,0
195881,400,4,2,1,40,1,0
196281,416.666666666667,4,2,1,40,1,0
196281,-133.333333333333,4,2,1,40,0,0
196697,-133.333333333333,4,2,1,40,0,0
197114,400,4,2,1,40,1,0
197514,405.405405405405,4,2,1,40,1,0
198324,410.958904109589,4,2,1,40,1,0
198324,-133.333333333333,4,2,1,40,0,0
198734,422.535211267606,4,2,1,40,1,0
199156,410.958904109589,4,2,1,40,1,0
199156,-133.333333333333,4,2,1,40,0,0
199977,400,4,2,1,40,1,0
199977,-133.333333333333,4,2,1,40,0,0
200377,422.535211267606,4,2,1,40,1,0
200588,405.405405405405,4,2,1,40,1,0
200790,394.736842105263,4,2,1,40,1,0
201184,416.666666666667,4,2,1,40,1,0
201600,400,4,2,1,40,1,0
201800,454.545454545455,4,2,1,40,1,0
202027,375,4,2,1,40,1,0
202214,408.163265306122,4,2,1,40,1,0
202418,422.535211267606,4,2,1,40,1,0
202629,402.684563758389,4,2,1,40,1,0
202830,384.615384615385,4,2,1,40,1,0
203022,410.958904109589,4,2,1,40,1,0
203227,419.58041958042,4,2,1,40,1,0
203646,419.58041958042,4,2,1,40,1,0
204485,384.615384615385,4,2,1,40,1,0
204869,405.405405405405,4,2,1,40,1,0
205071,375,4,2,1,40,1,0
205258,434.782608695652,4,2,1,40,1,0
205692,400,4,2,1,40,1,0
205892,434.782608695652,4,2,1,40,1,0
206109,394.736842105263,4,2,1,40,1,0
206503,416.666666666667,4,2,1,40,1,0
206711,400,4,2,1,40,1,0
206911,419.58041958042,4,2,1,40,1,0
207330,394.736842105263,4,2,1,40,1,0
207527,405.405405405405,4,2,1,40,1,0
207932,400,4,2,1,40,1,0
208132,387.096774193548,4,2,1,40,1,0
208325,441.176470588235,4,2,1,40,1,0
208545,413.793103448276,4,2,1,40,1,0
209372,402.684563758389,4,2,1,40,1,0
210177,402.684563758389,4,2,1,40,1,0
210579,441.176470588235,4,2,1,40,1,0
210799,402.684563758389,4,2,1,40,1,0
211805,408.163265306122,4,2,1,40,1,0
213437,400,4,2,1,40,1,0
215037,405.405405405405,4,2,1,40,1,0
216658,413.793103448276,4,2,1,40,1,0
217071,400,4,2,1,40,1,0
217271,428.571428571429,4,2,1,40,1,0
217485,405.405405405405,4,2,1,40,1,0
218295,405.405405405405,4,2,1,40,1,0
218700,392.156862745098,4,2,1,40,1,0
219092,397.350993377483,4,2,1,40,1,0
219489,402.684563758389,4,2,1,40,1,0
219891,500,4,2,1,40,1,0
219891,-83.3333333333333,4,2,1,40,0,0
220141,357.142857142857,4,2,1,30,1,0
220319,419.58041958042,4,2,1,30,1,0
220528,384.615384615385,4,2,1,30,1,0
220720,413.793103448276,4,2,1,30,1,0
221133,400,4,2,1,30,1,0
221533,441.176470588235,4,2,1,30,1,0
221753,379.746835443038,4,2,1,30,1,0
221942,434.782608695652,4,2,1,30,1,0
222159,387.096774193548,4,2,1,30,1,0
222352,416.666666666667,4,2,1,30,1,0
222560,397.350993377483,4,2,1,30,1,0
222957,384.615384615385,4,2,1,30,1,0
223149,410.958904109589,4,2,1,30,1,0
223970,402.684563758389,4,2,1,35,1,0
224775,405.405405405405,4,2,1,35,1,0
226295,-100,4,2,1,30,0,0
228423,416.666666666667,4,2,1,30,1,0
228839,405.405405405405,4,2,1,30,1,0
229649,413.793103448276,4,2,1,30,1,0
230890,402.684563758389,4,2,1,30,1,0
231292,434.782608695652,4,2,1,30,1,0
231509,394.736842105263,4,2,1,30,1,0
231706,408.163265306122,4,2,1,30,1,0
232114,434.782608695652,4,2,1,30,1,0
232331,387.096774193548,4,2,1,30,1,0
232524,410.958904109589,4,2,1,30,1,0
232729,419.58041958042,4,2,1,30,1,0
232938,405.405405405405,4,2,1,30,1,0
233748,400,4,2,1,30,1,0
234548,416.666666666667,4,2,1,30,1,0
234964,368.098159509202,4,2,1,30,1,0
235148,428.571428571429,4,2,1,30,1,0
235362,419.58041958042,4,2,1,30,1,0
235781,379.746835443038,4,2,1,30,1,0
236160,434.782608695652,4,2,1,30,1,0
236594,400,4,2,1,30,1,0
237394,419.58041958042,4,2,1,30,1,0
237813,405.405405405405,4,2,1,30,1,0
238826,389.61038961039,4,2,1,30,1,0
239020,434.782608695652,4,2,1,30,1,0
239237,387.096774193548,4,2,1,30,1,0
239430,428.571428571429,4,2,1,35,1,0
239644,394.736842105263,4,2,1,35,1,0
239841,416.666666666667,4,2,1,35,1,0
240257,402.684563758389,4,2,1,35,1,0
241062,408.163265306122,4,2,1,35,1,0
241878,405.405405405405,4,2,1,35,1,0
242688,405.405405405405,4,2,1,35,1,0
242890,422.535211267606,4,2,1,35,1,0
243101,400,4,2,1,35,1,0
243301,405.405405405405,4,2,1,35,1,0
243503,402.684563758389,4,2,1,35,1,0
244308,451.127819548872,4,2,1,40,1,0
244533,375,4,2,1,40,1,0
244720,405.405405405405,4,2,1,40,1,0
245733,428.571428571429,4,2,1,40,1,0
245947,405.405405405405,4,2,1,40,1,0
246757,400,4,2,1,40,1,0
247357,461.538461538462,4,2,1,40,1,0
247587,387.096774193548,4,2,1,40,1,0
247780,392.156862745098,4,2,1,40,1,0
247976,405.405405405405,4,2,1,40,1,0
248786,422.535211267606,4,2,1,40,1,0
248997,384.615384615385,4,2,1,40,1,0
249189,422.535211267606,4,2,1,40,1,0
249400,387.096774193548,4,2,1,40,1,0
249593,408.163265306122,4,2,1,40,1,0
250817,408.163265306122,4,2,1,40,1,0
252449,405.405405405405,4,2,1,50,1,1
254881,416.666666666667,4,2,1,50,1,1
255714,422.535211267606,4,2,1,50,1,1
256347,405.405405405405,4,2,1,50,1,1
256549,365.853658536585,4,2,1,50,1,1
256731,410.958904109589,4,2,1,50,1,1
257347,441.176470588235,4,2,1,50,1,1
257567,394.736842105263,4,2,1,50,1,1
257764,389.61038961039,4,2,1,50,1,1
258153,416.666666666667,4,2,1,50,1,1
258986,416.666666666667,4,2,1,50,1,1
259819,375,4,2,1,50,1,1
260006,416.666666666667,4,2,1,50,1,1
260631,405.405405405405,4,2,1,50,1,1
261847,447.761194029851,4,2,1,50,1,1
262070,405.405405405405,4,2,1,50,1,1
262272,402.684563758389,4,2,1,50,1,1
262876,419.58041958042,4,2,1,50,1,1
263295,408.163265306122,4,2,1,50,1,1
263907,410.958904109589,4,2,1,50,1,1
264317,394.736842105263,4,2,1,50,1,1
265106,410.958904109589,4,2,1,50,1,1
265516,365.853658536585,4,2,1,50,1,1
265698,428.571428571429,4,2,1,50,1,1
266340,400,4,2,1,50,1,1
267140,410.958904109589,4,2,1,50,1,1
268372,402.684563758389,4,2,1,50,1,1
268774,410.958904109589,4,2,1,50,1,1
268979,419.58041958042,4,2,1,50,1,1
269398,405.405405405405,4,2,1,50,1,1
270411,375,4,2,1,50,1,1
270598,434.782608695652,4,2,1,50,1,1
270815,384.615384615385,4,2,1,50,1,1
271007,405.405405405405,4,2,1,50,1,1
271209,476.190476190476,4,2,1,50,1,1
271447,384.615384615385,4,2,1,50,1,1
271639,441.176470588235,4,2,1,50,1,1
271859,410.958904109589,4,2,1,50,1,1
272064,405.405405405405,4,2,1,40,1,1
275307,416.666666666667,4,2,1,40,1,1
275932,400,4,2,1,40,1,1
276332,410.958904109589,4,2,1,40,1,1
276948,422.535211267606,4,2,1,40,1,1
277581,405.405405405405,4,2,1,40,1,1
277783,394.736842105263,4,2,1,40,1,1
278177,413.793103448276,4,2,1,40,1,1
278590,434.782608695652,4,2,1,30,1,0
278590,-133.333333333333,4,2,1,30,0,0
279459,413.793103448276,4,2,1,30,1,0
279459,-133.333333333333,4,2,1,30,0,0
279872,461.538461538462,4,2,1,30,1,0
280333,428.571428571429,4,2,1,30,1,0
280333,-133.333333333333,4,2,1,30,0,0
281190,382.165605095541,4,2,1,30,1,0
281190,-133.333333333333,4,2,1,30,0,0
281572,422.535211267606,4,2,1,30,1,0
281994,428.571428571429,4,2,1,30,1,0
281994,-133.333333333333,4,2,1,30,0,0
282851,400,4,2,1,30,1,0
282851,-133.333333333333,4,2,1,30,0,0
283251,451.127819548872,4,2,1,30,1,0
283702,422.535211267606,4,2,1,30,1,0
283702,-133.333333333333,4,2,1,30,0,0
284124,400,4,2,1,30,1,0
284524,408.163265306122,4,2,1,30,1,0
284524,-133.333333333333,4,2,1,30,0,0
284932,434.782608695652,4,2,1,30,1,0
285366,434.782608695652,4,2,1,30,1,0
285366,-133.333333333333,4,2,1,30,0,0
285800,419.58041958042,4,2,1,30,1,0
286219,387.096774193548,4,2,1,30,1,0
286219,-133.333333333333,4,2,1,30,0,0
286606,441.176470588235,4,2,1,30,1,0
287047,419.58041958042,4,2,1,30,1,0
287047,-133.333333333333,4,2,1,30,0,0
287466,413.793103448276,4,2,1,30,1,0
287879,400,4,2,1,30,1,0
287879,-133.333333333333,4,2,1,30,0,0
288679,468.75,4,2,1,30,1,0
288679,-133.333333333333,4,2,1,30,0,0
289147,434.782608695652,4,2,1,30,1,0
289581,400,4,2,1,30,1,0
289581,-133.333333333333,4,2,1,30,0,0
289981,451.127819548872,4,2,1,30,1,0
290432,405.405405405405,4,2,1,30,1,0
290432,-133.333333333333,4,2,1,30,0,0
290837,428.571428571429,4,2,1,30,1,0
291265,416.666666666667,4,2,1,30,1,0
291265,-133.333333333333,4,2,1,30,0,0
291681,434.782608695652,4,2,1,30,1,0
292115,400,4,2,1,30,1,0
292115,-133.333333333333,4,2,1,30,0,0
292515,419.58041958042,4,2,1,30,1,0
292934,416.666666666667,4,2,1,30,1,0
293350,480,4,2,1,30,1,0
293830,394.736842105263,4,2,1,30,1,0
293830,-133.333333333333,4,2,1,30,0,0
294224,434.782608695652,4,2,1,30,1,0
294658,422.535211267606,4,2,1,30,1,0
295080,441.176470588235,4,2,1,30,1,0
295521,434.782608695652,4,2,1,30,1,0
295521,-133.333333333333,4,2,1,30,0,0
296390,416.666666666667,4,2,1,30,1,0
296806,444.444444444444,4,2,1,30,1,0
297250,428.571428571429,4,2,1,30,1,0
297250,-133.333333333333,4,2,1,30,0,0
297678,434.782608695652,4,2,1,30,1,0
298547,468.75,4,2,1,30,1,0
299015,431.654676258993,4,2,1,30,1,0
299015,-133.333333333333,4,2,1,30,0,0
300309,468.75,4,2,1,30,1,0
300777,461.538461538462,4,2,1,30,1,0
300777,-133.333333333333,4,2,1,30,0,0
301700,416.666666666667,4,2,1,30,1,0
302116,526.315789473684,4,2,1,30,1,0
302642,526.315789473684,4,2,1,30,1,0
302642,-166.666666666667,4,2,1,30,0,0
303036,-166.666666666667,4,2,1,20,0,0
304220,588.235294117647,4,2,1,20,1,0
304808,697.674418604651,4,2,1,20,1,0
304808,-142.857142857143,4,2,1,20,0,0
305505,750,4,2,1,20,1,0
306255,800,4,2,1,20,1,0
306255,-125,4,2,1,20,0,0
307055,1395.3488372093,4,2,1,20,1,0
308450,1875,4,2,1,10,1,0
308918,-100,4,2,1,5,0,0

[Colours]
Combo1 : 119,99,126
Combo2 : 255,85,85
Combo3 : 247,113,173
Combo4 : 73,0,196
Combo5 : 139,47,253
Combo6 : 47,47,64

[HitObjects]
255,116,321,70,0,B|264:58|210:11|120:57|115:126|209:159|212:207|176:264,1,320,2|0,0:2|0:0,0:0:0:0:
110,270,3654,6,0,B|124:342|224:352|252:274|252:274|269:225|313:206|364:230,1,320,2|0,0:0|0:0,0:0:0:0:
324,292,6960,70,0,P|419:203|290:182,1,320,2|2,0:0|0:1,0:0:0:0:
350,224,10329,6,0,B|311:283|210:262|205:211|244:149|176:137|135:204|72:169,1,320,2|0,0:0|0:0,0:0:0:0:
23,224,13665,70,0,B|95:286|190:202|132:116|132:116|114:91|112:57|131:30,1,320,2|0,0:0|0:0,0:0:0:0:
189,73,16964,6,0,B|225:88|278:73|264:49|256:5|332:3|343:37|377:49|376:124|332:116|311:105|293:156|304:190,1,320,2|0,0:0|0:0,0:0:0:0:
377,176,20358,70,0,B|381:274|277:296|215:240|233:156|233:156|192:186,1,320,2|2,0:0|0:1,0:0:0:0:
139,127,23770,6,0,B|103:170|112:254|201:262|201:262|255:266|283:300|281:352,1,320,2|0,0:0|0:0,0:0:0:0:
206,338,27158,70,0,P|292:274|355:362,1,240,2|2,0:0|0:1,0:0:0:0:
355,362,28793,1,2,0:0:0:0:
424,305,29662,1,0,0:0:0:0:
488,242,30532,6,0,B|493:168|431:142|431:142|361:113|367:54,1,240,2|2,0:0|0:1,0:0:0:0:
366,56,32210,1,2,0:0:0:0:
440,62,33085,1,0,0:0:0:0:
399,125,33942,70,0,B|353:145|302:127|288:94|301:42|228:33|186:59,1,240,2|2,0:0|0:1,0:0:0:0:
192,55,35632,1,2,0:0:0:0:
228,119,36507,1,0,0:0:0:0:
152,119,37323,6,0,P|89:166|192:179,1,240,2|2,0:0|0:1,0:0:0:0:
190,185,39049,1,2,0:0:0:0:
228,253,39958,1,0,0:0:0:0:
199,327,40797,38,0,P|153:340|99:336,2,95.9999970703126,2|0|8,0:0|0:0|0:0,0:0:0:0:
274,364,42568,2,0,P|319:341|364:336,1,95.9999970703126,2|0,0:0|0:0,0:0:0:0:
450,349,43409,1,8,0:0:0:0:
416,268,44304,22,0,L|411:165,1,95.9999970703126,2|0,0:0|0:0,0:0:0:0:
409,79,45179,1,8,0:0:0:0:
293,33,46081,2,0,L|297:132,1,95.9999970703126,2|0,0:0|0:0,0:0:0:0:
303,223,46938,1,8,0:0:0:0:
409,79,47807,69,2,0:0:0:0:
221,55,48646,1,8,0:0:0:0:
90,151,49497,2,0,L|171:147,1,80,2|0,0:0|0:0,0:0:0:0:
262,143,50363,1,8,0:0:0:0:
383,219,51238,22,0,L|302:223,1,80,2|0,0:0|0:0,0:0:0:0:
211,227,52101,1,8,0:0:0:0:
88,317,52958,2,0,L|167:313,1,80,2|0,0:0|0:0,0:0:0:0:
262,309,53841,1,8,0:0:0:0:
211,227,54272,1,2,0:1:0:0:
169,313,54704,37,2,0:0:0:0:
310,223,55126,1,0,0:0:0:0:
147,148,55557,1,8,0:0:0:0:
211,227,55991,1,0,0:0:0:0:
88,317,56413,2,0,L|167:313,1,80,2|0,0:0|0:0,0:0:0:0:
147,148,57295,1,8,0:0:0:0:
37,238,58152,22,0,L|116:234,1,80,2|0,0:0|0:0,0:0:0:0:
247,134,59016,2,0,L|241:51,1,80,8|0,0:0|0:0,0:0:0:0:
50,36,59901,1,2,0:0:0:0:
57,115,60317,1,0,0:0:0:0:
116,233,60734,1,8,0:0:0:0:
40,198,61162,1,2,0:1:0:0:
176,132,61596,70,0,P|214:123|254:124,1,80,2|0,0:0|0:0,0:0:0:0:
308,223,62425,2,0,P|269:232|229:231,1,80,8|0,0:0|0:0,0:0:0:0:
383,147,63258,1,2,0:0:0:0:
404,234,63683,1,0,0:0:0:0:
308,223,64099,1,8,0:0:0:0:
321,314,64509,1,0,0:0:0:0:
404,234,64950,21,2,0:0:0:0:
425,321,65369,1,0,0:0:0:0:
208,339,65789,2,0,L|125:322,1,80,8|0,0:0|0:0,0:0:0:0:
148,251,66630,2,0,L|67:234,1,80,2|0,0:0|0:0,0:0:0:0:
88,157,67501,1,8,0:0:0:0:
45,87,67939,1,2,0:1:0:0:
212,103,68367,37,2,0:0:0:0:
88,157,68783,1,0,0:0:0:0:
212,103,69211,1,8,0:0:0:0:
255,173,69633,1,0,0:0:0:0:
347,64,70074,2,0,L|268:43,1,80,2|0,0:0|0:0,0:0:0:0:
336,152,70956,2,0,L|326:231,1,80,8|2,0:0|0:1,0:0:0:0:
427,127,71800,6,0,L|437:48,1,80,2|0,0:0|0:0,0:0:0:0:
415,218,72689,2,0,L|492:238,1,80,8|0,0:0|0:0,0:0:0:0:
478,363,73561,1,2,0:0:0:0:
396,360,73983,1,0,0:0:0:0:
244,252,74396,2,0,L|254:173,1,80,8|2,0:0|0:1,0:0:0:0:
198,30,75265,69,2,0:0:0:0:
120,50,75681,1,0,0:0:0:0:
173,194,76094,2,0,L|163:273,1,80,8|0,0:0|0:0,0:0:0:0:
257,318,76940,1,2,0:0:0:0:
334,298,77381,1,0,0:0:0:0:
90,217,77822,2,0,L|80:296,1,80,8|2,0:0|0:1,0:0:0:0:
224,101,78663,5,2,0:0:0:0:
306,97,79094,1,0,0:0:0:0:
98,57,79513,1,8,0:0:0:0:
22,78,79933,1,0,0:0:0:0:
254,172,80361,70,0,P|317:165|368:139,1,120.000004577637,2|0,0:0|0:0,0:0:0:0:
392,109,81008,1,0,0:0:0:0:
374,219,81215,2,0,B|364:270|364:270|431:290,1,120.000004577637,8|2,0:0|0:1,0:0:0:0:
427,170,81836,1,0,0:0:0:0:
347,351,82044,53,2,0:0:0:0:
347,351,82478,2,0,L|281:331,1,60.0000022888184,0|2,0:0|0:0,0:0:0:0:
253,320,82878,1,8,0:1:0:0:
174,335,83297,1,2,0:0:0:0:
137,319,83507,1,0,0:0:0:0:
33,341,83717,6,0,B|49:261|49:261|11:242,1,120.000004577637,2|0,0:0|0:0,0:0:0:0:
152,232,84356,1,2,0:0:0:0:
311,255,84560,1,8,0:1:0:0:
188,246,84764,1,0,0:0:0:0:
347,269,84968,2,0,L|413:289,1,60.0000022888184,2|2,0:0|0:1,0:0:0:0:
324,174,85390,70,0,L|349:47,1,120.000004577637,2|0,0:0|0:0,0:0:0:0:
247,128,86042,2,0,B|237:51|237:51|178:74,1,120.000004577637,2|0,0:0|0:0,0:0:0:0:
56,85,86643,2,0,L|121:92,1,60.0000022888184,2|0,0:0|0:0,0:0:0:0:
140,95,87065,5,2,0:0:0:0:
74,251,87470,2,0,L|14:243,1,60.0000022888184,0|2,0:0|0:0,0:0:0:0:
29,165,87875,1,8,0:1:0:0:
107,181,88080,1,0,0:0:0:0:
207,274,88285,1,2,0:0:0:0:
302,255,88485,1,2,0:1:0:0:
433,299,88685,70,0,P|439:330|439:371,2,60.0000022888184,2|0|0,0:0|0:0|0:0,0:0:0:0:
399,209,89305,2,0,P|438:211|475:209,2,60.0000022888184,2|8|0,0:0|0:1|0:0,0:0:0:0:
324,174,89913,1,2,0:0:0:0:
390,127,90110,1,0,0:0:0:0:
367,278,90330,5,2,0:0:0:0:
317,91,90758,1,2,0:1:0:0:
459,158,91168,1,8,0:1:0:0:
300,243,91579,1,2,0:0:0:0:
327,169,91785,1,2,0:1:0:0:
390,127,91990,70,0,B|397:91|397:91|390:63,1,60.0000022888184,2|0,0:0|0:0,0:0:0:0:
257,83,92409,2,0,B|295:91|295:91|319:90,1,60.0000022888184,0|2,0:0|0:0,0:0:0:0:
391,68,92808,1,8,0:1:0:0:
330,12,93013,1,0,0:0:0:0:
316,90,93218,1,0,0:0:0:0:
327,169,93424,1,0,0:0:0:0:
203,23,93629,5,0,0:0:0:0:
183,99,93837,1,2,0:0:0:0:
47,23,94229,1,2,0:0:0:0:
12,116,94435,2,0,L|17:179,1,60.0000022888184,8|0,0:1|0:0,0:0:0:0:
97,238,94857,2,0,L|90:178,1,60.0000022888184,2|2,0:0|0:1,0:0:0:0:
38,312,95257,69,2,0:0:0:0:
162,181,95673,1,2,0:1:0:0:
111,368,96083,1,8,0:1:0:0:
178,295,96289,1,0,0:0:0:0:
254,359,96496,1,0,0:0:0:0:
321,286,96698,1,2,0:0:0:0:
231,164,97132,6,0,L|238:228,1,60.0000022888184,2|0,0:0|0:0,0:0:0:0:
320,264,97538,1,2,0:0:0:0:
381,135,97738,2,0,L|381:196,1,60.0000022888184,8|0,0:1|0:0,0:0:0:0:
469,243,98132,1,2,0:0:0:0:
456,322,98330,1,2,0:1:0:0:
368,342,98566,70,0,P|300:341|238:320,1,120.000004577637,2|0,0:0|0:0,0:0:0:0:
182,363,99164,2,0,L|176:298,1,60.0000022888184,2|8,0:0|0:1,0:0:0:0:
168,226,99596,1,0,0:0:0:0:
95,309,99785,2,0,L|100:368,1,60.0000022888184,2|0,0:0|0:0,0:0:0:0:
87,232,100211,5,2,0:0:0:0:
77,100,100595,2,0,L|142:96,1,60.0000022888184,0|2,0:0|0:0,0:0:0:0:
217,105,101003,1,8,0:1:0:0:
233,181,101207,1,0,0:0:0:0:
168,226,101411,1,2,0:0:0:0:
106,169,101615,1,2,0:1:0:0:
233,181,101823,70,0,P|239:220|237:248,2,60.0000022888184,2|0|0,0:0|0:0|0:0,0:0:0:0:
306,217,102443,2,0,P|308:254|315:279,1,60.0000022888184,2|8,0:0|0:1,0:0:0:0:
317,137,102832,1,0,0:0:0:0:
168,226,103025,2,0,P|140:238|109:240,1,60.0000022888184,2|0,0:0|0:0,0:0:0:0:
375,238,103430,6,0,P|425:262|482:235,1,120.000004577637,2|0,0:0|0:0,0:0:0:0:
490,157,104040,1,2,0:0:0:0:
381,327,104237,2,0,B|359:358|359:358|332:326|316:281,1,120.000004577637,8|2,0:1|0:0,0:0:0:0:
318,287,104863,1,2,0:1:0:0:
87,232,105067,70,0,L|21:249,1,60.0000022888184,2|0,0:0|0:0,0:0:0:0:
106,169,105482,2,0,L|33:157,1,60.0000022888184,0|2,0:0|0:0,0:0:0:0:
138,276,105884,1,8,0:1:0:0:
143,346,106086,1,0,0:0:0:0:
193,236,106287,1,2,0:0:0:0:
174,172,106484,1,0,0:0:0:0:
253,270,106681,6,0,L|258:334,2,60.0000022888184,2|0|0,0:0|0:0|0:0,0:0:0:0:
296,212,107293,1,2,0:0:0:0:
277,148,107497,1,8,0:1:0:0:
446,30,107905,1,2,0:0:0:0:
465,94,108110,1,2,0:1:0:0:
379,19,108327,5,0,1:0:0:0:
210,135,108749,1,0,0:0:0:0:
146,120,108949,1,0,0:0:0:0:
254,83,109149,1,8,0:1:0:0:
63,25,109554,1,0,0:0:0:0:
18,78,109741,1,0,0:0:0:0:
129,46,109929,54,0,B|146:66|146:66|146:128,1,80,0|0,1:0|0:0,0:0:0:0:
36,190,110351,2,0,B|56:176|56:176|120:176,1,80
163,305,110753,2,0,B|154:282|154:282|154:226,1,80,8|2,0:1|0:1,0:0:0:0:
210,135,111175,1,0,0:0:0:0:
215,199,111377,1,2,0:1:0:0:
210,135,111580,37,0,1:0:0:0:
442,206,111996,1,0,0:0:0:0:
494,248,112198,1,0,0:0:0:0:
376,207,112401,1,8,0:1:0:0:
255,341,112806,1,0,0:0:0:0:
203,299,113009,1,0,0:0:0:0:
321,340,113211,54,0,B|339:312|339:312|339:256,1,80,0|0,1:0|0:0,0:0:0:0:
343,80,113594,2,0,B|327:104|327:104|327:160,1,80
215,199,114025,2,0,B|239:215|239:215|303:215,1,80,8|2,0:1|0:1,0:0:0:0:
402,48,114430,1,0,0:0:0:0:
400,115,114619,1,2,0:1:0:0:
456,150,114831,5,0,1:0:0:0:
343,80,115236,1,0,0:0:0:0:
233,84,115433,1,0,0:0:0:0:
286,44,115630,1,8,0:1:0:0:
154,226,116049,1,0,0:0:0:0:
101,266,116242,1,0,0:0:0:0:
208,266,116469,54,0,B|208:324|208:324|222:349,1,80,0|0,1:0|0:0,0:0:0:0:
239,166,116858,2,0,B|239:110|239:110|223:86,1,80
258,227,117250,2,0,B|316:227|316:227|337:212,1,80,8|2,0:1|0:1,0:0:0:0:
108,168,117658,1,0,0:0:0:0:
85,232,117862,1,2,0:1:0:0:
174,166,118066,37,0,1:0:0:0:
292,352,118471,1,0,0:0:0:0:
357,352,118674,1,0,0:0:0:0:
273,291,118876,1,8,0:1:0:0:
464,290,119289,1,0,0:0:0:0:
483,351,119496,1,0,0:0:0:0:
399,290,119703,54,0,B|389:272|389:272|389:212,1,80,0|0,1:0|0:0,0:0:0:0:
503,145,120108,2,0,B|485:156|485:156|417:156,1,80
374,25,120513,2,0,B|385:43|385:43|385:111,1,80,8|2,0:1|0:1,0:0:0:0:
321,192,120908,1,0,0:0:0:0:
258,214,121108,1,2,0:1:0:0:
319,124,121308,5,0,1:0:0:0:
188,111,121736,1,2,0:0:0:0:
150,168,121930,1,0,0:0:0:0:
146,58,122125,1,8,0:1:0:0:
85,266,122535,1,2,0:0:0:0:
162,285,122722,1,0,0:0:0:0:
85,266,122910,54,0,L|1:282,1,80,0|0,1:0|0:0,0:0:0:0:
162,285,123323,2,0,L|229:338,1,80,2|0,0:0|0:0,0:0:0:0:
150,168,123737,1,8,0:1:0:0:
102,339,123931,1,2,0:1:0:0:
83,193,124126,1,2,0:0:0:0:
205,220,124326,1,2,0:1:0:0:
83,193,124526,37,0,1:0:0:0:
347,327,124951,1,2,0:0:0:0:
389,259,125144,1,0,0:0:0:0:
415,372,125338,1,8,0:1:0:0:
427,118,125743,1,2,0:0:0:0:
350,99,125943,1,0,0:0:0:0:
427,118,126143,54,0,L|511:102,1,80,0|0,1:0|0:0,0:0:0:0:
350,99,126543,2,0,L|283:46,1,80,2|0,0:0|0:0,0:0:0:0:
362,216,126943,1,8,0:1:0:0:
410,45,127143,1,2,0:1:0:0:
429,191,127343,1,2,0:0:0:0:
307,164,127543,1,2,0:1:0:0:
429,191,127740,5,0,1:0:0:0:
200,221,128145,1,2,0:0:0:0:
83,193,128347,1,0,0:0:0:0:
150,168,128550,1,8,0:1:0:0:
175,29,128956,1,2,0:0:0:0:
106,54,129158,1,0,0:0:0:0:
228,81,129361,54,0,L|312:52,1,80,0|0,1:0|0:0,0:0:0:0:
106,54,129750,2,0,L|22:84,1,80,2|0,0:0|0:0,0:0:0:0:
200,221,130144,1,8,0:1:0:0:
193,145,130355,1,2,0:1:0:0:
74,193,130566,1,2,0:0:0:0:
124,258,130766,1,2,0:1:0:0:
118,127,130966,37,0,1:0:0:0:
100,374,131366,1,2,0:0:0:0:
37,309,131566,1,0,0:0:0:0:
182,335,131766,1,8,0:1:0:0:
344,127,132171,1,2,0:0:0:0:
413,152,132373,1,0,0:0:0:0:
291,179,132576,54,0,L|207:150,1,80,0|0,1:0|0:0,0:0:0:0:
413,152,132976,2,0,L|497:182,1,80,2|0,0:0|0:0,0:0:0:0:
319,319,133376,1,8,0:1:0:0:
401,225,133576,1,2,0:1:0:0:
395,356,133776,1,2,0:0:0:0:
326,243,133968,1,2,0:1:0:0:
445,291,134160,69,0,1:0:0:0:
486,26,134588,1,2,0:0:0:0:
411,40,134785,1,0,0:0:0:0:
401,225,134993,1,8,1:0:0:0:
334,29,135403,1,2,0:0:0:0:
217,92,135595,2,0,L|308:99,1,80,0|0,0:0|1:0,0:0:0:0:
353,157,135987,5,0,0:0:0:0:
504,123,136187,2,0,L|424:119,1,80,2|0,0:0|0:0,0:0:0:0:
219,107,136587,1,8,1:0:0:0:
292,227,136787,1,2,0:1:0:0:
307,87,136987,1,2,0:0:0:0:
209,192,137187,1,2,0:1:0:0:
353,157,137387,69,0,1:0:0:0:
310,310,137809,1,2,0:0:0:0:
292,227,138009,1,0,0:0:0:0:
209,192,138209,1,8,1:0:0:0:
40,54,138603,1,2,0:0:0:0:
5,213,138805,2,0,L|47:130,1,80,0|0,0:0|1:0,0:0:0:0:
175,98,139205,5,0,0:0:0:0:
123,169,139402,2,0,L|118:249,1,80,2|0,0:0|0:0,0:0:0:0:
40,54,139797,1,8,1:0:0:0:
124,27,139994,1,2,0:1:0:0:
123,169,140192,1,2,0:0:0:0:
41,141,140400,1,2,0:1:0:0:
175,98,140608,69,0,1:0:0:0:
174,324,141010,1,2,0:0:0:0:
90,350,141202,1,0,0:0:0:0:
41,280,141413,1,8,1:0:0:0:
255,210,141823,1,2,0:0:0:0:
373,346,142012,2,0,L|288:351,1,80,0|0,0:0|1:0,0:0:0:0:
255,210,142419,5,0,0:0:0:0:
463,282,142613,2,0,L|457:361,1,80,2|0,0:0|0:0,0:0:0:0:
273,313,143000,1,8,1:0:0:0:
349,137,143202,1,2,0:1:0:0:
373,346,143422,1,2,0:0:0:0:
255,210,143616,1,2,0:1:0:0:
449,170,143824,69,0,1:0:0:0:
273,313,144234,1,2,0:0:0:0:
174,324,144436,1,0,0:0:0:0:
273,313,144639,1,8,1:0:0:0:
258,42,145049,1,2,0:0:0:0:
139,53,145255,2,0,L|57:12,1,80,0|0,0:0|1:0,0:0:0:0:
258,42,145661,5,0,0:0:0:0:
105,124,145862,2,0,L|101:223,1,80,2|0,0:0|0:0,0:0:0:0:
224,113,146265,1,8,1:0:0:0:
280,169,146466,1,2,0:1:0:0:
353,132,146668,1,0,0:0:0:0:
338,52,146869,1,2,0:1:0:0:
258,42,147070,5,0,1:0:0:0:
426,131,147492,1,0,0:0:0:0:
455,72,147703,1,0,0:0:0:0:
408,28,147915,1,0,0:0:0:0:
461,197,148337,1,0,0:0:0:0:
432,259,148548,1,0,0:0:0:0:
471,324,148748,6,0,L|381:338,1,80,0|0,1:0|0:0,0:0:0:0:
281,260,149156,2,0,L|380:269,1,80
319,380,149564,1,0,0:0:0:0:
248,336,149768,1,2,0:1:0:0:
281,260,149972,1,0,0:0:0:0:
248,336,150176,1,2,0:1:0:0:
169,354,150380,69,0,1:0:0:0:
151,217,150782,1,0,0:0:0:0:
118,293,150989,1,0,0:0:0:0:
31,295,151195,1,8,0:1:0:0:
230,199,151623,1,0,0:0:0:0:
278,125,151825,1,0,0:0:0:0:
360,172,152028,6,0,L|407:100,1,80,0|0,1:0|0:0,0:0:0:0:
307,254,152431,2,0,L|390:239,1,80
322,330,152848,1,8,0:1:0:0:
248,353,153062,1,2,0:1:0:0:
147,269,153276,1,0,0:0:0:0:
226,275,153470,1,2,0:1:0:0:
327,194,153665,69,0,1:0:0:0:
150,129,154078,1,0,0:0:0:0:
230,130,154280,1,0,0:0:0:0:
252,208,154483,1,8,0:1:0:0:
72,237,154896,1,0,0:0:0:0:
75,152,155111,1,0,0:0:0:0:
20,75,155327,6,0,L|81:22,1,80,0|0,1:0|0:0,0:0:0:0:
235,42,155746,2,0,L|147:45,1,80
314,163,156151,1,8,0:1:0:0:
230,130,156344,1,2,0:1:0:0:
235,42,156552,1,0,0:0:0:0:
321,20,156752,1,2,0:1:0:0:
369,93,156952,69,0,1:0:0:0:
397,303,157371,1,0,0:0:0:0:
453,359,157581,1,0,0:0:0:0:
320,308,157791,1,8,0:1:0:0:
412,228,158210,1,0,0:0:0:0:
343,186,158420,1,0,0:0:0:0:
420,25,158630,6,0,L|406:109,1,80,0|0,1:0|0:0,0:0:0:0:
251,45,159024,2,0,L|342:50,1,80
288,239,159419,1,8,0:1:0:0:
320,308,159624,1,2,0:1:0:0:
397,303,159829,1,0,0:0:0:0:
412,228,160035,1,2,0:1:0:0:
343,186,160240,6,0,L|217:179,1,120.000004577637,0|0,3:0|0:0,0:0:0:0:
103,172,161095,1,2,0:0:0:0:
223,179,161522,1,0,0:0:0:0:
203,320,161950,2,0,L|332:326,1,120.000004577637,0|0,3:0|0:0,0:0:0:0:
442,332,162805,1,2,0:0:0:0:
322,325,163242,1,0,0:0:0:0:
432,214,163676,6,0,B|417:163|459:147|437:90,1,120.000004577637,0|0,3:0|0:0,0:0:0:0:
439,96,164521,1,2,0:0:0:0:
495,194,164955,1,0,0:0:0:0:
361,109,165390,2,0,B|375:159|333:175|355:232,1,120.000004577637,0|0,3:0|0:0,0:0:0:0:
352,226,166229,1,2,0:0:0:0:
296,130,166648,1,0,0:0:0:0:
165,201,167068,70,0,P|228:214|285:194,1,120.000004577637,0|0,3:0|0:0,0:0:0:0:
279,197,167925,1,2,0:0:0:0:
291,281,168353,1,0,0:0:0:0:
227,145,168782,2,0,P|224:85|271:32,1,120.000004577637,0|0,3:0|0:0,0:0:0:0:
258,38,169639,1,0,0:0:0:0:
296,130,170061,1,0,0:0:0:0:
153,131,170529,6,0,B|106:112|75:155|26:131,1,120.000004577637,0|0,3:0|0:0,0:0:0:0:
130,195,171350,1,2,0:0:0:0:
35,134,171761,1,0,0:0:0:0:
130,312,172212,2,0,B|109:266|152:241|126:185,1,120.000004577637,0|0,3:0|0:0,0:0:0:0:
194,286,173056,1,2,0:0:0:0:
129,194,173466,2,0,P|192:188|220:140,1,120.000004577637,0|2,0:0|3:1,0:0:0:0:
58,70,174320,5,0,0:0:0:0:
114,25,174531,1,0,0:0:0:0:
185,24,174742,1,8,0:0:0:0:
383,118,175142,2,0,P|419:77|379:42,1,120.000004577637,2|0,0:0|3:0,0:0:0:0:
341,173,175987,53,0,0:0:0:0:
393,219,176198,1,0,0:0:0:0:
400,290,176409,1,8,0:0:0:0:
319,95,176832,2,0,P|264:115|238:67,1,120.000004577637,2|0,0:1|3:0,0:0:0:0:
276,197,177483,37,0,0:0:0:0:
336,235,177672,2,0,P|366:232|392:218,1,60.0000022888184
444,172,178119,1,8,0:0:0:0:
316,301,178506,2,0,P|317:360|260:366,1,120.000004577637,2|0,0:0|3:0,0:0:0:0:
259,262,179170,53,0,0:0:0:0:
276,197,179359,2,0,B|251:190|234:203|207:196,1,60.0000022888184
191,138,179769,1,8,0:0:0:0:
37,300,180180,2,0,P|44:354|100:357,1,120.000004577637,2|0,0:1|3:0,0:0:0:0:
176,360,180828,5,0,0:0:0:0:
199,296,181028,2,0,B|171:290|148:298|131:292,1,60.0000022888184
89,254,181433,1,8,0:0:0:0:
44,95,181855,2,0,P|109:89|113:148,1,120.000004577637,2|0,0:0|3:0,0:0:0:0:
79,186,182509,53,0,0:0:0:0:
200,190,182709,2,0,P|171:202|132:203,1,60.0000022888184
262,231,183109,1,8,0:0:0:0:
273,237,183209,1,0,0:0:0:0:
176,360,183509,2,0,P|242:355|295:366,1,120.000004577637,2|0,0:1|3:0,0:0:0:0:
365,354,184137,37,0,0:0:0:0:
391,286,184337,1,0,0:0:0:0:
347,228,184537,1,0,0:0:0:0:
273,237,184737,2,0,B|264:193|302:173|264:96,1,120.000004577637,8|2,0:0|0:0,0:0:0:0:
251,50,185337,1,0,3:0:0:0:
398,81,185743,53,0,0:0:0:0:
326,66,185950,1,0,0:0:0:0:
373,13,186157,1,0,0:0:0:0:
425,150,186364,1,8,0:0:0:0:
446,26,186778,1,2,3:1:0:0:
349,134,187409,5,0,0:0:0:0:
370,205,187609,2,0,P|372:243|359:280,1,60.0000022888184
273,118,188020,1,8,0:0:0:0:
472,92,188448,1,2,3:2:0:0:
416,316,189305,53,0,0:0:0:0:
344,335,189507,1,0,0:0:0:0:
273,354,189710,2,0,L|213:340,1,60.0000022888184,8|0,0:0|0:0,0:0:0:0:
287,228,190115,2,0,L|296:289,2,60.0000022888184,2|0|0,0:1|0:0|3:0,0:0:0:0:
230,171,190743,1,0,0:0:0:0:
216,243,190938,38,0,L|168:299,1,60.0000022888184,0|0,3:0|0:0,0:0:0:0:
185,359,191343,1,8,0:0:0:0:
52,158,191759,1,2,0:0:0:0:
22,223,191970,1,0,0:0:0:0:
34,24,192383,53,0,0:0:0:0:
104,38,192586,2,0,P|134:41|171:32,1,60.0000022888184
114,114,193002,1,10,0:1:0:0:
238,26,193407,2,0,P|270:23|312:30,1,60.0000022888184
212,90,193812,38,0,L|229:214,1,120.000004577637,0|0,3:0|0:0,0:0:0:0:
244,292,194449,1,0,0:0:0:0:
244,292,194641,1,8,0:1:0:0:
373,34,195063,2,0,P|405:39|444:29,1,60.0000022888184
332,95,195468,54,0,L|321:225,1,120.000004577637,0|0,3:0|0:0,0:0:0:0:
316,286,196081,1,0,0:0:0:0:
393,224,196281,2,0,L|468:235,1,60.0000022888184,8|0,0:1|0:0,0:0:0:0:
244,292,196697,2,0,L|171:300,1,60.0000022888184
228,208,197114,21,0,3:0:0:0:
194,144,197314,1,0,0:0:0:0:
189,73,197514,1,0,0:0:0:0:
215,7,197716,1,8,0:1:0:0:
189,73,197919,1,8,0:1:0:0:
194,144,198122,1,0,0:0:0:0:
157,204,198324,2,0,L|88:226,1,60.0000022888184,0|8,0:0|0:1,0:0:0:0:
32,42,198734,53,0,1:0:0:0:
30,214,198945,1,0,0:0:0:0:
68,155,199156,2,0,L|136:134,1,60.0000022888184
62,280,199566,1,8,0:1:0:0:
133,284,199772,1,0,0:0:0:0:
75,373,199977,2,0,L|131:353,1,60.0000022888184,0|8,0:0|0:1,0:0:0:0:
204,267,200377,22,0,L|216:353,1,80,0|0,1:0|0:0,0:0:0:0:
228,208,200790,2,0,L|222:307,1,80
292,153,201184,1,8,0:1:0:0:
383,122,201392,1,0,0:0:0:0:
279,75,201600,1,0,0:0:0:0:
396,200,201800,6,0,L|380:285,1,80,0|0,0:0|1:0,0:0:0:0:
443,157,202214,2,0,L|400:243,1,80
459,92,202629,1,0,0:0:0:0:
331,17,202830,1,8,0:1:0:0:
431,28,203022,1,0,0:0:0:0:
359,81,203227,2,0,P|329:84|274:73,1,80
123,34,203646,38,0,P|157:79|74:106,1,160,0|0,1:0|0:0,0:0:0:0:
218,26,204275,1,0,0:0:0:0:
222,112,204485,2,0,P|261:109|300:117,1,80,8|0,0:1|0:0,0:0:0:0:
174,175,204869,1,0,0:0:0:0:
300,117,205071,1,0,0:0:0:0:
180,248,205258,6,0,P|92:242|67:178,1,160,0|0,1:0|0:0,0:0:0:0:
237,208,205892,2,0,P|276:202|315:177,1,80,0|8,0:0|0:1,0:0:0:0:
310,181,206306,1,0,0:0:0:0:
238,284,206503,2,0,P|213:318|199:359,1,80
200,353,206911,5,0,1:0:0:0:
312,308,207120,2,0,P|337:342|379:373,1,80
366,365,207527,1,0,0:0:0:0:
356,243,207729,2,0,P|397:239|434:224,1,80,8|0,0:1|0:0,0:0:0:0:
503,270,208132,2,0,P|472:296|432:316,1,80
504,168,208545,5,0,1:0:0:0:
504,168,208958,1,0,0:0:0:0:
479,88,209165,2,0,P|476:50|487:2,1,80,0|8,0:0|0:1,0:0:0:0:
394,86,209573,1,0,0:0:0:0:
364,156,209774,2,0,P|320:161|284:158,1,80
123,34,210177,38,0,P|161:47|219:50,1,80,0|0,1:0|0:0,0:0:0:0:
162,162,210579,2,0,P|165:201|157:252,1,80
85,370,211000,1,8,0:1:0:0:
25,302,211201,1,0,0:0:0:0:
173,337,211403,2,0,P|212:341|263:337,1,80
71,223,211805,5,0,1:0:0:0:
16,153,212009,2,0,L|19:73,1,80
222,123,212417,1,0,0:0:0:0:
259,258,212621,2,0,L|252:338,1,80,8|0,0:1|0:0,0:0:0:0:
442,126,213029,1,0,0:0:0:0:
402,264,213233,1,0,0:0:0:0:
339,45,213437,6,0,L|433:40,1,80,0|0,1:0|0:0,0:0:0:0:
222,123,213837,2,0,L|142:127,1,80
346,168,214237,1,8,0:1:0:0:
442,126,214437,1,0,0:0:0:0:
476,217,214637,1,0,0:0:0:0:
332,332,214837,6,0,L|234:339,1,80,0|0,0:0|1:0,0:0:0:0:
428,305,215239,2,0,L|512:299,1,80
278,240,215645,1,0,0:0:0:0:
407,62,215847,1,8,0:1:0:0:
454,160,216050,1,0,0:0:0:0:
346,168,216253,2,0,L|259:173,1,80
376,234,216658,38,0,L|203:245,1,160,0|0,1:0|0:0,0:0:0:0:
174,316,217271,2,0,L|260:310,1,80,0|8,0:0|0:1,0:0:0:0:
98,255,217687,1,0,0:0:0:0:
16,360,217890,2,0,L|98:355,1,80
115,269,218295,5,0,1:0:0:0:
46,211,218497,1,0,0:0:0:0:
136,178,218700,1,0,0:0:0:0:
8,126,218896,1,0,0:0:0:0:
157,96,219092,1,8,0:1:0:0:
8,126,219290,1,0,0:0:0:0:
178,17,219489,1,0,0:0:0:0:
46,211,219690,1,0,0:0:0:0:
263,129,219891,6,0,L|257:34,1,95.9999970703126,0|0,1:0|0:0,0:0:0:0:
268,218,220319,1,0,0:0:0:0:
268,218,220528,1,0,0:0:0:0:
342,99,220720,2,0,L|344:20,1,80,8|0,0:1|0:0,0:0:0:0:
336,219,221133,1,0,0:0:0:0:
336,219,221333,1,0,0:0:0:0:
421,99,221533,54,0,L|432:20,1,80,0|0,1:0|0:0,0:0:0:0:
407,219,221942,1,0,0:0:0:0:
407,219,222159,1,0,0:0:0:0:
492,136,222352,2,0,L|506:58,1,80,8|0,0:1|0:0,0:0:0:0:
477,220,222758,1,0,0:0:0:0:
477,220,222957,1,0,0:0:0:0:
419,339,223149,37,0,1:0:0:0:
341,341,223354,1,0,0:0:0:0:
181,342,223559,1,0,0:0:0:0:
103,344,223765,1,0,0:0:0:0:
264,340,223970,2,0,L|252:253,1,80,8|0,0:1|0:0,0:0:0:0:
483,257,224372,2,0,L|494:337,1,80
407,258,224775,53,0,1:0:0:0:
253,260,224977,1,0,0:0:0:0:
329,259,225180,1,0,0:0:0:0:
165,183,225383,2,0,L|175:270,1,80,0|8,0:0|0:1,0:0:0:0:
175,263,225788,1,0,0:0:0:0:
38,267,225991,2,0,L|47:179,1,80,0|2,0:0|0:1,0:0:0:0:
101,109,226396,22,0,L|94:29,3,80,2|0|0|0,3:2|0:0|0:0|0:0,0:0:0:0:
243,187,227207,2,0,L|323:168,1,80,8|0,0:0|0:0,0:0:0:0:
189,118,227612,2,0,L|240:50,1,80
465,299,228018,54,0,L|381:313,1,80,2|0,3:2|0:0,0:0:0:0:
488,160,228423,2,0,L|441:224,1,80
395,47,228839,2,0,L|399:133,1,80,8|0,0:0|0:0,0:0:0:0:
483,22,229244,1,0,0:0:0:0:
483,22,229447,1,2,0:1:0:0:
320,168,229649,22,0,L|340:254,3,80,2|0|0|0,3:2|0:0|0:0|0:0,0:0:0:0:
285,331,230476,1,8,0:0:0:0:
285,331,230683,1,0,0:0:0:0:
191,362,230890,2,0,L|199:271,1,80
168,169,231292,54,0,B|206:190|206:190|253:185,1,80,2|0,3:2|0:0,0:0:0:0:
323,71,231706,2,0,B|281:78|281:78|261:122,1,80
62,182,232114,2,0,L|58:90,1,80,8|0,0:0|0:0,0:0:0:0:
106,267,232524,1,0,0:0:0:0:
106,267,232729,1,2,0:1:0:0:
222,273,232938,22,0,L|216:358,3,80,2|0|0|0,3:2|0:0|0:0|0:0,0:0:0:0:
301,228,233748,1,8,0:0:0:0:
347,149,233948,1,0,0:0:0:0:
328,65,234148,1,0,0:0:0:0:
387,288,234348,1,2,3:1:0:0:
387,288,234756,53,2,0:0:0:0:
301,228,234964,2,0,L|216:257,1,80
407,192,235362,1,8,0:0:0:0:
407,192,235571,1,0,0:0:0:0:
268,147,235781,2,0,L|189:173,1,80,0|2,0:0|0:1,0:0:0:0:
62,159,236160,21,2,3:2:0:0:
62,159,236377,1,0,0:0:0:0:
162,88,236594,2,0,L|239:65,1,80
386,76,236994,2,0,B|351:98|351:98|311:88,1,80,8|0,0:0|0:0,0:0:0:0:
423,146,237394,2,0,L|484:94,1,80
474,221,237813,53,2,3:2:0:0:
425,347,238015,2,0,B|429:305|429:305|399:273,1,80
362,176,238421,1,0,0:0:0:0:
308,280,238623,2,0,B|304:322|304:322|334:348,1,80,8|0,0:0|0:0,0:0:0:0:
362,176,239020,1,0,0:0:0:0:
272,180,239237,1,2,0:1:0:0:
320,20,239430,5,2,3:2:0:0:
352,24,239644,1,0,0:0:0:0:
216,124,239841,1,0,0:0:0:0:
184,128,240049,1,0,0:0:0:0:
393,115,240257,2,0,L|484:136,1,80,8|0,0:0|0:0,0:0:0:0:
195,201,240659,2,0,L|114:182,1,80
360,197,241062,54,0,L|447:193,1,80,2|0,3:2|0:0,0:0:0:0:
168,263,241470,2,0,L|88:267,1,80
355,292,241878,2,0,L|443:258,1,80,8|0,0:0|0:0,0:0:0:0:
160,330,242283,2,0,L|77:362,1,80,0|2,0:0|0:1,0:0:0:0:
440,337,242688,21,2,3:2:0:0:
466,350,242890,1,0,0:0:0:0:
241,358,243101,1,0,0:0:0:0:
213,370,243301,1,0,0:0:0:0:
333,212,243503,2,0,B|322:173|322:173|335:122,1,80,8|0,0:0|0:0,0:0:0:0:
331,134,243905,1,0,0:0:0:0:
54,53,244308,54,0,B|95:59|95:59|137:34,1,80,2|0,3:2|0:0,0:0:0:0:
54,135,244720,2,0,B|44:174|44:174|57:211,1,80
186,153,245125,2,0,B|199:116|199:116|187:64,1,80,8|0,0:0|0:0,0:0:0:0:
196,247,245530,2,0,B|155:241|155:241|121:260,1,80,0|2,0:0|0:1,0:0:0:0:
279,68,245947,21,2,3:2:0:0:
303,51,246149,1,0,0:0:0:0:
308,225,246352,1,0,0:0:0:0:
303,258,246555,1,0,0:0:0:0:
402,172,246757,1,8,0:0:0:0:
461,106,246957,1,0,0:0:0:0:
415,30,247157,1,0,0:0:0:0:
389,314,247357,1,2,3:1:0:0:
354,94,247780,53,2,0:0:0:0:
273,121,247976,1,0,0:0:0:0:
186,106,248178,1,0,0:0:0:0:
133,35,248381,2,0,L|110:127,1,80,8|0,1:0|0:0,0:0:0:0:
77,239,248786,1,0,0:0:0:0:
3,268,248997,1,2,0:1:0:0:
113,370,249189,22,0,L|136:283,1,80,2|0,1:2|0:0,0:0:0:0:
186,106,249593,1,0,0:0:0:0:
244,148,249797,1,0,0:0:0:0:
234,372,250001,2,0,L|257:285,1,80,8|0,1:0|0:0,0:0:0:0:
312,108,250409,1,0,0:0:0:0:
370,150,250613,1,0,0:0:0:0:
464,55,250817,54,0,L|443:139,1,80,2|0,1:2|0:0,0:0:0:0:
351,230,251225,1,0,0:0:0:0:
476,343,251429,2,0,L|396:345,1,80,0|8,0:0|0:1,0:0:0:0:
274,228,251837,1,2,0:1:0:0:
175,296,252041,2,0,B|135:304|135:304|100:285,1,80,0|2,0:0|0:1,0:0:0:0:
162,33,252449,21,2,1:2:0:0:
26,141,252651,1,0,0:0:0:0:
194,37,252854,1,0,0:0:0:0:
58,137,253057,1,0,0:0:0:0:
212,273,253259,1,8,0:1:0:0:
212,273,253462,1,0,0:0:0:0:
228,118,253665,2,0,L|218:29,1,80
394,86,254070,54,0,L|481:82,1,80,2|0,1:2|0:0,0:0:0:0:
99,216,254476,2,0,L|19:220,1,80
345,155,254881,2,0,L|425:150,1,80,8|2,0:1|0:1,0:0:0:0:
139,279,255297,2,0,L|56:286,1,80,0|2,0:0|0:1,0:0:0:0:
348,228,255714,5,2,1:2:0:0:
180,342,255925,1,0,0:0:0:0:
318,231,256136,1,0,0:0:0:0:
214,338,256347,1,0,0:0:0:0:
405,351,256549,1,8,0:1:0:0:
405,351,256731,1,0,0:0:0:0:
422,215,256936,2,0,B|500:228,1,80
152,125,257347,70,0,L|62:107,1,80,2|0,1:2|0:0,0:0:0:0:
276,136,257764,2,0,B|280:42,1,80
128,44,258153,2,0,B|33:27,1,80,8|2,0:1|0:1,0:0:0:0:
398,128,258569,2,0,B|477:142,1,80,0|2,0:0|0:1,0:0:0:0:
213,187,258986,5,2,1:2:0:0:
279,322,259194,1,0,0:0:0:0:
189,204,259402,1,0,0:0:0:0:
284,289,259611,1,0,0:0:0:0:
102,247,259819,1,8,0:1:0:0:
292,203,260006,1,0,0:0:0:0:
92,157,260214,1,0,0:0:0:0:
116,360,260422,1,2,1:0:0:0:
173,109,260833,69,2,0:0:0:0:
189,204,261036,1,0,0:0:0:0:
173,109,261239,1,0,0:0:0:0:
210,299,261441,2,0,L|303:306,1,80,8|2,0:1|0:1,0:0:0:0:
435,225,261847,1,0,0:0:0:0:
456,320,262070,1,2,0:1:0:0:
189,204,262272,6,0,L|282:211,1,80,2|0,1:2|0:0,0:0:0:0:
419,130,262674,1,0,0:0:0:0:
435,225,262876,1,0,0:0:0:0:
173,109,263085,2,0,L|266:116,1,80,8|0,1:0|0:0,0:0:0:0:
398,35,263499,1,0,0:0:0:0:
419,130,263703,1,0,0:0:0:0:
344,342,263907,70,0,L|256:349,1,80,2|0,1:2|0:0,0:0:0:0:
405,166,264317,1,0,0:0:0:0:
309,277,264514,2,0,L|227:284,1,80,0|8,0:0|0:1,0:0:0:0:
432,90,264909,1,2,0:1:0:0:
277,212,265106,2,0,B|191:219,1,80,0|2,0:0|0:1,0:0:0:0:
344,19,265516,6,0,L|352:98,1,80,2|0,1:2|0:0,0:0:0:0:
161,156,265912,1,0,0:0:0:0:
320,155,266126,1,2,0:0:0:0:
211,308,266340,2,0,B|181:338|181:338|136:343,1,80,8|0,3:1|0:0,0:0:0:0:
87,173,266740,2,0,B|44:178|44:178|13:159,1,80
318,235,267140,6,0,L|321:155,1,80,2|0,1:2|0:0,0:0:0:0:
214,204,267550,2,0,L|229:283,1,80,0|2,0:0|0:0,0:0:0:0:
431,89,267961,2,0,B|473:83|473:83|499:56,1,80,8|2,3:1|0:1,0:0:0:0:
345,250,268372,2,0,B|381:271|381:271|426:264,1,80,0|2,0:0|0:1,0:0:0:0:
327,63,268774,5,2,1:2:0:0:
113,94,268979,1,0,0:0:0:0:
306,143,269188,1,0,0:0:0:0:
113,94,269398,1,2,0:0:0:0:
288,218,269600,1,8,3:1:0:0:
288,218,269803,1,0,0:0:0:0:
113,94,270006,2,0,L|122:178,1,80
96,341,270411,70,0,B|137:340|137:340|181:320,1,80,2|0,1:2|0:0,0:0:0:0:
350,101,270815,2,0,L|342:18,1,80,0|2,0:0|0:0,0:0:0:0:
229,58,271209,2,0,L|241:147,1,80,8|2,3:1|0:1,0:0:0:0:
291,291,271639,2,0,B|326:307|326:307|367:308,1,80,0|2,0:0|0:1,0:0:0:0:
446,151,272064,5,2,1:2:0:0:
482,357,272266,1,0,0:0:0:0:
446,151,272469,1,0,0:0:0:0:
444,285,272672,1,2,0:0:0:0:
240,237,272874,1,8,3:1:0:0:
346,198,273077,1,0,0:0:0:0:
236,107,273280,1,0,0:0:0:0:
242,369,273482,1,2,1:0:0:0:
96,127,273888,69,2,0:0:0:0:
109,39,274091,1,0,0:0:0:0:
196,30,274293,1,2,0:0:0:0:
120,241,274496,2,0,L|29:239,1,80,8|2,3:1|0:1,0:0:0:0:
177,173,274901,1,0,0:0:0:0:
236,107,275104,1,2,0:1:0:0:
262,314,275307,6,0,L|207:382,1,80,2|2,1:2|0:1,0:0:0:0:
249,209,275723,1,0,0:1:0:0:
236,107,275932,1,2,0:1:0:0:
478,215,276132,2,0,L|465:301,1,80,8|2,3:1|0:1,0:0:0:0:
359,162,276537,1,0,0:0:0:0:
236,107,276742,1,2,0:1:0:0:
177,173,276948,70,0,L|80:170,1,80,2|8,1:2|0:1,0:0:0:0:
97,170,277370,1,0,0:0:0:0:
292,39,277581,2,0,L|374:43,1,80,2|8,0:0|3:1,0:0:0:0:
371,42,277980,1,2,0:0:0:0:
236,107,278177,1,2,0:1:0:0:
405,303,278590,70,0,P|430:250|415:188,1,120.000004577637,2|0,0:0|0:0,0:0:0:0:
264,336,279459,2,0,B|340:314|340:314|401:326,1,120.000004577637
213,283,280333,2,0,B|141:305|141:305|96:295,1,120.000004577637,2|0,0:0|0:0,0:0:0:0:
221,150,281190,2,0,P|188:199|196:257,1,120.000004577637,0|2,0:0|0:1,0:0:0:0:
273,221,281994,54,0,B|326:208|336:239|398:219,1,120.000004577637,2|0,0:0|0:0,0:0:0:0:
476,156,282851,2,0,B|423:169|413:138|358:157,1,120.000004577637
268,118,283702,2,0,P|278:59|240:10,1,120.000004577637,2|0,0:0|0:0,0:0:0:0:
82,88,284524,2,0,L|201:79,1,120.000004577637,0|2,0:0|0:1,0:0:0:0:
145,212,285366,6,0,L|7:223,1,120.000004577637,2|0,0:0|0:0,0:0:0:0:
193,267,286219,2,0,P|220:215|202:160,1,120.000004577637
273,281,287047,2,0,P|267:339|322:346,1,120.000004577637,2|0,0:0|0:0,0:0:0:0:
384,194,287879,2,0,B|392:233|392:233|371:263|371:263|379:305,1,120.000004577637,0|2,0:0|0:1,0:0:0:0:
488,162,288679,54,0,B|446:187|446:187|366:164,1,120.000004577637,2|0,0:0|0:0,0:0:0:0:
451,88,289581,2,0,B|382:68|382:68|340:93,1,120.000004577637
314,215,290432,2,0,B|270:239|245:198|195:223,1,120.000004577637,2|0,0:0|0:0,0:0:0:0:
229,292,291265,2,0,B|184:315|159:274|109:299,1,120.000004577637,0|2,0:0|0:1,0:0:0:0:
63,365,292115,70,0,P|79:313|55:248,1,120.000004577637,2|0,0:0|0:0,0:0:0:0:
143,364,292934,1,0,0:0:0:0:
58,252,293350,1,0,0:0:0:0:
117,96,293830,2,0,P|101:148|124:212,1,120.000004577637,2|0,0:0|0:0,0:0:0:0:
37,97,294658,1,0,0:0:0:0:
122,209,295080,1,2,0:1:0:0:
193,88,295521,22,0,B|249:113|268:74|312:90,1,120.000004577637,2|0,0:0|0:0,0:0:0:0:
230,23,296390,1,0,0:0:0:0:
310,89,296806,1,0,0:0:0:0:
200,174,297250,2,0,B|175:230|214:249|198:293,1,120.000004577637,2|0,0:0|0:0,0:0:0:0:
265,211,298112,1,0,0:0:0:0:
199,291,298547,1,2,0:1:0:0:
401,352,299015,38,0,P|341:328|289:349,1,120.000004577637,2|0,0:0|0:0,0:0:0:0:
419,266,299878,1,0,0:0:0:0:
291,346,300309,1,0,0:0:0:0:
323,169,300777,2,0,P|378:187|432:163,1,120.000004577637,2|0,0:0|0:0,0:0:0:0:
327,246,301700,1,0,0:0:0:0:
432,163,302116,1,2,0:1:0:0:
266,37,302642,22,0,P|275:82|255:127,1,95.9999970703126,2|0,0:0|0:0,0:0:0:0:
192,158,303694,1,0,0:0:0:0:
123,145,304220,1,0,0:0:0:0:
74,233,304808,2,0,P|132:227|186:231,1,111.999996582031,2|0,0:0|0:0,0:0:0:0:
233,291,306255,2,0,P|169:304|102:299,1,128,0|2,0:0|0:1,0:0:0:0:
185,230,308450,53,2,0:0:0:0:
256,192,308918,12,0,312200,0:0:0:0:
