osu file format v14

[General]
AudioFilename: audio.mp3
AudioLeadIn: 0
PreviewTime: 67541
Countdown: 1
SampleSet: Soft
StackLeniency: 0.2
Mode: 0
LetterboxInBreaks: 0
WidescreenStoryboard: 0

[Editor]
Bookmarks: 3979,15510,17385,38666,45604,118166,119197,120697
DistanceSpacing: 0.2
BeatDivisor: 4
GridSize: 4
TimelineZoom: 4.550002

[Metadata]
Title:Ineffabilis By GentleStick X M2U
TitleUnicode:Ineffabilis By GentleStick X M2U
Artist:Gentle Stick
ArtistUnicode:Gentle Stick
Creator:Kui
Version:Opera
Source:
Tags:
BeatmapID:927566
BeatmapSetID:429917

[Difficulty]
HPDrainRate:6
CircleSize:4.4
OverallDifficulty:8
ApproachRate:9.3
SliderMultiplier:1.9
SliderTickRate:2

[Events]
//Background and Video events
0,0,"dmitry-vernygor-mp-01.jpg",0,0
//Break Periods
//Storyboard Layer 0 (Background)
//Storyboard Layer 1 (Fail)
//Storyboard Layer 2 (Pass)
//Storyboard Layer 3 (Foreground)
//Storyboard Sound Samples

[TimingPoints]
1541.50156805409,375,4,2,0,65,1,0
9041,-100,4,2,0,65,0,0
25541,-80,4,2,0,65,0,0
28541,-66.6666666666667,4,2,0,65,0,0
28822,-100,4,2,0,65,0,0
29291,-80,4,2,0,65,0,0
32666,-57.1428571428571,4,2,0,65,0,0
33041,-80,4,2,0,65,0,0
33979,-80,4,2,0,5,0,0
34166,-80,4,2,0,65,0,0
35291,-133.333333333333,4,2,0,65,0,0
35666,-80,4,2,0,65,0,0
37541,-90.9090909090909,4,2,0,75,0,1
38479,-80,4,2,0,75,0,1
39041,-90.9090909090909,4,2,0,75,0,1
39979,-80,4,2,0,75,0,1
40541,-90.9090909090909,4,2,0,75,0,1
41479,-80,4,2,0,75,0,1
43541,-90.9090909090909,4,2,0,75,0,1
44479,-80,4,2,0,75,0,1
44947,-90.9090909090909,4,2,0,75,0,1
46072,-80,4,2,0,75,0,1
46447,-90.9090909090909,4,2,0,75,0,1
47385,-80,4,2,0,75,0,1
48322,-117.647058823529,4,2,0,75,0,1
49166,-80,4,2,0,75,0,1
49541,-133.333333333333,4,2,0,65,0,0
50479,-100,4,2,0,65,0,0
51041,-66.6666666666667,4,2,0,65,0,0
51135,-66.6666666666667,4,2,0,25,0,0
51416,-66.6666666666667,4,2,0,65,0,0
52166,-100,4,2,0,65,0,0
53291,-80,4,2,0,65,0,0
54697,-90.9090909090909,4,2,0,65,0,0
55541,-80,4,2,0,65,0,0
55729,-80,4,2,0,10,0,0
55916,-100,4,2,0,65,0,0
56291,-66.6666666666667,4,2,0,65,0,0
57135,-66.6666666666667,4,2,0,25,0,0
57322,-66.6666666666667,4,2,0,65,0,0
58822,-80,4,2,0,65,0,0
61729,-80,4,2,0,10,0,0
61916,-80,4,2,0,65,0,0
62947,-80,4,2,0,65,0,0
64822,-100,4,2,0,65,0,0
66604,-100,4,2,0,65,0,0
67541,-80,4,2,0,65,0,0
67729,-80,4,2,0,10,0,0
67916,-80,4,2,0,65,0,0
70822,-100,4,2,0,65,0,0
71291,-80,4,2,0,65,0,0
72791,-66.6666666666667,4,2,0,65,0,0
73260,-80,4,2,0,65,0,0
73756,-80,4,2,0,10,0,0
73916,-80,4,2,0,65,0,0
78791,-66.6666666666667,4,2,0,65,0,0
79541,-80,4,2,0,65,0,0
81322,-90.9090909090909,4,2,0,65,0,0
81885,-80,4,2,0,65,0,0
82166,-66.6666666666667,4,2,0,65,0,0
82916,-80,4,2,0,65,0,0
83385,-133.333333333333,4,2,0,65,0,0
83666,-90.9090909090909,4,2,0,65,0,0
84041,-80,4,2,0,65,0,0
84510,-90.9090909090909,4,2,0,65,0,0
84885,-80,4,2,0,55,0,0
84979,-80,4,2,0,45,0,0
85072,-80,4,2,0,35,0,0
85166,-80,4,2,0,25,0,0
85260,-80,4,2,0,45,0,0
85354,-80,4,2,0,55,0,0
85447,-80,4,2,0,65,0,0
85541,-80,4,2,0,75,0,0
86479,-80,4,2,0,10,0,0
86666,-80,4,2,0,65,0,0
87229,-80,4,2,0,10,0,0
87416,-80,4,2,0,65,0,0
87979,-80,4,2,0,10,0,0
88166,-80,4,2,0,65,0,0
88729,-80,4,2,0,10,0,0
88916,-80,4,2,0,65,0,0
92104,-100,4,2,0,65,0,0
93322,-100,4,2,0,65,0,0
95385,-80,4,2,0,65,0,0
97541,-80,4,2,0,75,0,1
99041,-66.6666666666667,4,2,0,75,0,1
101104,-50,4,2,0,75,0,1
101291,-80,4,2,0,75,0,1
108229,-90.9090909090909,4,2,0,75,0,1
108791,-80,4,2,0,75,0,1
109541,-80,4,2,0,65,0,0
111041,-100,4,2,0,65,0,0
111510,-80,4,2,0,65,0,0
111791,-66.6666666666667,4,2,0,65,0,0
112072,-57.1428571428571,4,2,0,65,0,0
112541,-80,4,2,0,65,0,0
112822,-90.9090909090909,4,2,0,65,0,0
113291,-80,4,2,0,65,0,0
113572,-90.9090909090909,4,2,0,65,0,0
114041,-80,4,2,0,65,0,0
114697,-90.9090909090909,4,2,0,65,0,0
117791,-66.6666666666667,4,2,0,65,0,0
118166,-80,4,2,0,65,0,0
120697,-90.9090909090909,4,2,0,65,0,0
121541,-80,4,2,0,65,0,0
124729,-90.9090909090909,4,2,0,65,0,0
127541,-80,4,2,0,65,0,0
129416,-66.6666666666667,4,2,0,65,0,0
129791,-80,4,2,0,65,0,0
130822,-84.7457627118644,4,2,0,65,0,0
131479,-84.7457627118644,4,2,0,65,0,0
132229,-80,4,2,0,65,0,0
132979,-50,4,2,0,65,0,0
133635,-100,4,2,0,65,0,0
143104,-80,4,2,0,65,0,0

[HitObjects]
84,100,1543,6,0,L|146:177,1,95
155,189,1822,1,0,0:0:0:0:
168,203,1916,1,0,0:0:0:0:
331,268,2103,1,0,0:0:0:0:
380,73,2291,2,0,B|341:73|341:73|307:82|307:82|191:82,1,190
69,78,2854,5,0,0:0:0:0:
146,200,3041,1,0,0:0:0:0:
255,88,3229,2,0,L|255:40,2,47.5
366,200,3604,1,0,0:0:0:0:
443,78,3791,2,0,P|376:43|289:146,1,190
324,256,4354,1,0,0:0:0:0:
350,243,4447,1,0,0:0:0:0:
368,217,4541,6,0,L|254:221,1,95
148,324,4916,1,0,0:0:0:0:
273,220,5104,1,0,0:0:0:0:
84,72,5291,2,0,P|137:35|216:135,1,190
284,144,5760,1,0,0:0:0:0:
253,178,5853,1,0,0:0:0:0:
207,182,5947,1,0,0:0:0:0:
172,212,6041,6,0,P|185:258|226:284,1,95,0|0,0:3|0:3,0:3:0:0:
372,248,6416,1,0,0:0:0:0:
204,76,6604,1,0,0:0:0:0:
224,276,6791,2,0,P|301:249|337:149,1,190
364,72,7260,1,0,0:0:0:0:
317,69,7353,1,0,0:0:0:0:
276,92,7447,1,0,0:0:0:0:
260,136,7541,6,0,P|238:179|171:190,1,95
32,92,7916,1,0,0:0:0:0:
216,41,8104,1,0,0:0:0:0:
112,208,8291,2,0,B|170:240|170:240|199:326|301:314,1,190
411,81,9041,6,0,L|291:29,1,95
128,56,9416,1,0,0:0:0:0:
156,244,9604,1,0,0:0:0:0:
346,224,9791,2,0,B|366:239,12,23.75
400,72,10541,6,0,P|324:120|244:84,1,142.5
217,175,10916,1,0,0:0:0:0:
341,300,11104,1,0,0:0:0:0:
410,139,11291,2,0,B|440:163,14,23.75
152,116,12041,2,0,B|168:96,15,23.75
200,88,12791,5,0,0:0:0:0:
235,91,12884,1,0,0:0:0:0:
269,101,12978,1,0,0:0:0:0:
301,116,13072,1,0,0:0:0:0:
331,136,13166,1,0,0:0:0:0:
357,160,13259,1,0,0:0:0:0:
378,189,13353,1,0,0:0:0:0:
394,220,13447,1,0,0:0:0:0:
408,252,13541,5,0,0:0:0:0:
288,24,13729,1,0,0:0:0:0:
147,236,13916,1,0,0:0:0:0:
113,202,14009,1,0,0:0:0:0:
230,214,14197,1,0,0:0:0:0:
217,168,14290,1,0,0:0:0:0:
320,206,14479,1,0,0:0:0:0:
320,158,14572,1,0,0:0:0:0:
410,214,14760,1,0,0:0:0:0:
422,168,14853,1,0,0:0:0:0:
457,87,15041,5,0,0:0:0:0:
348,308,15229,1,0,0:0:0:0:
152,152,15416,1,0,0:0:0:0:
199,152,15509,1,0,0:0:0:0:
312,208,15697,1,0,0:0:0:0:
264,208,15790,1,0,0:0:0:0:
232,84,15979,1,0,0:0:0:0:
280,84,16072,1,0,0:0:0:0:
271,276,16260,1,0,0:0:0:0:
224,276,16353,1,0,0:0:0:0:
104,176,16541,5,0,0:0:0:0:
192,56,16729,1,0,0:0:0:0:
336,132,16916,2,0,L|376:96,1,47.5
140,100,17197,2,0,L|176:132,1,47.5
176,252,17479,2,0,L|136:288,1,47.5
371,283,17760,2,0,L|336:252,1,47.5
196,124,18041,6,0,L|276:48,1,95
352,148,18416,2,0,L|352:208,1,47.5
220,280,18697,1,0,0:0:0:0:
267,280,18790,1,0,0:0:0:0:
432,280,18979,2,0,L|432:228,1,47.5
248,176,19260,1,0,0:0:0:0:
200,176,19353,1,0,0:0:0:0:
64,184,19541,6,0,L|64:312,1,95
184,204,19916,1,0,0:0:0:0:
215,168,20009,1,0,0:0:0:0:
336,92,20197,1,0,0:0:0:0:
304,127,20290,1,0,0:0:0:0:
108,152,20479,1,0,0:0:0:0:
139,116,20572,1,0,0:0:0:0:
400,140,20760,1,0,0:0:0:0:
368,175,20853,1,0,0:0:0:0:
240,328,21041,6,0,P|194:332|162:299,1,95
179,114,21416,2,0,L|208:151,1,47.5
297,270,21697,2,0,L|267:233,1,47.5
334,114,21979,2,0,L|364:152,1,47.5
448,264,22260,2,0,L|418:227,1,47.5
512,153,22541,1,0,0:0:0:0:
512,153,22916,5,0,0:0:0:0:
337,83,23104,1,0,0:0:0:0:
236,241,23291,2,0,L|171:171,1,95
265,78,23666,1,0,0:0:0:0:
303,50,23759,1,0,0:0:0:0:
84,176,24041,6,0,B|153:120|161:211|248:151,1,142.5
257,166,24416,1,0,0:0:0:0:
301,146,24510,1,0,0:0:0:0:
343,123,24604,1,0,0:0:0:0:
390,123,24697,1,0,0:0:0:0:
434,139,24791,1,0,0:0:0:0:
464,175,24885,1,0,0:0:0:0:
475,221,24979,1,0,0:0:0:0:
384,250,25166,1,0,0:0:0:0:
91,280,25541,6,0,P|80:146|111:88,1,178.125
196,76,25916,1,0,0:0:0:0:
195,99,26010,1,0,0:0:0:0:
202,121,26103,1,0,0:0:0:0:
215,143,26197,1,0,0:0:0:0:
234,155,26291,2,0,B|288:156|308:112|308:112|376:64|444:107,1,237.5
470,187,26760,1,0,0:0:0:0:
447,189,26854,1,0,0:0:0:0:
426,180,26947,1,0,0:0:0:0:
405,170,27041,2,0,B|341:110|400:32,1,118.75
444,107,27322,1,0,0:0:0:0:
381,62,27416,2,0,B|317:59|317:59|270:30,1,118.75
42,71,27791,2,0,B|114:154|7:216|111:304,1,237.5
115,299,28260,5,0,0:0:0:0:
138,302,28354,1,0,0:0:0:0:
159,300,28447,1,0,0:0:0:0:
183,294,28541,2,0,P|242:263|282:174,1,142.500005435944
228,108,28822,1,0,0:0:0:0:
209,151,28915,1,0,0:0:0:0:
174,182,29009,1,0,0:0:0:0:
128,193,29103,1,0,0:0:0:0:
82,183,29197,1,0,0:0:0:0:
40,164,29291,6,0,P|54:105|109:83,1,118.75
267,181,29572,1,0,0:0:0:0:
267,181,29666,2,0,P|255:237|203:261,1,118.75
128,193,29947,1,0,0:0:0:0:
128,193,30041,2,0,B|88:263|125:324,1,118.75
203,261,30322,1,0,0:0:0:0:
249,250,30415,1,0,0:0:0:0:
289,225,30509,1,0,0:0:0:0:
319,189,30603,1,0,0:0:0:0:
336,145,30697,1,0,0:0:0:0:
343,98,30791,2,0,P|306:104|276:140,1,59.375
182,197,30979,2,0,L|124:240,2,59.375
389,46,31354,5,0,0:0:0:0:
378,67,31447,1,0,0:0:0:0:
365,87,31541,2,0,P|256:108|131:40,1,237.5
100,72,32010,1,0,0:0:0:0:
65,104,32103,1,0,0:0:0:0:
49,148,32197,1,0,0:0:0:0:
47,196,32291,2,0,B|110:203|110:203|141:263|206:271,1,178.125
167,339,32666,2,0,P|257:307|251:215,1,166.250001585484
117,134,33041,5,0,0:0:0:0:
121,110,33135,1,0,0:0:0:0:
131,88,33229,1,0,0:0:0:0:
178,52,33322,1,0,0:0:0:0:
236,46,33416,2,0,B|299:53|299:53|365:94,1,118.75
433,165,33791,2,0,P|371:226|285:246,1,178.125
259,231,34166,2,0,P|332:233|394:308,1,118.75
269,306,34541,6,0,P|209:285|248:148,1,237.5
244,148,35291,2,0,L|286:198,1,35.625001358986
244,148,35479,2,0,L|286:198,1,35.625001358986
244,148,35666,2,0,L|220:269,1,118.75
271,325,36041,6,0,L|332:305,1,59.375
345,290,36229,1,0,0:0:0:0:
362,274,36322,1,0,0:0:0:0:
376,255,36416,1,0,0:0:0:0:
389,235,36510,1,0,0:0:0:0:
401,215,36604,1,0,0:0:0:0:
410,193,36697,1,0,0:0:0:0:
421,172,36791,2,0,B|379:124|301:112,1,118.75
196,143,37166,2,0,B|241:184|304:187,1,118.75
420,112,37541,5,8,0:0:0:0:
420,164,37634,1,0,0:0:0:0:
406,214,37728,1,0,0:0:0:0:
379,258,37822,1,0,0:0:0:0:
341,294,37916,1,8,0:0:0:0:
295,318,38009,1,0,0:0:0:0:
244,328,38103,1,0,0:0:0:0:
192,324,38197,1,0,0:0:0:0:
143,305,38291,1,8,0:0:0:0:
101,274,38384,1,0,0:0:0:0:
76,228,38479,6,0,L|129:158,1,59.375
214,72,38666,2,8,L|250:118,1,59.375
350,227,38854,2,0,L|387:181,1,59.375
436,128,39041,5,8,0:0:0:0:
388,108,39134,1,0,0:0:0:0:
337,118,39228,1,0,0:0:0:0:
301,155,39322,1,0,0:0:0:0:
292,205,39416,1,8,0:0:0:0:
243,218,39510,5,0,0:0:0:0:
195,237,39603,1,0,0:0:0:0:
144,227,39697,1,0,0:0:0:0:
108,190,39791,1,8,0:0:0:0:
99,140,39885,1,0,0:0:0:0:
0,183,39979,6,0,L|34:232,1,59.375
240,279,40166,2,8,L|206:230,1,59.375
94,175,40354,2,0,L|127:223,1,59.375
112,334,40541,5,8,0:0:0:0:
163,341,40634,1,0,0:0:0:0:
210,321,40728,1,0,0:0:0:0:
240,279,40822,1,0,0:0:0:0:
238,228,40916,1,8,0:0:0:0:
234,176,41009,1,0,0:0:0:0:
249,126,41103,1,0,0:0:0:0:
281,85,41197,1,0,0:0:0:0:
326,59,41291,1,8,0:0:0:0:
378,52,41384,1,0,0:0:0:0:
429,66,41479,6,8,B|470:120,5,59.375
303,206,42041,2,8,P|238:164|246:83,1,118.75
396,223,42322,1,8,0:0:0:0:
396,223,42416,2,8,P|371:275|316:295,1,118.75
178,253,42697,1,8,0:0:0:0:
178,253,42791,2,8,L|226:127,1,118.75
344,159,43072,1,8,0:0:0:0:
344,159,43166,2,8,L|301:48,1,118.75
30,212,43541,5,8,0:0:0:0:
77,233,43634,1,0,0:0:0:0:
126,252,43728,1,0,0:0:0:0:
176,266,43822,1,0,0:0:0:0:
228,273,43916,1,8,0:0:0:0:
280,269,44009,1,0,0:0:0:0:
326,246,44103,1,0,0:0:0:0:
352,201,44197,1,0,0:0:0:0:
342,151,44291,1,8,0:0:0:0:
301,121,44384,1,0,0:0:0:0:
246,141,44479,6,0,P|314:121|354:125,1,59.375
202,287,44666,1,8,0:0:0:0:
202,287,44760,2,0,P|228:299|257:306,1,59.375
458,197,44947,5,0,0:0:0:0:
413,223,45040,1,8,0:0:0:0:
362,230,45134,1,0,0:0:0:0:
311,217,45228,1,0,0:0:0:0:
271,185,45322,1,0,0:0:0:0:
245,140,45415,1,8,0:0:0:0:
221,94,45510,1,0,0:0:0:0:
170,79,45603,1,0,0:0:0:0:
119,81,45697,1,0,0:0:0:0:
70,101,45791,1,8,0:0:0:0:
32,136,45885,1,0,0:0:0:0:
9,181,45978,1,0,0:0:0:0:
0,231,46072,6,8,P|66:234|92:216,1,59.375
216,122,46260,2,8,P|187:113|158:116,1,59.375
100,326,46447,5,0,0:0:0:0:
152,327,46540,1,8,0:0:0:0:
203,317,46634,1,0,0:0:0:0:
250,295,46728,1,0,0:0:0:0:
291,263,46822,1,0,0:0:0:0:
324,223,46915,1,8,0:0:0:0:
347,176,47009,1,0,0:0:0:0:
356,124,47104,1,0,0:0:0:0:
335,74,47197,1,0,0:0:0:0:
302,33,47291,1,8,0:0:0:0:
260,5,47385,2,0,P|292:63|314:66,1,59.375
359,215,47572,5,0,0:0:0:0:
323,247,47666,1,8,0:0:0:0:
279,268,47760,1,0,0:0:0:0:
233,281,47854,1,0,0:0:0:0:
181,286,47947,1,0,0:0:0:0:
136,259,48041,6,4,P|123:224|163:146,1,118.75
193,182,48322,1,0,0:0:0:0:
230,197,48415,1,8,0:0:0:0:
270,201,48509,1,8,0:0:0:0:
309,194,48603,1,0,0:0:0:0:
345,175,48697,1,0,0:0:0:0:
375,148,48790,1,8,0:0:0:0:
140,101,49166,2,4,L|103:122,7,29.6875
188,83,49541,6,0,B|217:178|217:178|202:231,1,142.500005435944
281,305,50104,2,0,L|335:304,2,35.625001358986
165,247,50479,2,0,B|192:203|192:203|193:159,1,95
320,115,50854,1,0,0:0:0:0:
99,78,51041,6,0,B|201:110|201:110|148:147,1,142.500005435944
95,182,51416,2,0,P|126:260|208:300,1,142.500005435944
221,245,51697,1,0,0:0:0:0:
281,207,51791,2,0,P|261:139|283:72,1,142.500005435944
412,80,52166,2,0,B|331:141|331:141,1,95
194,155,52541,6,0,P|186:207|215:243,1,95
247,216,52822,1,0,0:0:0:0:
291,201,52915,1,0,0:0:0:0:
337,211,53009,1,0,0:0:0:0:
385,202,53104,1,0,0:0:0:0:
423,174,53197,1,0,0:0:0:0:
410,128,53291,2,0,P|361:116|329:55,1,118.75
296,27,53572,5,0,0:0:0:0:
300,85,53665,1,0,0:0:0:0:
273,137,53759,1,0,0:0:0:0:
224,169,53853,1,0,0:0:0:0:
165,172,53947,1,0,0:0:0:0:
138,209,54041,2,0,B|168:288|240:310|240:310,1,118.75
256,276,54322,1,0,0:0:0:0:
288,240,54416,2,0,P|328:173|374:151,1,118.75
407,128,54697,5,0,0:0:0:0:
389,79,54790,1,0,0:0:0:0:
343,55,54884,1,0,0:0:0:0:
292,61,54978,1,0,0:0:0:0:
252,93,55072,1,0,0:0:0:0:
238,143,55165,1,0,0:0:0:0:
244,188,55260,1,0,0:0:0:0:
231,238,55353,1,0,0:0:0:0:
208,285,55447,1,0,0:0:0:0:
166,312,55541,6,4,L|91:143,1,178.125
158,82,55916,2,0,L|266:149,1,95
282,81,56197,1,0,0:0:0:0:
336,27,56291,2,0,P|347:119|289:158,1,142.5
168,303,56666,6,0,P|169:207|231:179,1,142.500005435944
226,255,57041,2,0,L|363:207,1,142.500005435944
446,106,57416,1,0,0:0:0:0:
265,74,57604,1,0,0:0:0:0:
240,60,57697,1,0,0:0:0:0:
211,62,57791,2,0,P|230:157|184:223,1,142.500005435944
143,242,58166,2,0,P|238:261|304:215,1,142.500005435944
212,195,58541,2,0,P|201:266|233:332,1,142.500005435944
276,336,58822,1,0,0:0:0:0:
320,321,58915,1,0,0:0:0:0:
356,291,59009,1,0,0:0:0:0:
377,248,59103,1,0,0:0:0:0:
380,201,59197,1,0,0:0:0:0:
364,158,59291,2,0,L|253:230,1,118.75
218,230,59572,5,0,0:0:0:0:
182,198,59665,1,0,0:0:0:0:
167,154,59759,1,0,0:0:0:0:
175,108,59853,1,0,0:0:0:0:
204,71,59947,1,0,0:0:0:0:
249,57,60041,2,0,P|287:107|275:167,1,118.75
250,228,60322,1,0,0:0:0:0:
215,293,60416,2,0,P|272:297|316:259,1,118.75
337,222,60697,1,0,0:0:0:0:
358,179,60790,1,0,0:0:0:0:
359,132,60884,1,0,0:0:0:0:
340,89,60979,1,0,0:0:0:0:
304,58,61072,1,0,0:0:0:0:
286,96,61166,1,0,0:0:0:0:
289,143,61260,1,0,0:0:0:0:
313,183,61354,1,0,0:0:0:0:
354,211,61448,1,0,0:0:0:0:
402,220,61541,6,0,L|249:311,1,178.125
248,311,61916,1,0,0:0:0:0:
156,207,62104,5,0,0:0:0:0:
163,244,62197,1,0,0:0:0:0:
175,275,62291,2,0,P|225:220|238:157,1,118.75
234,30,62666,2,0,P|193:113|237:172,1,118.75
195,176,62947,1,0,0:0:0:0:
195,176,63041,2,2,B|274:237|288:272,1,118.75
348,336,63416,1,0,0:0:0:0:
403,195,63604,5,0,0:0:0:0:
397,166,63697,1,0,0:0:0:0:
385,139,63791,2,0,L|256:76,1,118.75
144,100,64166,2,0,P|100:164|80:228,1,118.75
196,324,64541,6,0,P|231:276|254:221,1,118.75
265,175,64822,1,0,0:0:0:0:
281,130,64915,1,0,0:0:0:0:
317,100,65009,1,0,0:0:0:0:
362,89,65103,1,0,0:0:0:0:
408,101,65197,1,0,0:0:0:0:
442,133,65290,1,0,0:0:0:0:
420,287,65479,5,0,0:0:0:0:
401,317,65572,1,0,0:0:0:0:
374,340,65666,1,0,0:0:0:0:
341,353,65760,1,0,0:0:0:0:
306,355,65854,1,0,0:0:0:0:
272,345,65947,1,0,0:0:0:0:
243,325,66041,1,0,0:0:0:0:
114,270,66229,5,0,0:0:0:0:
141,247,66322,1,0,0:0:0:0:
158,216,66416,1,0,0:0:0:0:
123,106,66604,5,0,0:0:0:0:
170,107,66697,1,0,0:0:0:0:
213,126,66791,1,0,0:0:0:0:
246,160,66885,1,0,0:0:0:0:
263,204,66979,1,0,0:0:0:0:
262,251,67072,1,0,0:0:0:0:
244,294,67166,1,0,0:0:0:0:
211,328,67260,1,0,0:0:0:0:
167,346,67354,1,0,0:0:0:0:
120,346,67447,1,0,0:0:0:0:
78,324,67541,6,0,L|253:248,1,178.125
383,189,67916,1,0,0:0:0:0:
187,91,68104,1,0,0:0:0:0:
160,103,68197,1,0,0:0:0:0:
135,87,68291,2,0,P|113:180|86:212,1,118.75
110,315,68666,2,0,P|200:272|244:218,1,118.75
294,174,69041,6,0,L|252:155,10,29.6875
225,145,69604,1,0,0:0:0:0:
182,146,69697,1,0,0:0:0:0:
139,157,69791,2,0,B|180:197|180:197|205:289,1,118.75
174,352,70166,2,0,B|234:339|234:339|276:300,1,118.75
392,203,70541,6,0,P|391:132|336:80,1,118.75
318,83,70822,1,0,0:0:0:0:
270,84,70915,1,0,0:0:0:0:
223,93,71009,1,0,0:0:0:0:
179,109,71103,1,0,0:0:0:0:
137,131,71197,1,0,0:0:0:0:
105,166,71291,6,0,L|233:214,1,118.75
252,236,71572,1,0,0:0:0:0:
219,267,71665,1,0,0:0:0:0:
178,248,71759,1,0,0:0:0:0:
160,205,71853,1,0,0:0:0:0:
157,157,71947,1,0,0:0:0:0:
171,125,72041,6,0,B|275:19,1,118.75
299,43,72322,1,0,0:0:0:0:
333,71,72415,1,0,0:0:0:0:
368,99,72509,1,0,0:0:0:0:
368,144,72604,1,0,0:0:0:0:
333,172,72698,1,0,0:0:0:0:
299,200,72791,2,0,B|205:203|202:123|202:123|99:154|98:20,1,285.000010871888
445,69,73541,6,0,L|263:127,1,178.125
175,295,74104,1,0,0:0:0:0:
175,295,74198,1,0,0:0:0:0:
175,295,74292,1,0,0:0:0:0:
236,92,74854,5,0,0:0:0:0:
236,92,74947,1,0,0:0:0:0:
236,92,75041,1,0,0:0:0:0:
412,256,75604,5,0,0:0:0:0:
412,256,75698,1,0,0:0:0:0:
412,256,75792,1,0,0:0:0:0:
141,153,76354,5,0,0:0:0:0:
141,153,76447,1,0,0:0:0:0:
141,153,76541,1,0,0:0:0:0:
141,153,77104,5,0,0:0:0:0:
141,153,77197,1,0,0:0:0:0:
141,153,77291,1,0,0:0:0:0:
362,50,77479,1,0,0:0:0:0:
395,272,77666,2,0,P|317:232|288:179,1,118.75
191,59,78041,2,0,P|116:90|37:262,1,237.5
124,286,78604,2,0,L|202:291,1,59.375
239,301,78760,1,0,0:0:0:0:
251,303,78791,2,0,L|408:288,1,142.500005435944
473,170,79166,1,0,0:0:0:0:
289,46,79354,1,0,0:0:0:0:
221,150,79541,2,0,B|144:248|144:248|43:269,1,178.125
156,81,80072,5,0,0:0:0:0:
168,73,80104,2,0,P|233:53|407:91,1,237.5
399,231,80666,5,0,0:0:0:0:
164,258,80854,1,0,0:0:0:0:
123,99,81041,2,0,P|208:66|241:70,1,118.75
270,105,81322,1,0,0:0:0:0:
321,112,81415,1,0,0:0:0:0:
373,107,81509,1,0,0:0:0:0:
422,89,81603,1,0,0:0:0:0:
464,59,81697,1,0,0:0:0:0:
419,223,81854,5,0,0:0:0:0:
411,229,81885,2,0,P|336:264|251:247,1,118.75
250,246,82166,2,0,P|157:205|57:212,1,142.500005435944
76,84,82541,5,0,0:0:0:0:
372,115,82729,1,0,0:0:0:0:
388,334,82916,1,0,0:0:0:0:
339,320,83009,1,0,0:0:0:0:
291,305,83103,1,0,0:0:0:0:
248,279,83197,1,0,0:0:0:0:
101,173,83385,2,0,L|172:115,1,71.2500027179719
197,97,83666,1,0,0:0:0:0:
245,78,83759,1,0,0:0:0:0:
297,68,83853,1,0,0:0:0:0:
349,67,83947,1,0,0:0:0:0:
402,63,84041,6,0,L|246:6,2,118.75
437,99,84510,1,0,0:0:0:0:
447,150,84603,1,0,0:0:0:0:
447,202,84697,1,0,0:0:0:0:
438,253,84791,1,0,0:0:0:0:
406,293,84885,6,4,L|369:266,1,29.6875
386,317,84979,6,4,L|354:284,1,29.6875
362,338,85072,6,4,L|336:300,1,29.6875
336,356,85166,5,0,0:0:0:0:
300,353,85260,6,4,L|298:382,1,29.6875
273,348,85354,6,4,L|266:376,1,29.6875
248,338,85447,6,4,L|236:365,1,29.6875
226,325,85541,2,0,B|145:299|145:299|106:236,1,118.75
199,212,85916,2,0,P|143:138|179:83,1,118.75
219,139,86197,1,0,0:0:0:0:
261,60,86291,2,0,B|333:31|411:50|435:62,1,178.125
512,118,86666,1,0,0:0:0:0:
353,249,86854,1,0,0:0:0:0:
329,247,86947,1,0,0:0:0:0:
306,239,87041,2,0,B|228:234|166:184|141:154,1,178.125
67,60,87416,1,0,0:0:0:0:
334,95,87604,6,0,L|278:77,1,59.375
373,37,87791,2,0,P|382:146|290:147,1,178.125
149,163,88166,1,0,0:0:0:0:
304,252,88354,6,0,L|368:265,1,59.375
394,270,88541,2,0,B|343:230|343:230|297:224|297:224|240:180,1,178.125
103,109,88916,1,0,0:0:0:0:
209,231,89104,6,0,L|251:172,2,59.375
114,334,89479,1,0,0:0:0:0:
282,275,89666,1,0,0:0:0:0:
349,110,89854,1,0,0:0:0:0:
261,85,90041,2,0,P|367:29|441:131,1,237.5
414,249,90604,6,0,L|353:280,1,59.375
298,293,90760,1,0,0:0:0:0:
288,295,90791,2,0,L|166:271,1,118.75
224,232,91166,2,0,P|178:340|159:339,1,118.75
85,225,91541,6,0,L|206:88,1,178.125
311,83,92072,1,0,0:0:0:0:
316,91,92104,2,0,P|276:148|340:268,1,190
440,212,92666,1,0,0:0:0:0:
391,73,92854,1,0,0:0:0:0:
186,61,93041,6,0,P|220:116|221:160,1,95
195,188,93322,1,0,0:0:0:0:
208,233,93415,1,0,0:0:0:0:
236,271,93509,1,0,0:0:0:0:
276,295,93603,1,0,0:0:0:0:
323,304,93697,1,0,0:0:0:0:
402,169,93885,6,2,L|397:128,1,23.75
362,180,93979,2,2,L|371:204,1,23.75
323,192,94072,2,2,L|306:151,1,23.75
288,211,94166,1,2,0:0:0:0:
243,219,94259,1,2,0:0:0:0:
198,206,94353,1,2,0:0:0:0:
149,202,94447,1,2,0:0:0:0:
116,170,94541,2,0,B|161:105|161:105|176:99,1,95
396,73,94916,5,0,0:0:0:0:
165,125,95104,1,0,0:0:0:0:
198,159,95197,1,0,0:0:0:0:
345,297,95385,6,0,P|275:335|212:332,1,118.75
197,329,95666,1,0,0:0:0:0:
153,306,95759,1,0,0:0:0:0:
109,291,95853,1,0,0:0:0:0:
63,281,95947,1,0,0:0:0:0:
26,263,96041,2,0,B|91:260|91:260|189:166,1,178.125
256,192,96604,12,0,97354,0:0:0:0:
65,92,97541,6,8,L|110:156,1,59.375
194,165,97729,6,0,L|228:213,1,59.375
269,91,97916,6,8,L|314:155,1,59.375
389,153,98104,6,0,L|423:201,1,59.375
359,115,98291,1,8,0:0:0:0:
315,96,98384,1,0,0:0:0:0:
269,91,98478,1,0,0:0:0:0:
222,99,98572,1,0,0:0:0:0:
180,123,98666,2,8,L|113:173,3,59.375
203,167,99041,6,8,L|257:222,1,71.2500027179719
312,266,99229,2,0,L|332:191,1,71.2500027179719
344,123,99416,2,8,L|269:142,1,71.2500027179719
203,167,99604,2,0,L|257:222,1,71.2500027179719
312,266,99791,5,8,0:0:0:0:
265,262,99884,1,0,0:0:0:0:
225,236,99978,1,0,0:0:0:0:
202,195,100072,1,0,0:0:0:0:
201,148,100166,1,8,0:0:0:0:
223,107,100259,1,0,0:0:0:0:
262,80,100353,1,0,0:0:0:0:
309,75,100447,1,0,0:0:0:0:
366,72,100541,6,8,L|399:137,1,71.2500027179719
461,157,100729,2,8,L|428:222,1,71.2500027179719
354,224,100916,2,8,L|387:289,1,71.2500027179719
411,345,101104,2,0,L|228:346,1,95
317,345,101291,1,8,0:0:0:0:
353,315,101384,1,0,0:0:0:0:
370,272,101478,1,0,0:0:0:0:
364,225,101572,1,0,0:0:0:0:
335,188,101666,1,8,0:0:0:0:
291,170,101759,1,0,0:0:0:0:
245,177,101853,1,0,0:0:0:0:
208,205,101947,1,0,0:0:0:0:
209,206,102041,6,8,P|274:164|266:83,1,118.75
116,223,102322,1,0,0:0:0:0:
116,223,102416,2,8,P|141:275|196:295,1,118.75
334,253,102697,1,0,0:0:0:0:
334,253,102791,2,8,L|286:127,1,118.75
168,159,103072,1,0,0:0:0:0:
168,159,103166,2,8,L|211:48,1,118.75
335,108,103541,2,4,P|275:56|122:72,1,237.5
163,202,104291,5,8,0:0:0:0:
195,235,104384,1,0,0:0:0:0:
201,281,104478,1,0,0:0:0:0:
177,322,104572,1,0,0:0:0:0:
149,360,104666,2,8,L|217:339,1,59.375
295,259,104854,2,0,L|239:277,1,59.375
201,281,105041,5,8,0:0:0:0:
175,241,105134,1,0,0:0:0:0:
169,194,105228,1,0,0:0:0:0:
182,149,105322,1,0,0:0:0:0:
212,112,105416,1,8,0:0:0:0:
254,91,105509,1,0,0:0:0:0:
301,89,105603,1,0,0:0:0:0:
345,106,105697,1,0,0:0:0:0:
380,139,105791,5,8,0:0:0:0:
345,170,105884,1,0,0:0:0:0:
300,184,105978,1,0,0:0:0:0:
253,178,106072,1,0,0:0:0:0:
212,154,106166,1,8,0:0:0:0:
185,116,106259,1,0,0:0:0:0:
175,70,106353,1,0,0:0:0:0:
186,23,106447,1,0,0:0:0:0:
227,0,106541,5,8,0:0:0:0:
237,46,106634,1,0,0:0:0:0:
228,92,106728,1,0,0:0:0:0:
200,130,106822,1,0,0:0:0:0:
160,154,106916,1,8,0:0:0:0:
113,160,107009,1,0,0:0:0:0:
68,146,107103,1,0,0:0:0:0:
33,115,107197,1,0,0:0:0:0:
175,56,107291,2,8,P|224:111|221:150,1,59.375
337,328,107479,2,8,P|287:272|290:233,1,59.375
337,55,107666,2,8,P|311:70|293:94,1,59.375
174,328,107854,2,8,P|200:313|218:289,1,59.375
256,34,108041,1,8,0:0:0:0:
365,244,108229,5,8,0:0:0:0:
314,255,108322,1,8,0:0:0:0:
262,252,108416,1,8,0:0:0:0:
213,234,108510,1,8,0:0:0:0:
171,203,108604,1,8,0:0:0:0:
141,161,108697,1,8,0:0:0:0:
125,113,108791,2,2,B|187:75|246:112|246:112|322:106|357:20,1,237.5
388,250,109354,2,8,L|359:238,1,29.6875
379,265,109447,2,8,L|352:250,1,29.6875
370,280,109541,1,4,0:0:0:0:
111,152,110104,5,0,0:0:0:0:
103,195,110197,1,0,0:0:0:0:
129,231,110291,1,0,0:0:0:0:
313,283,110479,1,0,0:0:0:0:
315,92,110666,2,0,P|398:134|409:202,1,118.75
331,164,111041,2,8,L|174:328,1,190
142,128,111604,1,0,0:0:0:0:
170,94,111697,1,0,0:0:0:0:
211,107,111791,2,8,L|295:232,1,142.500005435944
355,187,112166,2,8,P|323:292|213:272,1,166.250001585484
91,183,112541,6,0,P|111:115|181:49,1,118.75
188,97,112822,1,0,0:0:0:0:
239,105,112915,1,0,0:0:0:0:
289,90,113009,1,0,0:0:0:0:
338,72,113104,1,0,0:0:0:0:
382,98,113197,1,0,0:0:0:0:
413,138,113291,2,0,P|386:204|333:227,1,118.75
341,151,113572,5,0,0:0:0:0:
312,107,113665,1,0,0:0:0:0:
274,71,113759,1,0,0:0:0:0:
229,46,113853,1,0,0:0:0:0:
179,32,113947,1,0,0:0:0:0:
129,42,114041,2,0,B|168:112|168:112|154:160,1,118.75
91,123,114322,1,0,0:0:0:0:
24,89,114416,2,0,B|13:126|13:126|52:196,1,118.75
94,233,114697,1,0,0:0:0:0:
144,246,114790,1,0,0:0:0:0:
195,241,114884,1,0,0:0:0:0:
242,218,114978,1,0,0:0:0:0:
277,180,115072,1,0,0:0:0:0:
297,132,115165,1,0,0:0:0:0:
311,81,115260,5,0,0:0:0:0:
355,107,115353,1,0,0:0:0:0:
379,153,115447,1,0,0:0:0:0:
373,205,115541,1,0,0:0:0:0:
273,313,115916,1,0,0:0:0:0:
175,222,116104,5,0,0:0:0:0:
153,190,116197,1,0,0:0:0:0:
132,157,116291,2,0,P|212:150|249:103,1,118.75
274,61,116666,2,0,P|216:59|169:94,1,118.75
237,125,117041,2,0,B|282:196|325:231|447:243,1,237.5
370,71,117604,2,0,L|298:98,1,59.375
281,122,117791,2,0,P|275:197|204:230,1,142.500005435944
298,232,118166,2,0,P|354:242|386:290,1,118.75
314,303,118541,6,0,P|218:323|187:295,1,118.75
171,278,118822,1,0,0:0:0:0:
159,250,118915,1,0,0:0:0:0:
193,206,119009,1,0,0:0:0:0:
196,148,119103,1,0,0:0:0:0:
237,105,119197,1,0,0:0:0:0:
176,68,119291,2,0,P|240:35|301:79,1,118.75
333,76,119572,1,0,0:0:0:0:
364,103,119665,1,0,0:0:0:0:
361,161,119759,1,0,0:0:0:0:
392,211,119853,1,0,0:0:0:0:
404,266,119947,1,0,0:0:0:0:
337,291,120041,6,0,P|421:337|473:305,1,118.75
404,266,120322,1,0,0:0:0:0:
474,256,120416,2,0,P|399:196|342:218,1,118.75
325,244,120697,1,0,0:0:0:0:
277,265,120791,5,0,0:0:0:0:
240,227,120884,1,0,0:0:0:0:
221,179,120978,1,0,0:0:0:0:
221,127,121072,1,0,0:0:0:0:
267,152,121166,1,0,0:0:0:0:
315,169,121259,1,0,0:0:0:0:
366,171,121353,1,0,0:0:0:0:
417,158,121447,1,0,0:0:0:0:
465,174,121541,6,0,B|379:210|346:119|346:119|212:150,1,237.5
181,264,122104,1,0,0:0:0:0:
173,289,122197,1,0,0:0:0:0:
175,319,122291,2,0,P|274:286|279:237,1,118.75
403,121,122666,5,0,0:0:0:0:
232,70,122854,1,0,0:0:0:0:
61,118,123041,2,0,P|39:176|76:248,1,118.75
172,321,123416,2,0,L|115:275,1,59.375
206,291,123604,1,0,0:0:0:0:
245,270,123697,1,0,0:0:0:0:
286,287,123791,1,0,0:0:0:0:
420,238,123979,2,0,P|391:186|336:170,1,118.75
146,169,124354,2,0,P|112:216|55:227,1,118.75
171,90,124729,5,0,0:0:0:0:
172,142,124822,1,0,0:0:0:0:
187,192,124916,1,0,0:0:0:0:
214,236,125010,1,0,0:0:0:0:
250,273,125104,1,0,0:0:0:0:
295,300,125197,1,0,0:0:0:0:
345,315,125291,1,0,0:0:0:0:
405,86,125479,5,0,0:0:0:0:
355,69,125572,1,0,0:0:0:0:
303,66,125666,1,0,0:0:0:0:
253,76,125760,1,0,0:0:0:0:
206,97,125854,1,0,0:0:0:0:
165,130,125947,1,0,0:0:0:0:
134,172,126041,1,0,0:0:0:0:
71,311,126229,5,0,0:0:0:0:
110,313,126322,1,0,0:0:0:0:
143,292,126416,1,0,0:0:0:0:
260,321,126604,1,0,0:0:0:0:
218,289,126697,1,0,0:0:0:0:
190,245,126791,1,0,0:0:0:0:
179,194,126885,1,0,0:0:0:0:
185,143,126979,1,0,0:0:0:0:
208,96,127072,1,0,0:0:0:0:
246,60,127166,1,0,0:0:0:0:
293,39,127260,1,0,0:0:0:0:
345,35,127354,1,0,0:0:0:0:
395,49,127447,1,0,0:0:0:0:
441,72,127541,6,0,L|330:142,1,118.75
227,190,127916,1,0,0:0:0:0:
88,246,128104,1,0,0:0:0:0:
129,263,128197,1,0,0:0:0:0:
152,301,128291,1,0,0:0:0:0:
19,257,128479,2,0,P|51:186|120:185,1,118.75
221,158,128854,1,0,0:0:0:0:
439,77,129041,2,0,L|343:147,1,118.75
170,282,129416,2,0,L|265:214,1,71.2500027179719
284,193,129604,1,0,0:0:0:0:
275,148,129697,1,0,0:0:0:0:
237,142,129791,2,0,B|146:113|146:113|123:80,1,118.75
298,52,130166,2,0,B|389:81|389:81|402:100,1,118.75
272,312,130541,6,0,B|230:292|230:292|195:289|195:289|131:254,1,118.75
104,219,130822,1,0,0:0:0:0:
124,166,130915,1,0,0:0:0:0:
158,123,131009,1,0,0:0:0:0:
204,91,131103,1,0,0:0:0:0:
257,74,131197,1,0,0:0:0:0:
313,72,131290,1,0,0:0:0:0:
407,263,131479,5,0,0:0:0:0:
353,279,131572,1,0,0:0:0:0:
297,277,131666,1,0,0:0:0:0:
245,258,131760,1,0,0:0:0:0:
202,223,131854,1,0,0:0:0:0:
172,176,131947,1,0,0:0:0:0:
158,122,132041,1,0,0:0:0:0:
430,120,132229,5,0,0:0:0:0:
386,81,132322,1,0,0:0:0:0:
330,64,132416,1,0,0:0:0:0:
272,75,132510,1,0,0:0:0:0:
226,111,132604,1,0,0:0:0:0:
200,165,132697,1,0,0:0:0:0:
202,223,132791,1,0,0:0:0:0:
157,122,133166,6,0,P|296:230|286:105,1,380
186,50,133729,5,0,0:0:0:0:
362,144,133916,1,0,0:0:0:0:
349,158,134010,1,0,0:0:0:0:
332,168,134104,1,0,0:0:0:0:
312,93,134291,2,0,P|414:92|431:167,1,190
99,191,134854,5,0,0:0:0:0:
109,217,134947,1,0,0:0:0:0:
123,231,135041,2,0,L|257:231,1,95
332,168,135416,1,0,0:0:0:0:
204,55,135604,1,0,0:0:0:0:
84,175,135791,2,0,B|187:267|187:267|192:203,1,190
168,73,136541,6,0,L|256:140,1,95
390,287,136916,1,0,0:0:0:0:
191,215,137104,1,0,0:0:0:0:
194,62,137291,2,0,B|280:38|320:103|320:103|400:137|481:51,1,285
121,171,138041,5,0,0:0:0:0:
309,299,138229,2,0,P|403:240|420:219,1,95
340,58,138604,1,0,0:0:0:0:
101,324,138791,2,0,B|139:279|139:279|216:265|244:182,1,190
138,116,139541,6,0,L|210:179,1,95
223,191,139822,1,0,0:0:0:0:
238,202,139916,1,0,0:0:0:0:
374,98,140104,1,0,0:0:0:0:
165,288,140291,2,0,B|148:311|165:350,1,47.5
339,268,140479,2,0,B|350:245|333:222,1,47.5
209,178,140666,1,0,0:0:0:0:
314,78,141041,6,0,L|403:147,1,95
469,197,141416,1,0,0:0:0:0:
122,187,141604,2,0,L|99:109,2,47.5
246,324,141979,1,0,0:0:0:0:
374,162,142166,1,0,0:0:0:0:
310,70,142541,6,0,L|220:128,1,95
196,156,142916,1,0,0:0:0:0:
144,248,143104,2,0,P|196:256|212:244,1,59.375
310,70,143291,2,0,L|217:72,1,59.375
53,71,143479,1,0,0:0:0:0:
310,70,143666,1,0,0:0:0:0:
143,239,144041,6,0,L|198:166,7,59.375
291,87,144791,2,0,L|338:117,15,29.6875
200,173,145541,5,0,0:0:0:0:
