osu file format v14

[General]
AudioFilename: audio.mp3
AudioLeadIn: 0
PreviewTime: 170744
Countdown: 1
SampleSet: Soft
StackLeniency: 0.7
Mode: 0
LetterboxInBreaks: 0
WidescreenStoryboard: 0

[Editor]
DistanceSpacing: 1
BeatDivisor: 8
GridSize: 16
TimelineZoom: 3.199999

[Metadata]
Title:Highertower
TitleUnicode:Highertower
Artist:Genowhirl70
ArtistUnicode:Genowhirl70
Creator:LosPedros
Version:Gentleman, This never happend...
Source:Team Fortress 2
Tags:Cancer TF2 tf2 Genowhril70 animation Soldier Scout Sniper Spy Demoman Medic Engineer
BeatmapID:1587971
BeatmapSetID:754232

[Difficulty]
HPDrainRate:5
CircleSize:4
OverallDifficulty:4
ApproachRate:9
SliderMultiplier:1.4
SliderTickRate:0.5

[Events]
//Background and Video events
0,0,"HigherTower.png",0,0
Video,0,"Highertower.avi"
//Break Periods
//Storyboard Layer 0 (Background)
//Storyboard Layer 1 (Fail)
//Storyboard Layer 2 (Pass)
//Storyboard Layer 3 (Foreground)
//Storyboard Layer 4 (Overlay)
//Storyboard Sound Samples

[TimingPoints]
189,461.538461538462,4,2,0,100,1,0
3189,230.769230769231,4,2,0,100,1,0
3189,-50,4,2,0,100,0,0
3419,461.538461538462,4,2,0,100,1,0
7328,218.978102189781,4,2,0,70,1,0
7496,-100,4,2,0,20,0,0
7546,196.078431372549,4,2,0,70,1,0
7742,264.31718061674,4,2,0,70,1,0
7940,-100,4,2,0,20,0,0
8006,425.531914893617,4,2,0,70,1,0
8325,-100,4,2,0,20,0,0
8431,173.913043478261,4,2,0,70,1,0
8517,461.538461538462,4,2,0,70,1,0
9300,365.853658536585,4,2,0,70,1,0
9665,136.363636363636,4,2,0,70,1,0
10070,151.898734177215,4,2,0,70,1,0
10148,461.538461538462,4,2,0,70,1,0
10378,461.538461538462,4,2,0,70,1,0
11993,162.60162601626,4,2,0,70,1,0
11993,-50,4,2,0,70,0,0
12155,461.538461538462,4,2,0,70,1,0
12233,461.538461538462,4,2,0,70,1,0
12463,461.538461538462,4,2,0,70,1,0
13616,-100,4,2,0,20,0,0
13732,545.454545454546,4,2,0,70,1,0
13732,-16.6666666666667,3,2,0,70,0,0
14141,-100,4,2,0,20,0,0
14277,612.244897959184,4,2,0,70,1,0
14277,-16.6666666666667,3,2,0,70,0,0
14736,-100,4,2,0,20,0,0
14889,800,4,2,0,70,1,0
15689,472.44094488189,4,2,0,70,1,0
15689,-16.6666666666667,3,2,0,70,0,0
16633,631.578947368421,4,2,0,70,1,0
17264,352.941176470588,4,2,0,70,1,0
17264,-16.6666666666667,3,2,0,70,0,0
17881,-100,4,2,0,20,0,0
17969,461.538461538462,4,2,0,70,1,0
18852,291.26213592233,4,2,0,70,1,0
18888,-100,4,2,0,20,0,0
19143,461.538461538462,4,2,0,70,1,0
19200,-100,4,2,0,20,0,0
19373,-100,4,2,0,70,0,0
20123,416.666666666667,4,2,0,70,1,0
20331,-100,4,2,0,70,0,0
20383,-100,4,2,0,20,0,0
20539,-25,3,2,0,70,0,0
20956,695.652173913044,4,2,0,70,1,0
22347,476.190476190476,5,2,0,70,1,0
22347,-16.6666666666667,3,2,0,40,0,0
22447,-25,3,2,0,40,0,0
22823,-16.6666666666667,3,2,0,40,0,0
24251,-33.3333333333333,3,2,0,40,0,0
24727,-25,3,2,0,40,0,0
24787,-25,3,2,0,5,0,0
27108,508.474576271186,6,2,0,70,1,0
27616,697.674418604651,6,2,0,70,1,0
28313,845.070422535211,6,2,0,70,1,0
29158,261.437908496732,6,2,0,70,1,0
29158,-25,3,2,0,70,0,0
29419,545.454545454546,6,2,0,70,1,0
29419,-25,3,2,0,70,0,0
29964,1165.04854368932,6,2,0,70,1,0
31129,725.075528700906,6,2,0,70,1,0
31854,718.562874251497,6,2,0,70,1,0
31854,-50,6,2,0,70,0,0
31973,-50,6,2,0,20,0,0
32093,-50,6,2,0,70,0,0
32213,-50,6,2,0,20,0,0
32333,-50,6,2,0,70,0,0
32452,-50,6,2,0,20,0,0
32572,491.803278688525,4,2,0,70,1,0
32572,-50,6,2,10,70,0,0
32694,-50,6,2,0,70,0,0
34539,-25,3,2,0,70,0,0
35768,-50,6,2,0,70,0,0
39949,459.770114942529,4,2,0,70,1,0
39949,-100,4,2,0,70,0,0
40523,300,4,2,0,70,1,0
40523,-50,4,2,0,70,0,0
41197,187.5,4,2,0,70,1,0
41197,-50,3,3,0,70,0,0
42170,255.31914893617,4,3,0,70,1,0
42935,779.220779220779,4,3,0,70,1,0
43032,-100,4,2,0,70,0,0
43714,461.538461538462,4,2,0,70,1,0
44406,-100,4,2,0,20,0,0
44521,-100,4,2,0,70,0,0
45019,330.578512396694,4,2,0,70,1,0
45019,-50,4,2,0,70,0,0
45547,452.830188679245,4,2,0,70,1,0
45547,-50,4,2,0,70,0,0
45858,461.538461538462,4,2,0,70,1,0
45999,461.538461538462,4,2,0,70,1,0
45999,-53.3333333333333,4,2,0,70,0,0
46551,461.538461538462,4,2,0,70,1,0
47243,125,4,2,0,70,1,0
47243,-50,4,2,0,70,0,0
47368,402.684563758389,4,2,10,70,1,0
47468,-100,4,2,0,70,0,0
47770,210.526315789474,4,2,0,70,1,0
47980,461.538461538462,4,2,0,70,1,0
48210,-100,4,2,0,20,0,0
48326,-100,4,2,0,70,0,0
48441,-100,4,2,0,20,0,0
48557,-100,4,2,0,70,0,0
48903,-100,4,2,0,20,0,0
49019,-100,4,2,0,79,0,0
49364,267.857142857143,4,2,0,70,1,0
49364,-50,4,2,10,70,0,0
49631,294.840294840295,4,2,0,70,1,0
49631,-50,4,2,0,70,0,0
51320,143.971205758848,4,2,0,70,1,0
51320,-50,3,2,0,70,0,0
51606,283.353010625738,5,2,0,70,1,0
51606,-50,4,2,0,70,0,0
52829,461.538461538462,4,2,0,70,1,0
53022,84.985835694051,5,2,0,70,1,0
53064,-50,5,2,0,70,0,0
53176,461.538461538462,4,2,0,70,1,0
54502,-100,4,2,0,20,0,0
54560,-100,4,2,0,70,0,0
54676,-50,4,2,0,70,0,0
55063,461.538461538462,4,2,0,70,1,0
55986,-100,4,2,0,20,0,0
56044,-100,4,2,0,70,0,0
56216,-25,3,2,0,70,0,0
56940,461.538461538462,4,2,0,70,1,0
57401,375,4,2,0,70,1,0
57401,-50,3,2,0,70,0,0
58151,882.352941176471,4,2,0,70,1,0
58151,-50,4,2,0,70,0,0
58261,-50,3,2,0,20,0,0
58371,-50,4,2,0,70,0,0
58812,-12.5,3,2,0,70,0,0
59033,400,4,2,0,70,1,0
62399,461.538461538462,4,2,0,70,1,0
62629,-200,4,2,0,70,0,0
64032,550.45871559633,4,2,0,70,1,0
65132,230.769230769231,4,2,0,70,1,0
66055,-25,3,2,0,70,0,0
66285,-50,3,2,0,70,0,0
67440,272.727272727273,4,2,0,70,1,0
67440,-50,4,2,0,70,0,0
67985,-100,4,2,0,70,0,0
68019,-100,4,2,0,20,0,0
68053,-100,4,2,0,70,0,0
68292,-100,4,2,0,20,0,0
68326,-100,4,2,0,70,0,0
68565,-100,4,2,0,20,0,0
68599,-100,4,2,0,70,0,0
68837,-100,4,2,0,20,0,0
68871,-100,4,2,0,70,0,0
69485,-100,4,2,0,20,0,0
69519,-100,4,2,0,70,0,0
70849,-50,4,2,0,70,0,0
71292,-100,4,2,0,20,0,0
71326,-100,4,2,0,70,0,0
71565,-100,4,2,0,20,0,0
71599,-100,4,2,0,70,0,0
71803,-50,4,2,0,70,0,0
72383,-50,4,2,0,20,0,0
72417,-50,4,2,0,70,0,0
72655,-50,4,2,0,20,0,0
72689,-50,4,2,0,70,0,0
72928,-50,4,2,0,20,0,0
72962,-50,4,2,0,70,0,0
73201,-50,4,2,0,20,0,0
73235,-50,4,2,0,70,0,0
73576,-50,4,2,0,20,0,0
73610,-50,4,2,0,70,0,0
73644,-50,4,2,0,70,0,0
74177,272.727272727273,4,2,0,70,1,0
74313,-100,4,2,0,70,0,0
74381,-100,4,2,0,30,0,0
74449,-100,4,2,0,70,0,0
74517,-100,4,2,0,30,0,0
74586,-100,4,2,0,70,0,0
74654,-100,4,2,0,30,0,0
74722,-100,4,2,0,70,0,0
74790,-100,4,2,0,30,0,0
74858,-100,4,2,0,70,0,0
74926,-100,4,2,0,30,0,0
74995,-100,4,2,0,70,0,0
75063,-100,4,2,0,30,0,0
75131,-100,4,2,0,70,0,0
75199,-100,4,2,0,30,0,0
75267,-100,4,2,0,70,0,0
75335,-100,4,2,0,30,0,0
75404,-100,4,2,0,70,0,0
75472,-100,4,2,0,30,0,0
75540,-100,4,2,0,70,0,0
75608,-100,4,2,0,30,0,0
75677,-100,4,2,0,70,0,0
75740,566.037735849057,4,2,0,70,1,0
75740,-50,4,2,0,60,0,0
76872,500,4,2,0,70,1,0
78197,340.909090909091,4,2,0,70,1,0
78197,-50,4,2,0,70,0,0
78537,392.798690671031,4,2,0,70,1,0
78929,333.333333333333,4,2,0,70,1,0
79095,-95.2380952380952,4,2,0,70,0,0
79372,272.727272727273,4,2,0,20,1,0
80599,-100,4,2,0,20,0,0
81008,-100,4,2,0,70,0,0
81037,-100,4,2,0,20,0,0
81076,-100,4,2,0,70,0,0
81313,-100,4,2,0,20,0,0
81349,-100,4,2,0,70,0,0
81580,-100,4,2,0,20,0,0
81621,-100,4,2,0,70,0,0
81858,-100,4,2,0,20,0,0
81894,-100,4,2,0,70,0,0
82474,228.571428571429,4,2,0,70,1,0
83419,272.727272727273,4,2,0,70,1,0
83744,441.176470588235,3,2,0,70,1,0
83744,-50,3,2,0,70,0,0
85067,476.190476190476,4,2,0,70,1,0
85543,313.31592689295,4,2,0,70,1,0
85856,355.029585798817,4,2,0,70,1,0
86163,-50,3,2,0,70,0,0
86211,363.636363636364,4,2,0,70,1,0
86938,-50,3,2,0,70,0,0
87101,-100,3,2,0,70,0,0
87546,600,3,2,0,70,1,0
88440,-100,4,2,0,20,0,0
88507,-25,3,2,0,70,0,0
88596,342.857142857143,4,2,0,70,1,0
88713,-100,4,2,0,20,0,0
88985,-100,4,2,0,20,0,0
89258,-100,4,2,0,20,0,0
89967,333.333333333333,4,2,0,70,1,0
89967,-200,4,2,0,70,0,0
90967,333.333333333333,4,2,0,70,1,0
91618,363.636363636364,4,2,0,70,1,0
92345,456.273764258555,4,2,0,70,1,0
92801,230.769230769231,4,2,0,70,1,0
93262,70.9639266706091,4,2,0,70,1,0
93332,357.675111773472,4,2,0,70,1,0
93689,315.789473684211,4,2,0,70,1,0
93846,428.571428571429,4,2,0,70,1,0
94488,-25,4,2,0,70,0,0
94917,-100,4,2,0,70,0,0
95406,255.863539445629,4,2,0,70,1,0
95437,-100,4,2,0,20,0,0
95469,-100,4,2,0,70,0,0
95661,382.775119617225,4,2,0,70,1,0
96043,262.582056892779,4,2,0,70,1,0
96075,-100,4,2,0,20,0,0
96107,-100,4,2,0,70,0,0
96305,337.552742616034,4,2,0,70,1,0
96347,-100,4,2,0,20,0,0
96379,-100,4,2,0,70,0,0
96642,248.96265560166,4,2,0,70,1,0
96673,-100,4,2,0,20,0,0
96705,-100,4,2,0,70,0,0
96890,355.029585798817,4,2,0,70,1,0
97067,428.571428571429,4,2,0,70,1,0
97924,434.782608695652,3,2,0,70,1,0
97978,-100,3,2,0,40,0,0
98358,-100,3,2,0,55,0,0
98793,-100,3,2,0,70,0,0
99228,367.534456355283,3,2,0,70,1,0
99411,-100,3,2,0,40,0,0
99595,-100,3,2,0,55,0,0
99963,-100,3,2,0,70,0,0
100330,574.162679425837,4,2,0,70,1,0
100904,513.918629550321,4,2,0,70,1,0
101417,345.821325648415,4,2,0,70,1,0
101762,428.571428571429,4,2,0,20,1,0
102190,-100,3,2,0,40,0,0
104845,451.127819548872,4,2,0,70,1,0
105384,483.870967741935,4,2,0,70,1,0
105384,-25,4,2,0,70,0,0
105625,428.571428571429,4,2,0,70,1,0
105625,-100,3,2,0,55,0,0
106107,-100,3,2,0,70,0,0
107021,315.789473684211,4,2,0,70,1,0
107178,-102.040816326531,4,2,0,70,0,0
107339,428.571428571429,4,2,0,70,1,0
110427,461.538461538462,4,2,0,70,1,0
110888,269.058295964126,4,2,0,70,1,0
111022,276.497695852535,3,2,0,70,1,0
111851,-25,4,2,0,70,0,0
111920,-100,4,2,0,20,0,0
111989,-100,3,2,0,70,0,0
112680,307.692307692308,3,2,0,70,1,0
112680,-25,4,2,0,70,0,0
112756,-100,4,2,0,20,0,0
112833,-100,3,2,0,70,0,0
113603,545.454545454546,3,2,0,70,1,0
113671,-100,4,2,0,20,0,0
113739,-100,3,2,0,70,0,0
114216,-100,4,2,0,20,0,0
114284,-100,3,2,0,70,0,0
115080,444.444444444444,4,2,0,70,1,0
115524,-100,4,2,0,60,0,0
115746,413.793103448276,3,2,0,70,1,0
116677,-100,4,2,0,20,0,0
116728,-100,3,2,0,70,0,0
116987,500,3,2,0,70,1,0
117049,-100,4,2,0,20,0,0
117112,-100,3,2,0,70,0,0
118487,382.775119617225,3,2,0,70,1,0
118582,-100,3,2,0,40,0,0
118774,-100,3,2,0,70,0,0
118869,-100,3,2,0,40,0,0
118965,-100,3,2,0,20,0,0
119300,-100,3,2,0,20,0,0
119348,-100,3,2,0,70,0,0
119471,276.497695852535,3,2,0,70,1,0
119885,-100,3,2,0,40,0,0
119954,-100,3,2,0,70,0,0
120162,-100,3,2,0,40,0,0
120231,-100,3,2,0,70,0,0
120637,397.350993377483,3,2,0,70,1,0
120637,-100,3,2,0,70,0,0
121034,318.302387267905,3,2,0,70,1,0
121034,-100,3,2,0,70,0,0
121193,297.029702970297,3,2,0,70,1,0
121490,270.27027027027,5,2,0,70,1,0
122030,-100,3,2,0,40,0,0
122098,-100,3,2,0,70,0,0
122233,-100,3,2,0,40,0,0
122301,-100,3,2,0,70,0,0
122773,-100,3,2,0,40,0,0
122841,413.793103448276,5,2,0,70,1,0
122841,-50,3,2,0,70,0,0
122841,-50,3,2,0,70,0,0
123461,540.540540540541,5,2,0,70,1,0
123528,-100,5,2,0,20,0,0
123596,-50,3,2,0,70,0,0
124332,370.37037037037,5,2,0,70,1,0
124332,-50,5,2,0,70,0,0
124887,314.13612565445,5,2,0,70,1,0
124887,-50,5,2,0,70,0,0
125515,-50,5,2,0,20,0,0
125554,-50,5,2,0,70,0,0
125780,272.727272727273,5,2,0,70,1,0
125780,-50,5,2,0,70,0,0
126870,720.07200720072,4,2,0,70,1,0
126870,-200,4,2,0,70,0,0
128309,382.165605095541,4,2,0,70,1,0
128691,363.636363636364,4,2,0,70,1,0
129054,508.474576271186,4,2,0,70,1,0
129562,898.876404494382,4,2,0,70,1,0
129562,-200,4,2,0,70,0,0
130460,857.142857142857,4,2,0,70,1,0
131317,335.195530726257,4,2,0,70,1,0
131987,305.343511450382,4,2,0,70,1,0
131987,-50,4,2,0,70,0,0
132597,1016.94915254237,4,2,0,70,1,0
133613,425.531914893617,4,2,0,70,1,0
133719,400,4,2,0,70,1,0
135119,400,4,2,0,70,1,0
135419,-25,4,2,0,70,0,0
135975,237.623762376238,4,2,0,70,1,0
136212,304.568527918782,4,2,0,70,1,0
136250,-100,4,2,0,20,0,0
136288,-100,4,2,0,70,0,0
136516,270.880361173815,4,2,0,70,1,0
136516,-25,4,2,0,70,0,0
136583,-25,4,2,0,20,0,0
136617,-25,4,2,0,70,0,0
136786,400,4,2,0,70,1,0
137698,333.333333333333,4,2,0,60,1,0
137698,-50,4,2,0,60,0,0
137864,-50,4,2,0,20,0,0
138031,-50,4,2,0,60,0,0
138197,-50,4,2,0,20,0,0
138364,288.461538461538,4,2,0,60,1,0
138364,-50,4,2,0,60,0,0
138652,-200,4,2,0,20,0,0
138940,350.877192982456,4,2,0,20,1,0
139290,291.26213592233,4,2,0,60,1,0
139290,-50,4,2,0,60,0,0
139435,-50,4,2,0,20,0,0
139581,-50,4,2,0,60,0,0
139726,-50,4,2,0,20,0,0
139872,1043.47826086957,4,2,0,60,1,0
139872,-200,4,2,0,60,0,0
140263,-100,4,2,0,20,0,0
140393,-50,4,2,0,60,0,0
140915,263.157894736842,4,2,0,60,1,0
140915,-50,4,2,0,60,0,0
141046,-50,4,2,0,20,0,0
141178,-50,4,2,0,60,0,0
141309,-50,4,2,0,20,0,0
141441,-50,4,2,0,60,0,0
141572,-50,4,2,0,20,0,0
141704,-50,4,2,0,60,0,0
141835,-50,4,2,0,20,0,0
141967,-100,4,2,0,60,0,0
142362,-50,4,2,0,20,0,0
142493,-50,4,2,0,60,0,0
142624,-50,4,2,0,20,0,0
142757,-50,4,2,0,60,0,0
142888,-50,4,2,0,20,0,0
143020,-200,4,2,0,60,0,0
143415,-50,4,2,0,20,0,0
144072,-50,4,2,0,60,0,0
144203,-50,4,2,0,20,0,0
144336,-50,4,2,0,60,0,0
144467,-50,4,2,0,20,0,0
144599,-50,4,2,0,60,0,0
144730,-50,4,2,0,20,0,0
144862,-50,4,2,0,60,0,0
144993,-50,4,2,0,20,0,0
145125,-100,4,2,0,60,0,0
145256,-100,4,2,0,20,0,0
145388,-100,4,2,0,60,0,0
145519,-100,4,2,0,20,0,0
145651,-100,4,2,0,60,0,0
145782,-100,4,2,0,20,0,0
145915,-100,4,2,0,60,0,0
146046,-100,4,2,0,20,0,0
146178,-100,4,2,0,60,0,0
146441,-100,4,2,0,20,0,0
146704,-100,4,2,0,60,0,0
146967,-100,4,2,0,20,0,0
147230,222.222222222222,4,2,0,60,1,0
147230,-50,4,2,0,60,0,0
147341,-50,4,2,0,20,0,0
147452,-50,4,2,0,60,0,0
147563,-50,4,2,0,20,0,0
147674,204.081632653061,4,2,0,60,1,0
147674,-25,4,2,0,60,0,0
147776,-25,4,2,0,20,0,0
147878,-25,4,2,0,60,0,0
147980,-25,4,2,0,20,0,0
148082,467.836257309942,4,2,0,60,1,0
148082,-200,4,2,0,60,0,0
149719,-100,4,2,0,60,0,0
149953,383.386581469649,4,2,0,60,1,0
149953,-50,4,2,0,60,0,0
150719,-50,4,2,0,20,0,0
151007,-50,4,2,0,20,0,0
151103,-50,4,2,0,60,0,0
151191,-50,4,2,0,20,0,0
151199,-50,4,2,0,20,0,0
151294,-50,4,2,0,60,0,0
151383,-50,4,2,0,20,0,0
151390,-50,4,2,0,20,0,0
151486,-100,4,2,0,60,0,0
151824,398.671096345515,4,2,0,60,1,0
151984,236.220472440945,4,2,0,60,1,0
151984,-50,4,2,0,60,0,0
152043,-50,4,2,0,20,0,0
152222,285.714285714286,4,2,0,60,1,0
152222,-50,4,2,0,60,0,0
152364,-50,4,2,0,20,0,0
152507,493.827160493827,4,2,0,60,1,0
153494,355.029585798817,4,2,0,60,1,0
153494,-50,4,2,0,60,0,0
153671,-50,4,2,0,20,0,0
153849,-50,4,2,0,60,0,0
154026,-50,4,2,0,20,0,0
154204,236.220472440945,4,2,0,60,1,0
154204,-50,4,2,0,60,0,0
154440,-50,4,2,0,20,0,0
154676,508.474576271186,4,2,0,60,1,0
155184,254.237288135593,4,2,0,60,1,0
155184,-50,4,2,0,60,0,0
155311,-50,4,2,0,20,0,0
155438,-50,4,2,0,60,0,0
155565,-50,4,2,0,20,0,0
155692,508.474576271186,4,2,0,60,1,0
156771,254.237288135593,4,2,0,60,1,0
156771,-50,4,2,0,60,0,0
156898,-50,4,2,0,20,0,0
157025,-50,4,2,0,60,0,0
157152,-50,4,2,0,20,0,0
157279,-50,4,2,0,60,0,0
157406,-50,4,2,0,20,0,0
157533,-50,4,2,0,60,0,0
157660,-50,4,2,0,20,0,0
157774,310.880829015544,4,2,0,70,1,0
157774,-100,4,2,0,70,0,0
158007,-100,4,2,0,20,0,0
158084,909.090909090909,4,2,0,70,1,0
158084,-12.5,4,2,0,70,0,0
158197,-100,4,2,0,70,0,0
158993,422.535211267606,4,2,0,70,1,0
158993,-25,4,2,0,70,0,0
159415,428.571428571429,3,2,0,70,1,0
159415,-50,3,2,0,70,0,0
161986,-25,3,2,0,70,0,0
162843,634.920634920635,4,2,0,70,1,0
163477,408.85860306644,4,2,0,70,1,0
163885,279.06976744186,4,2,0,70,1,0
164443,276.497695852535,3,2,0,70,1,0
165272,352.941176470588,4,2,0,70,1,0
167301,-100,4,2,0,20,0,0
168183,-100,4,2,0,20,0,0
168261,1256.5445026178,4,2,0,70,1,0
168261,-200,4,2,0,70,0,0
169203,-200,4,2,0,20,0,0
169517,302.267002518892,4,2,0,70,1,0
169819,214.285714285714,4,2,0,70,1,0
169926,857.142857142857,4,2,0,70,1,0
170783,362.537764350453,4,2,0,70,1,0
171145,512.820512820513,4,2,0,70,1,0
171657,244.897959183673,4,2,0,70,1,0
171840,-200,4,2,0,20,0,0
171901,348.837209302326,4,2,0,70,1,0
172424,284.36018957346,4,2,0,70,1,0
173277,-100,4,2,0,5,0,0
174000,733.94495412844,4,2,0,70,1,0
176935,975.609756097561,4,2,0,70,1,0
183764,975.609756097561,4,2,0,70,1,0
183764,-105.263157894737,4,2,0,70,0,0
184337,975.609756097561,4,2,0,70,1,0
189963,215.827338129496,4,2,0,70,1,0
191689,-133.333333333333,4,2,0,70,0,0
191905,-79.9999999999999,4,2,0,70,0,0
200357,215.827338129496,4,2,0,70,1,0
200357,-79.9999999999999,4,2,0,70,0,0
202108,215.827338129496,4,2,0,70,1,0
202108,-79.9999999999999,4,2,0,70,0,0

[HitObjects]
72,79,189,5,8,0:0:0:0:
158,213,419,1,2,0:0:0:0:
135,208,650,1,2,0:0:0:0:
289,54,881,5,8,0:0:0:0:
240,205,1112,1,2,0:0:0:0:
260,193,1342,2,0,P|279:223|289:256,1,70,2|0,0:0|0:0,0:0:0:0:
83,342,1804,5,8,0:0:0:0:
64,352,2265,6,0,B|63:317|63:317|72:283,1,70,2|8,0:0|0:0,0:0:0:0:
131,110,2727,1,2,0:0:0:0:
138,179,2842,1,2,0:0:0:0:
146,249,2957,1,2,0:0:0:0:
105,93,3189,6,0,B|177:86|172:112|254:111,2,140,2|0|0,0:0|0:0|0:0,0:0:0:0:
274,102,3649,1,2,0:0:0:0:
134,212,3880,2,0,L|156:293,1,70,2|0,0:0|0:0,0:0:0:0:
188,363,4342,5,2,0:0:0:0:
108,201,4572,1,2,0:0:0:0:
82,190,4803,1,0,0:0:0:0:
121,52,5034,6,0,L|209:59,1,70,10|0,0:0|0:0,0:0:0:0:
127,175,5495,2,2,L|39:182,1,70,8|8,0:0|0:0,0:0:0:0:
104,37,5957,2,0,L|192:44,1,70,10|0,0:0|0:0,0:0:0:0:
301,55,6419,5,2,0:0:0:0:
296,124,6534,1,2,0:0:0:0:
291,194,6649,1,2,0:0:0:0:
321,47,6880,1,2,0:0:0:0:
141,170,7111,1,2,0:0:0:0:
63,314,7328,6,0,P|119:325|178:320,1,105,2|0,0:0|0:0,0:0:0:0:
199,313,7546,1,2,0:0:0:0:
266,161,7742,2,0,L|261:278,1,105,2|0,0:0|0:0,0:0:0:0:
274,297,8006,2,0,P|301:258|359:213,1,105,2|0,0:0|0:0,0:0:0:0:
396,200,8431,6,0,L|388:279,1,70,2|0,0:0|0:0,0:0:0:0:
410,60,8747,1,2,0:0:0:0:
374,280,8978,1,2,0:0:0:0:
209,291,9209,5,2,0:0:0:0:
209,291,9300,1,0,0:0:0:0:
80,248,9665,5,10,0:0:0:0:
111,233,9733,1,0,0:0:0:0:
139,211,9801,1,0,0:0:0:0:
161,184,9869,1,0,0:0:0:0:
176,153,9937,1,0,0:0:0:0:
184,119,10005,1,0,0:0:0:0:
185,84,10074,6,0,P|216:99|252:105,1,70,0|10,0:0|0:0,0:0:0:0:
366,106,10263,1,2,0:0:0:0:
345,114,10378,1,2,0:0:0:0:
162,67,10608,1,0,0:0:0:0:
149,89,10839,5,10,0:0:0:0:
381,92,11070,1,2,0:0:0:0:
205,179,11301,2,0,P|201:214|205:249,1,70,2|0,0:0|0:0,0:0:0:0:
252,353,11762,1,2,0:0:0:0:
107,84,11993,6,0,B|118:187|118:187|126:151,1,140,10|2,0:0|0:0,0:0:0:0:
113,210,12155,1,0,0:0:0:0:
113,210,12233,5,2,0:0:0:0:
249,116,12463,1,2,0:0:0:0:
249,116,12578,1,2,0:0:0:0:
298,286,12809,2,0,P|285:276|273:263,1,35,0|2,0:0|0:0,0:0:0:0:
166,93,13155,5,2,0:0:0:0:
275,56,13386,2,0,P|280:90|277:125,1,70,2|0,0:0|0:0,0:0:0:0:
248,185,13732,6,0,B|275:141|275:141|95:223|54:402|54:402|135:310|155:374|246:298,1,630.000024032594,4|0,0:0|0:0,2:0:0:0:
272,260,14277,6,0,B|313:170|463:195|484:357|326:433|263:305|263:305|215:249|215:249|161:210|161:210|108:146,1,630.000024032594,4|0,0:0|0:0,0:0:0:0:
256,192,14889,12,0,15489,0:0:0:0:
74,235,15689,6,0,B|53:116|118:22|237:1|237:1|244:41|298:113|298:113|412:190|312:373|173:338|43:231|163:35|298:113|298:113|384:139|423:132|423:132|444:251|379:344|264:373,1,1470.00005607605
256,192,16633,12,0,17106,0:0:0:0:
53,245,17264,6,0,B|106:289|179:321|179:321|312:242|357:122|357:122|225:115|99:180|99:180|191:267|338:297|338:297|436:201|446:51|446:51|333:33|202:60,1,1470.00005607605
167,33,17969,1,2,0:0:0:0:
172,103,18084,1,2,0:0:0:0:
177,173,18199,2,0,P|144:163|109:158,1,70,2|2,0:0|0:0,0:0:0:0:
273,135,18661,1,0,0:0:0:0:
193,289,18852,6,0,L|197:316,1,17.5
356,289,19143,2,2,L|358:271,1,17.5
332,331,19373,1,2,0:0:0:0:
167,173,19604,5,2,0:0:0:0:
376,251,19835,1,2,0:0:0:0:
107,331,20123,6,2,L|129:342,2,17.5
225,222,20331,2,0,L|204:235,1,17.5,2|0,0:0|0:0,0:0:0:0:
62,67,20539,6,0,B|139:87|139:87|181:115|181:115|281:142|281:142|198:182|198:182|161:262|161:262|263:253|300:343,1,560,14|0,0:0|0:0,0:0:0:0:
118,70,22347,6,2,L|85:169,1,105.000004005432
169,335,22585,6,2,P|173:300|167:266,1,70
208,324,22704,2,2,P|220:291|223:256,1,70
252,310,22823,6,0,B|267:296|267:296|221:298|196:335,7,105.000004005432
166,230,23299,2,0,B|170:251|170:251|191:210|173:171,7,105.000004005432
274,194,23775,2,0,B|255:187|255:187|280:226|325:231,7,105.000004005432
414,211,24251,6,0,L|394:279,4,52.5000020027161
483,319,24727,6,0,B|481:334|459:365|459:365|366:353|366:353|424:308|441:217|441:217|498:176|498:176|496:109|496:109|466:44|466:44|340:94|268:73|245:22|245:22|223:-25|163:-23|163:-23|65:-1|-17:107|-42:193|17:345|114:404|219:392|219:392|196:318|196:318|94:296|33:173|113:87|175:58|175:58|192:106|259:136|259:136|335:204|252:322|87:258|151:90|260:136|260:136|333:163|407:143|407:143|363:174|363:174|367:251|322:290|284:312|284:312|301:364,1,2800
222,101,27616,5,8,0:0:0:0:
301,38,28313,2,0,L|291:103,1,52.5
322,111,29158,6,0,B|177:134|33:52|33:52|90:96|112:143,1,420,8|0,0:0|0:0,0:0:0:0:
141,149,29419,6,0,B|251:124|408:166|408:166|321:266|321:266|248:299|166:282,1,560
155,181,31129,5,8,0:0:0:0:
261,92,31672,5,0,0:0:0:0:
259,109,31762,1,0,0:0:0:0:
260,128,31854,6,0,L|304:148,1,46.6666666666667,8|0,0:0|0:0,0:0:0:0:
261,273,32093,2,0,L|256:224,1,46.6666666666667
386,199,32333,2,0,L|345:226,1,46.6666666666667,8|0,0:0|0:0,0:0:0:0:
444,118,32572,5,2,0:0:0:0:
359,79,32735,1,0,0:0:0:0:
267,64,32899,1,0,0:0:0:0:
175,74,33063,6,0,P|179:149|169:236,1,140,8|0,0:0|0:0,0:0:0:0:
49,310,33555,2,8,B|186:269|182:352|348:268,1,280,0|0,0:0|0:0,0:0:0:0:
148,190,34293,1,0,0:0:0:0:
33,282,34539,6,0,B|79:294|79:294|111:319|111:319|167:334,2,140,8|0|0,0:0|0:0|0:0,0:0:0:0:
227,251,35031,1,0,0:0:0:0:
101,87,35276,1,0,0:0:0:0:
44,293,35522,1,0,0:0:0:0:
44,293,35645,1,0,0:0:0:0:
44,293,35768,6,0,P|138:234|217:63,1,280,8|0,0:0|0:0,0:0:0:0:
40,187,36506,1,0,0:0:0:0:
248,306,36752,2,0,P|262:258|260:222,1,70,8|0,0:0|0:0,0:0:0:0:
190,90,36998,1,0,0:0:0:0:
111,318,37244,1,0,0:0:0:0:
111,318,37367,1,0,0:0:0:0:
111,318,37490,6,0,P|149:327|190:322,1,70,8|0,0:0|0:0,0:0:0:0:
307,282,37735,2,0,P|295:244|270:211,1,70,8|0,0:0|0:0,0:0:0:0:
177,130,37981,2,0,P|150:158|134:196,1,70,8|0,0:0|0:0,0:0:0:0:
287,85,38227,1,0,0:0:0:0:
287,85,38350,1,0,0:0:0:0:
287,85,38473,1,0,0:0:0:0:
256,192,38596,12,0,39703,0:0:0:0:
64,162,39949,6,8,L|146:183,2,70
38,75,40523,5,0,0:0:0:0:
72,68,40598,1,0,0:0:0:0:
107,65,40673,1,0,0:0:0:0:
142,68,40748,1,0,0:0:0:0:
176,75,40823,1,0,0:0:0:0:
210,82,40898,1,0,0:0:0:0:
245,84,40973,1,0,0:0:0:0:
280,80,41048,1,0,0:0:0:0:
314,73,41123,1,0,0:0:0:0:
346,57,41197,6,0,L|414:99,20,70
387,164,42170,5,4,0:0:0:0:
170,128,42425,1,4,0:0:0:0:
467,103,42680,1,4,0:0:0:0:
90,188,42935,1,4,0:0:0:0:
200,204,43714,5,2,0:0:0:0:
90,52,43944,2,0,L|166:50,1,70,0|2,0:0|0:0,0:0:0:0:
298,46,44290,2,0,P|291:62|285:78,1,35,2|0,0:0|0:0,0:0:0:0:
270,232,44521,5,2,0:0:0:0:
197,39,44752,2,0,L|161:24,1,35,2|0,0:0|0:0,0:0:0:0:
71,80,45019,6,0,B|129:154|56:196|136:272,1,210,2|2,0:0|0:0,0:0:0:0:
144,197,45349,1,2,0:0:0:0:
130,42,45547,6,0,L|164:48,1,35,2|0,0:0|0:0,0:0:0:0:
415,36,45858,5,2,0:0:0:0:
335,54,45999,6,0,B|310:121|310:121|292:149|292:149|267:216|267:216|250:243|250:243|237:272|237:272,1,229.687505476177,2|0,0:0|0:0,0:0:0:0:
206,348,46551,5,2,0:0:0:0:
115,297,46666,6,0,L|118:320,1,17.5,2|0,0:0|0:0,0:0:0:0:
214,168,46897,2,0,L|211:191,1,17.5,2|0,0:0|0:0,0:0:0:0:
65,49,47127,2,0,L|68:72,1,17.5,2|0,0:0|0:0,0:0:0:0:
75,21,47243,6,0,L|362:71,1,280,0|2,0:0|0:0,0:0:0:0:
155,118,47569,1,2,0:0:0:0:
385,51,47770,5,2,0:0:0:0:
488,211,47980,6,0,L|506:174,2,35,2|0|0,0:0|0:0|0:0,0:0:0:0:
389,320,48326,1,2,0:0:0:0:
319,318,48441,1,0,0:0:0:0:
249,316,48556,2,0,L|207:290,1,35,2|0,0:0|0:0,0:0:0:0:
267,154,48787,6,0,L|265:203,1,35,2|0,0:0|0:0,0:0:0:0:
142,247,49018,1,2,0:0:0:0:
122,169,49133,1,2,0:0:0:0:
176,24,49364,6,2,L|163:76,1,35
335,57,49631,5,8,0:0:0:0:
381,192,49925,2,0,B|437:172|437:172|349:182|282:131|282:131|318:173,3,280
431,217,51105,1,0,0:0:0:0:
158,196,51320,6,2,P|103:141|193:181,1,280,10|2,0:0|0:0,0:0:0:0:
31,152,51606,5,0,0:0:0:0:
151,337,51818,1,0,0:0:0:0:
175,322,51889,2,0,B|127:361|127:361|212:223|212:223|166:256,3,280
282,64,52829,5,2,0:0:0:0:
278,94,52944,1,2,0:0:0:0:
256,192,53064,12,0,53406,0:0:0:0:
167,109,53637,5,2,0:0:0:0:
232,135,53752,1,2,0:0:0:0:
46,45,53983,2,0,L|54:99,1,35,2|0,0:0|0:0,0:0:0:0:
170,161,54214,2,0,L|175:126,1,35,2|0,0:0|0:0,0:0:0:0:
334,40,54445,6,2,L|310:34,1,17.5
317,109,54560,1,0,0:0:0:0:
300,178,54676,2,0,P|348:176|378:182,1,70,2|0,0:0|0:0,0:0:0:0:
137,257,55063,5,2,0:0:0:0:
140,50,55293,2,0,L|151:96,1,35,2|0,0:0|0:0,0:0:0:0:
43,149,55524,1,2,0:0:0:0:
113,162,55639,1,2,0:0:0:0:
333,89,55870,6,0,L|270:106,1,35,2|0,0:0|0:0,0:0:0:0:
375,246,56101,1,2,0:0:0:0:
381,224,56216,2,0,B|395:123|395:123|374:168,2,140,0|2|0,0:0|0:0|0:0,0:0:0:0:
201,291,56563,5,2,0:0:0:0:
225,286,56678,2,0,P|293:288|379:318,1,140
199,147,56940,5,0,0:0:0:0:
154,200,57055,1,0,0:0:0:0:
110,253,57170,1,0,0:0:0:0:
242,46,57401,5,2,0:0:0:0:
386,130,57541,2,0,L|344:301,1,175,2|2,0:0|0:0,0:0:0:0:
362,97,57963,1,2,0:0:0:0:
263,19,58151,6,0,L|250:84,2,35,0|0|2,0:0|0:0|0:0,0:0:0:0:
131,37,58592,1,2,0:0:0:0:
44,207,58812,6,0,P|114:197|183:207,1,140,2|0,0:0|0:0,0:0:0:0:
343,250,59033,6,0,L|334:276,1,17.5
256,192,59133,12,0,62399,0:0:0:0:
163,101,62629,6,0,B|170:109|170:109|174:116|174:116|182:125|182:125|187:134|187:134|196:140|196:140|198:148|198:148|210:156|210:156|213:164|213:164|220:171,1,87.5
256,192,64032,12,0,65132,0:0:0:0:
121,93,66055,6,2,L|130:240,1,140,10|2,0:0|0:0,0:0:0:0:
212,140,66285,6,2,P|299:127|209:154,1,280
91,108,67440,6,0,L|234:90,2,140,2|2|2,0:0|0:0|0:0,0:0:0:0:
376,60,67985,6,2,L|372:87,1,17.5
388,97,68258,2,2,L|384:124,1,17.5
400,134,68530,2,2,L|396:161,1,17.5
412,171,68803,2,2,L|408:198,1,17.5
424,208,69076,5,2,0:0:0:0:
216,237,69212,2,0,P|213:158|177:96,1,140,2|0,0:0|0:0,0:0:0:0:
197,253,69621,5,2,0:0:0:0:
327,308,69758,1,2,0:0:0:0:
310,168,69894,1,2,0:0:0:0:
255,298,70030,2,0,P|219:329|62:272,1,210,2|0,0:0|0:0,0:0:0:0:
260,96,70712,5,2,0:0:0:0:
139,204,70849,2,0,L|267:276,1,140,2|0,0:0|0:0,0:0:0:0:
406,199,71258,6,2,L|401:156,1,35
276,109,71530,2,2,L|271:143,1,35
149,318,71803,6,0,L|137:153,2,140,2|2|2,0:0|0:0|0:0,0:0:0:0:
84,44,72349,6,2,P|99:57|110:81,1,35
147,55,72621,2,2,P|153:73|151:100,1,35
196,96,72894,2,2,P|192:115|176:137,1,35
216,156,73167,2,2,P|202:170|178:181,1,35
256,192,73303,12,0,73576,0:0:0:0:
319,109,73644,6,0,L|348:324,1,210,2|0,0:0|0:0,0:0:0:0:
295,140,73985,6,0,L|147:125,1,140
162,142,74177,1,8,0:0:0:0:
65,49,74313,6,0,L|68:95,20,35
97,30,75740,6,2,B|166:30|147:80|223:81,1,140
360,128,76306,2,0,L|355:170,1,35,2|0,0:0|0:0,0:0:0:0:
434,40,76589,1,2,0:0:0:0:
152,278,76872,6,2,P|162:244|180:214,1,70,14|2,0:0|0:0,0:0:0:0:
249,75,77372,2,2,P|239:108|221:138,1,70
198,15,77872,1,0,0:0:0:0:
353,28,78197,5,2,0:0:0:0:
365,171,78367,1,2,0:0:0:0:
264,273,78537,6,2,L|288:270,1,17.5,0|0,0:0|0:0,0:0:0:0:
212,262,78929,1,8,0:0:0:0:
232,128,79095,2,0,P|267:151|347:168,1,122.5
342,93,79440,5,2,0:0:0:0:
485,238,79644,2,2,L|474:278,1,35
338,260,79849,5,2,0:0:0:0:
338,260,79917,1,2,0:0:0:0:
338,260,79985,2,2,L|311:153,1,105
255,283,80258,1,2,0:0:0:0:
68,250,80462,5,2,0:0:0:0:
184,339,80599,6,0,P|233:289|266:228,1,140,8|0,3:0|3:0,3:0:0:0:
304,111,81008,6,2,L|303:86,1,17.5
430,131,81281,2,2,L|429:148,1,17.5
288,99,81553,2,2,L|287:74,1,17.5
447,146,81826,2,2,L|446:163,1,17.5
251,235,82099,5,2,0:0:0:0:
251,235,82167,1,2,0:0:0:0:
51,267,82372,5,8,0:0:0:0:
38,277,82474,2,0,P|101:276|164:236,1,140
238,95,82874,2,0,L|243:237,1,140,8|0,0:0|0:0,0:0:0:0:
262,257,83419,5,8,0:0:0:0:
311,76,83691,5,2,0:0:0:0:
332,45,83744,2,0,P|343:92|321:188,1,140
109,70,84405,1,2,0:0:0:0:
109,70,84516,1,0,0:0:0:0:
109,70,84626,2,0,L|129:146,1,70
45,33,84846,1,0,0:0:0:0:
52,245,85067,6,8,L|131:252,2,70
200,182,85699,1,8,0:0:0:0:
384,77,86166,6,0,L|379:113,1,35,4|0,0:0|0:0,0:0:0:0:
273,290,86938,6,0,L|262:230,1,35,4|0,0:0|0:0,0:0:0:0:
96,78,87546,5,0,0:0:0:0:
281,54,87846,1,0,0:0:0:0:
285,145,88521,6,0,L|298:76,1,70,12|0,0:0|0:0,0:0:0:0:
165,108,89967,6,0,L|248:122,1,70
342,77,90967,2,2,P|337:111|328:145,1,70
150,221,91618,5,8,0:0:0:0:
154,228,91708,1,8,0:0:0:0:
158,236,91799,1,8,0:0:0:0:
163,243,91890,1,8,0:0:0:0:
48,192,92072,6,0,L|59:149,1,35,2|0,0:0|0:0,0:0:0:0:
81,283,92345,1,0,0:0:0:0:
92,83,92573,1,0,0:0:0:0:
171,93,92687,1,0,0:0:0:0:
250,103,92801,1,0,0:0:0:0:
256,192,92945,12,0,93262,0:0:0:0:
122,306,93332,6,0,L|154:314,1,17.5,4|0,0:0|0:0,0:0:0:0:
300,328,93689,6,0,P|296:298|296:246,1,70,2|0,0:0|0:0,0:0:0:0:
289,83,94060,1,2,0:0:0:0:
254,90,94167,1,0,0:0:0:0:
220,98,94274,1,0,0:0:0:0:
186,106,94381,1,0,0:0:0:0:
152,114,94488,6,0,L|11:144,2,140
301,32,94917,2,0,P|342:51|381:143,1,140,2|0,0:0|0:0,0:0:0:0:
403,239,95406,6,2,L|375:236,1,17.5
238,283,95661,1,2,0:0:0:0:
337,160,96043,2,2,L|311:171,1,17.5
240,124,96305,2,2,L|223:146,1,17.5
132,116,96558,5,2,0:0:0:0:
130,139,96642,2,2,L|127:166,1,17.5
239,39,96890,1,0,0:0:0:0:
390,120,97067,5,0,0:0:0:0:
266,233,97281,1,0,0:0:0:0:
426,284,97495,1,2,0:0:0:0:
426,284,97602,1,2,0:0:0:0:
230,69,97817,1,2,0:0:0:0:
230,69,97924,1,2,0:0:0:0:
256,192,97978,12,0,99228,0:0:0:0:
256,192,99411,12,0,100284,0:0:0:0:
109,95,100904,6,0,L|187:103,1,70,2|0,0:0|0:0,0:0:0:0:
73,313,101417,1,8,0:0:0:0:
256,192,101460,12,0,101762,0:0:0:0:
77,105,101976,5,0,0:0:0:0:
229,214,102190,1,0,0:0:0:0:
256,192,102244,12,0,104845,0:0:0:0:
95,102,105384,6,0,L|254:121,1,140,8|0,0:0|0:0,0:0:0:0:
256,192,105625,12,8,106053,0:0:0:0:
256,192,106107,12,12,107021,0:0:0:0:
113,148,107178,6,0,P|148:140|179:124,1,70
277,47,107553,1,2,0:0:0:0:
277,47,107660,1,0,0:0:0:0:
277,47,107767,5,2,0:0:0:0:
333,208,107981,1,0,0:0:0:0:
187,146,108196,5,2,0:0:0:0:
422,108,108410,1,0,0:0:0:0:
277,288,108624,1,2,0:0:0:0:
225,278,108731,1,0,0:0:0:0:
173,285,108838,1,0,0:0:0:0:
121,290,108945,1,0,0:0:0:0:
71,277,109052,5,2,0:0:0:0:
191,117,109267,1,0,0:0:0:0:
320,192,109481,6,0,P|325:227|337:260,1,70,2|0,0:0|0:0,0:0:0:0:
472,231,109803,2,0,P|439:217|405:211,1,70,2|0,0:0|0:0,0:0:0:0:
363,341,110124,2,0,P|390:319|413:293,1,70,2|0,0:0|0:0,0:0:0:0:
224,298,110427,5,12,0:0:0:0:
212,267,110888,2,0,L|285:282,1,70,8|12,0:0|0:0,0:0:0:0:
133,124,111851,6,0,L|146:280,1,140,2|0,0:0|0:0,0:0:0:0:
244,129,112680,6,12,B|262:139|262:139|274:155|274:155|295:163|295:163|297:181|297:181|317:191|317:191|332:217|332:217|351:225|351:226,2,140
121,211,113603,6,2,L|128:240,1,17.5
250,205,114080,1,0,0:0:0:0:
254,190,114148,2,2,L|258:172,1,17.5
178,94,115080,5,8,0:0:0:0:
346,85,115524,2,0,L|336:164,1,70
191,185,116573,6,0,L|241:192,1,35
41,342,116987,6,0,L|41:317,1,17.5,12|0,0:0|0:0,0:0:0:0:
82,255,118487,5,2,0:0:0:0:
116,257,118582,1,2,0:0:0:0:
151,259,118678,1,0,0:0:0:0:
186,262,118774,1,2,0:0:0:0:
221,264,118869,1,2,0:0:0:0:
256,267,118965,1,0,0:0:0:0:
75,119,119252,6,0,L|80:150,1,17.5
203,48,119471,5,0,0:0:0:0:
211,61,119540,1,0,0:0:0:0:
219,74,119609,1,0,0:0:0:0:
225,89,119678,1,0,0:0:0:0:
230,104,119747,1,0,0:0:0:0:
232,119,119816,1,0,0:0:0:0:
233,135,119885,1,2,0:0:0:0:
233,151,119954,1,0,0:0:0:0:
235,166,120023,1,0,0:0:0:0:
238,182,120093,1,0,0:0:0:0:
242,197,120162,1,2,0:0:0:0:
248,212,120231,1,0,0:0:0:0:
255,226,120300,1,0,0:0:0:0:
263,239,120369,1,0,0:0:0:0:
103,178,120637,5,2,0:0:0:0:
192,68,121034,2,0,L|271:85,1,70,8|2,0:0|0:0,0:0:0:0:
403,103,121490,5,0,0:0:0:0:
397,119,121557,1,0,0:0:0:0:
390,135,121625,1,0,0:0:0:0:
382,150,121692,1,0,0:0:0:0:
372,165,121760,1,0,0:0:0:0:
361,179,121827,1,0,0:0:0:0:
349,191,121895,1,0,0:0:0:0:
336,203,121962,1,0,0:0:0:0:
322,214,122030,1,2,0:0:0:0:
307,223,122098,1,0,0:0:0:0:
291,231,122165,1,0,0:0:0:0:
275,237,122233,1,2,0:0:0:0:
258,242,122300,1,0,0:0:0:0:
241,246,122368,1,0,0:0:0:0:
224,248,122435,1,0,0:0:0:0:
206,249,122503,1,0,0:0:0:0:
189,248,122571,1,0,0:0:0:0:
172,245,122638,1,0,0:0:0:0:
155,241,122706,1,0,0:0:0:0:
138,236,122773,1,8,0:0:0:0:
120,227,122841,6,0,L|166:79,1,140,8|0,0:0|0:0,0:0:0:0:
40,225,123254,1,0,0:0:0:0:
299,105,123461,6,0,L|297:131,1,17.5,12|0,0:0|0:0,0:0:0:0:
201,217,124001,6,8,L|238:239,1,35
202,191,124136,1,8,0:0:0:0:
365,79,124332,6,0,L|347:232,1,140,8|0,0:0|0:0,0:0:0:0:
471,57,124702,1,0,0:0:0:0:
248,147,124887,6,0,P|170:152|104:129,1,140,8|0,0:0|0:0,0:0:0:0:
309,79,125201,1,2,0:0:0:0:
66,232,125436,6,0,L|81:306,1,70,2|0,0:0|0:0,0:0:0:0:
236,311,125780,6,0,P|251:241|235:155,1,140
148,90,126052,1,2,0:0:0:0:
129,110,126120,2,0,B|232:100|232:100|327:51,1,210,2|0,0:0|0:0,0:0:0:0:
473,122,126461,1,0,0:0:0:0:
442,98,126530,2,0,L|448:189,1,70
337,291,126734,1,0,0:0:0:0:
203,313,126870,6,0,L|218:170,1,140
82,331,128691,6,2,L|75:280,1,35
111,158,129054,1,0,0:0:0:0:
111,158,129181,1,0,0:0:0:0:
285,74,129562,6,0,L|272:141,1,61.25,2|0,0:0|0:0,0:0:0:0:
256,192,130460,12,0,131210,0:0:0:0:
49,199,131317,5,2,0:0:0:0:
83,205,131400,1,2,0:0:0:0:
117,212,131484,1,2,0:0:0:0:
152,219,131568,1,2,0:0:0:0:
186,226,131652,1,0,0:0:0:0:
220,232,131735,1,0,0:0:0:0:
255,239,131819,1,2,0:0:0:0:
289,246,131903,1,2,0:0:0:0:
323,253,131987,1,0,0:0:0:0:
350,259,132063,6,0,L|365:175,1,70,4|0,0:0|0:0,0:0:0:0:
231,87,132215,2,0,L|215:170,1,70,4|0,0:0|0:0,0:0:0:0:
413,80,132368,2,0,L|316:62,1,70,4|0,0:0|0:0,0:0:0:0:
174,246,132520,2,0,L|270:263,1,70,4|0,0:0|0:0,0:0:0:0:
193,210,133613,5,12,0:0:0:0:
256,192,133719,12,0,134919,0:0:0:0:
125,90,135019,5,2,0:0:0:0:
153,102,135119,1,2,0:0:0:0:
290,154,135319,5,2,0:0:0:0:
317,150,135419,2,0,P|316:202|116:274,1,280
226,86,135769,1,0,0:0:0:0:
256,192,135975,12,2,136153,0:0:0:0:
365,94,136212,6,2,L|361:127,1,17.5
77,228,136516,6,0,L|222:279,1,140,12|0,0:0|0:0,0:0:0:0:
386,327,136786,5,0,0:0:0:0:
357,262,136886,1,0,0:0:0:0:
329,198,136986,1,2,0:0:0:0:
300,133,137086,1,2,0:0:0:0:
270,67,137186,6,0,L|242:101,1,35
145,194,137386,1,0,0:0:0:0:
184,177,137486,1,0,0:0:0:0:
485,145,137698,6,0,P|428:186|364:212,1,140,2|0,0:0|0:0,0:0:0:0:
149,232,138031,2,2,B|208:217|215:250|296:219,2,140
222,81,138508,1,2,0:0:0:0:
300,238,138652,2,0,P|314:205|320:171,1,70
73,152,139290,6,0,P|150:170|221:169,1,140,2|0,0:0|0:0,0:0:0:0:
443,187,139581,2,0,P|366:169|295:170,1,140,2|0,0:0|0:0,0:0:0:0:
188,45,139872,6,0,L|197:83,1,35,2|0,0:0|0:0,0:0:0:0:
50,197,140915,6,0,P|87:228|182:264,1,140,2|0,0:0|0:0,0:0:0:0:
279,75,141178,2,0,P|233:91|154:155,1,140,2|0,0:0|0:0,0:0:0:0:
485,159,141441,6,0,P|448:128|353:92,1,140,2|0,0:0|0:0,0:0:0:0:
256,281,141704,2,0,P|301:264|380:200,1,140,2|0,0:0|0:0,0:0:0:0:
89,308,141967,2,0,L|223:355,1,140
322,341,142362,1,0,0:0:0:0:
107,181,142493,6,0,P|115:121|96:34,1,140,2|0,0:0|0:0,0:0:0:0:
208,217,142757,2,0,P|244:169|271:84,1,140,2|0,0:0|0:0,0:0:0:0:
277,298,143020,6,0,P|332:274|398:214,1,140,2|0,0:0|0:0,0:0:0:0:
74,102,144072,6,0,P|142:109|214:136,1,140,2|0,0:0|0:0,0:0:0:0:
412,213,144336,2,0,P|343:205|271:178,1,140,2|0,0:0|0:0,0:0:0:0:
55,90,144599,6,0,P|123:80|200:87,1,140,2|0,0:0|0:0,0:0:0:0:
431,225,144862,2,0,P|362:235|286:228,1,140,2|0,0:0|0:0,0:0:0:0:
80,336,145125,6,0,P|112:281|116:195,1,140,2|0,0:0|0:0,0:0:0:0:
156,76,145651,2,0,P|124:131|120:217,1,140,2|0,0:0|0:0,0:0:0:0:
278,179,146178,6,0,P|326:163|361:73,1,140,2|0,0:0|0:0,0:0:0:0:
273,88,146704,2,0,P|225:104|190:194,1,140,2|0,0:0|0:0,0:0:0:0:
161,85,147230,6,0,P|195:105|296:102,1,140,2|0,0:0|0:0,0:0:0:0:
430,59,147452,1,2,0:0:0:0:
211,216,147563,6,0,P|250:216|336:164,1,140,2|0,0:0|0:0,0:0:0:0:
430,59,147776,1,2,0:0:0:0:
410,330,148082,6,0,L|388:190,1,140,2|0,0:0|0:0,0:0:0:0:
324,307,149719,2,0,P|313:276|286:246,1,70
159,188,150144,5,0,0:0:0:0:
123,222,150240,1,0,0:0:0:0:
92,260,150336,2,0,P|156:287|240:129,1,280,2|0,0:0|0:0,0:0:0:0:
220,81,150911,6,0,L|214:11,1,70,2|0,0:0|0:0,0:0:0:0:
82,50,151103,2,0,L|76:119,1,70,2|0,0:0|0:0,0:0:0:0:
73,37,151390,1,2,0:0:0:0:
62,28,151486,6,0,L|52:158,1,122.5,2|0,0:0|0:0,0:0:0:0:
76,273,151984,6,0,P|111:277|210:228,1,140,2|0,0:0|0:0,0:0:0:0:
310,327,152222,2,0,P|330:298|336:188,1,140,2|0,0:0|0:0,0:0:0:0:
184,121,152507,6,0,L|240:257,1,140,2|0,0:0|0:0,0:0:0:0:
270,47,153494,6,0,L|413:68,1,140,2|0,0:0|0:0,0:0:0:0:
330,177,153849,2,0,B|186:196|186:196,2,140,2|0|0,0:0|0:0|0:0,0:0:0:0:
351,184,154440,1,2,0:0:0:0:
141,87,154676,6,0,L|159:196,1,105,2|0,0:0|0:0,0:0:0:0:
228,303,155184,6,0,P|286:271|363:268,1,140,2|0,0:0|0:0,0:0:0:0:
306,53,155438,2,0,P|304:119|268:187,1,140,2|0,0:0|0:0,0:0:0:0:
483,245,155692,6,0,P|426:210|385:145,1,140,2|0,0:0|0:0,0:0:0:0:
159,63,156771,6,0,P|236:55|306:64,1,140,2|0,0:0|0:0,0:0:0:0:
204,182,157025,2,0,P|127:190|57:181,1,140,2|0,0:0|0:0,0:0:0:0:
130,45,157279,2,0,P|204:23|274:20,1,140,2|0,0:0|0:0,0:0:0:0:
233,200,157533,1,0,0:0:0:0:
256,192,157774,12,0,158007,0:0:0:0:
315,106,158084,6,0,L|304:214,1,70,14|0,0:0|0:0,0:0:0:0:
66,113,158993,6,8,L|356:148,1,280
141,42,159415,5,8,0:0:0:0:
199,250,159629,1,2,0:0:0:0:
199,250,159736,1,10,0:0:0:0:
199,250,159843,1,2,0:0:0:0:
345,147,160057,5,8,0:0:0:0:
65,174,160271,1,2,0:0:0:0:
65,174,160379,1,10,0:0:0:0:
65,174,160485,1,2,0:0:0:0:
336,308,160700,5,0,0:0:0:0:
266,65,160915,1,2,0:0:0:0:
266,65,161022,1,10,0:0:0:0:
266,65,161129,1,2,0:0:0:0:
108,270,161343,5,8,0:0:0:0:
382,177,161557,1,2,0:0:0:0:
382,177,161665,1,10,0:0:0:0:
382,177,161772,1,2,0:0:0:0:
100,142,161986,6,0,L|276:122,1,140,2|0,0:0|0:0,0:0:0:0:
317,272,162200,2,0,L|177:256,1,140,2|0,0:0|0:0,0:0:0:0:
45,129,162415,2,0,L|214:78,1,140,2|0,0:0|0:0,3:0:0:0:
367,297,162629,2,0,L|190:307,1,140,2|0,0:0|0:0,3:0:0:0:
393,98,162843,5,12,0:0:0:0:
69,182,163477,6,0,L|93:268,1,70
234,291,163885,5,8,0:0:0:0:
280,121,164024,1,8,0:0:0:0:
404,245,164164,1,8,0:0:0:0:
154,190,164443,6,0,P|142:143|177:47,1,140
256,192,165272,12,0,165977,0:0:0:0:
256,192,166066,12,0,168183,0:0:0:0:
200,135,168261,6,0,L|186:191,1,52.5,12|0,0:0|0:0,0:0:0:0:
110,139,169517,6,0,L|191:152,1,70
302,170,169819,1,0,0:0:0:0:
100,195,169926,1,0,0:0:0:0:
340,229,170783,6,8,L|325:314,2,70
400,178,171657,2,0,P|377:131|375:72,1,105
382,48,171901,1,0,0:0:0:0:
247,187,172075,1,0,0:0:0:0:
381,209,172249,1,0,0:0:0:0:
246,24,172423,1,8,0:0:0:0:
256,192,172992,12,0,173277,0:0:0:0:
256,192,174000,5,8,0:0:0:0:
256,192,174244,1,8,0:0:0:0:
256,192,174917,12,0,176935,0:0:0:0:
256,192,176995,12,2,177910,0:0:0:0:
256,192,177971,12,2,178886,0:0:0:0:
256,192,178947,12,2,179861,0:0:0:0:
256,192,179922,12,2,180837,0:0:0:0:
256,192,180898,12,2,181813,0:0:0:0:
256,192,181874,12,2,182788,0:0:0:0:
256,192,182849,12,2,183764,0:0:0:0:
152,47,183824,6,0,L|164:123,1,70,2|2,0:0|0:0,0:0:0:0:
256,192,184397,12,2,185312,0:0:0:0:
135,69,189963,5,8,0:0:0:0:
195,292,190178,1,0,0:0:0:0:
26,192,190394,1,8,0:0:0:0:
303,168,190610,1,0,0:0:0:0:
439,40,190826,5,8,0:0:0:0:
432,109,190934,1,0,0:0:0:0:
426,179,191042,1,8,0:0:0:0:
419,249,191150,1,0,0:0:0:0:
413,318,191257,5,8,0:0:0:0:
144,109,191473,1,8,0:0:0:0:
59,255,191689,6,0,L|139:244,1,78.7500030040742,8|0,0:0|0:0,0:0:0:0:
243,162,191905,5,0,0:0:0:0:
239,205,192013,1,0,0:0:0:0:
235,249,192121,1,8,0:0:0:0:
132,95,192337,1,8,0:0:0:0:
280,44,192552,6,0,L|373:59,2,87.5,8|0|0,0:0|0:0|0:0,0:0:0:0:
269,42,192822,1,0,0:0:0:0:
259,40,192876,1,0,0:0:0:0:
157,176,192984,1,8,0:0:0:0:
357,163,193200,1,8,0:0:0:0:
119,99,193416,1,0,0:0:0:0:
401,84,193632,6,0,P|406:128|426:166,1,87.5,8|0,0:0|0:0,0:0:0:0:
490,237,193847,1,0,0:0:0:0:
299,273,193955,1,0,0:0:0:0:
299,273,194009,1,0,0:0:0:0:
299,273,194063,1,8,0:0:0:0:
128,107,194279,6,0,P|141:172|102:278,1,175,8|0,0:0|0:0,0:0:0:0:
106,272,194549,1,0,0:0:0:0:
106,272,194603,1,0,0:0:0:0:
106,272,194657,1,0,0:0:0:0:
120,287,194711,6,0,L|188:300,2,43.75,8|0|0,0:0|0:0|0:0,0:0:0:0:
264,189,194927,1,8,0:0:0:0:
52,169,195142,5,0,0:0:0:0:
185,32,195358,2,0,L|166:130,1,87.5,8|0,0:0|0:0,0:0:0:0:
168,117,195520,1,0,0:0:0:0:
168,117,195574,1,0,0:0:0:0:
281,77,195682,2,0,L|285:26,2,43.75,8|0|0,0:0|0:0|0:0,0:0:0:0:
290,244,195898,6,0,P|273:186|239:146,1,87.5,8|0,0:0|0:0,0:0:0:0:
91,94,196221,1,0,0:0:0:0:
270,175,196329,1,0,0:0:0:0:
270,175,196383,1,0,0:0:0:0:
270,175,196437,5,8,0:0:0:0:
39,173,196653,1,8,0:0:0:0:
175,60,196869,1,8,0:0:0:0:
133,287,197085,1,0,0:0:0:0:
133,287,197139,1,0,0:0:0:0:
133,287,197193,6,0,P|176:295|220:296,1,87.5,8|0,0:0|0:0,0:0:0:0:
433,303,197409,2,0,P|390:294|346:293,1,87.5,8|0,0:0|0:0,0:0:0:0:
195,227,197732,6,0,L|151:119,3,87.5,8|0|0|0,0:0|0:0|0:0|0:0,0:0:0:0:
264,149,198164,1,8,0:0:0:0:
264,149,198218,1,0,0:0:0:0:
264,149,198272,1,0,0:0:0:0:
352,226,198380,5,0,0:0:0:0:
138,167,198488,2,0,P|127:124|133:81,1,87.5
292,40,198811,5,8,0:0:0:0:
264,122,198919,1,0,0:0:0:0:
236,205,199027,1,0,0:0:0:0:
122,133,199243,6,0,P|112:175|116:218,1,87.5,8|0,0:0|0:0,0:0:0:0:
360,282,199459,2,0,P|369:239|365:196,1,87.5,8|0,0:0|0:0,0:0:0:0:
315,86,199675,1,0,0:0:0:0:
315,86,199729,1,0,0:0:0:0:
315,86,199783,1,0,0:0:0:0:
209,114,199891,6,0,L|281:180,2,87.5,8|0|0,0:0|0:0|0:0,0:0:0:0:
103,93,200357,6,0,P|108:147|99:196,1,87.5
54,280,200572,1,8,0:0:0:0:
83,291,200680,1,0,0:0:0:0:
112,302,200788,1,0,0:0:0:0:
261,328,201004,6,0,P|283:278|287:227,1,87.5,8|0,0:0|0:0,0:0:0:0:
340,94,201220,2,0,P|285:99|239:121,1,87.5,8|0,0:0|0:0,0:0:0:0:
97,142,201436,1,0,0:0:0:0:
97,142,201490,1,0,0:0:0:0:
97,142,201544,1,8,0:0:0:0:
72,272,201651,6,0,L|124:277,2,43.75,8|0|0,0:0|0:0|0:0,0:0:0:0:
204,175,201867,2,0,L|152:180,2,43.75,8|0|0,0:0|0:0|0:0,0:0:0:0:
229,278,202108,5,0,0:0:0:0:
356,184,202323,2,0,L|276:137,2,87.5,8|0|0,0:0|0:0|0:0,0:0:0:0:
368,328,202755,6,0,P|408:310|433:275,1,87.5,8|0,0:0|0:0,0:0:0:0:
330,150,202971,2,0,P|325:192|343:231,1,87.5,8|0,0:0|0:0,0:0:0:0:
503,205,203187,1,0,0:0:0:0:
421,115,203295,6,0,L|413:168,1,43.75,8|0,0:0|0:0,0:0:0:0:
356,77,203402,2,0,L|348:24,1,43.75,8|0,0:0|0:0,0:0:0:0:
291,33,203510,1,0,0:0:0:0:
291,33,203564,1,0,0:0:0:0:
291,33,203618,5,8,0:0:0:0:
186,95,203834,2,0,P|140:120|88:134,1,87.5,8|0,0:0|0:0,0:0:0:0:
9,145,204050,1,0,0:0:0:0:
74,214,204158,1,0,0:0:0:0:
74,214,204212,1,0,0:0:0:0:
74,214,204266,1,8,0:0:0:0:
169,279,204482,6,0,L|274:291,1,87.5,8|0,0:0|0:0,0:0:0:0:
327,159,204697,2,0,L|222:171,1,87.5
66,237,204913,1,0,0:0:0:0:
