osu file format v14

[General]
AudioFilename: audio.mp3
AudioLeadIn: 0
PreviewTime: 78525
Countdown: 0
SampleSet: Soft
StackLeniency: 0.7
Mode: 0
LetterboxInBreaks: 0
WidescreenStoryboard: 0

[Editor]
DistanceSpacing: 1
BeatDivisor: 4
GridSize: 32
TimelineZoom: 1.6

[Metadata]
Title:Velvet Romancer
TitleUnicode:ヴェルベットロマンサー
Artist:Genkaku Aria
ArtistUnicode:幻覚アリア
Creator:Adinda
Version:Illusion
Source:
Tags:Z5553 metal rock symphonic gothic japanese doujin m3-44 めらみぽっぷ meramipop hallucination aria
BeatmapID:3181942
BeatmapSetID:1557663

[Difficulty]
HPDrainRate:6
CircleSize:4
OverallDifficulty:9
ApproachRate:9.4
SliderMultiplier:1.9
SliderTickRate:1

[Events]
//Background and Video events
0,0,"a.jpg",0,0
//Break Periods
2,218699,236906
//Storyboard Layer 0 (Background)
//Storyboard Layer 1 (Fail)
//Storyboard Layer 2 (Pass)
//Storyboard Layer 3 (Foreground)
//Storyboard Layer 4 (Overlay)
//Storyboard Sound Samples

[TimingPoints]
2499,315.789473684211,4,2,1,30,1,0
2499,-285.714285714284,4,2,1,30,0,0
12604,-285.714285714284,4,2,1,40,0,0
22709,-100,4,2,1,60,0,0
23341,-100,4,2,1,65,0,0
23499,-133.333333333333,4,2,1,75,0,0
23814,-90.9090909090909,4,2,1,85,0,0
24051,-90.9090909090909,4,2,1,5,0,0
24130,-90.9090909090909,4,2,1,85,0,0
26104,-90.9090909090909,4,2,1,5,0,0
26183,-90.9090909090909,4,2,1,85,0,0
27051,-90.9090909090909,4,2,1,5,0,0
27130,-90.9090909090909,4,2,1,85,0,0
34393,-153.846153846153,4,2,1,70,0,0
44183,-125,4,2,1,75,0,0
54288,-100,4,2,1,80,0,0
59341,-105.263157894737,4,2,1,80,0,0
69446,-100,4,2,1,80,0,0
74499,-100,4,2,1,50,0,0
75130,-100,4,2,1,60,0,0
75762,-100,4,2,1,65,0,0
76077,-100,4,2,1,70,0,0
76393,-100,4,2,1,75,0,0
76709,-100,4,2,1,80,0,0
77025,-100,4,2,1,85,0,0
79235,-100,4,2,2,80,0,0
79551,-71.4285714285714,4,2,1,90,0,1
79788,-71.4285714285714,4,2,1,5,0,1
79867,-83.3333333333333,4,2,1,90,0,1
80656,-71.4285714285714,4,2,1,90,0,1
80972,-83.3333333333333,4,2,1,90,0,1
82077,-71.4285714285714,4,2,1,90,0,1
82393,-83.3333333333333,4,2,1,90,0,1
83183,-71.4285714285714,4,2,1,90,0,1
83499,-83.3333333333333,4,2,1,90,0,1
84604,-71.4285714285714,4,2,1,90,0,1
84920,-83.3333333333333,4,2,1,90,0,1
85709,-71.4285714285714,4,2,1,90,0,1
86025,-83.3333333333333,4,2,1,90,0,1
87130,-71.4285714285714,4,2,1,90,0,1
87446,-83.3333333333333,4,2,1,90,0,1
89499,-71.4285714285714,4,2,1,90,0,1
89815,-83.3333333333333,4,2,1,90,0,1
90762,-71.4285714285714,4,2,1,90,0,1
90999,-71.4285714285714,4,2,1,5,0,1
91078,-83.3333333333333,4,2,1,90,0,1
94709,-71.4285714285714,4,2,1,90,0,1
95025,-83.3333333333333,4,2,1,90,0,1
97077,-71.4285714285714,4,2,1,90,0,1
97393,-83.3333333333333,4,2,1,90,0,1
99762,-133.333333333333,4,2,1,70,0,0
109867,-133.333333333333,4,2,1,80,0,0
111130,-133.333333333333,4,2,1,75,0,0
112393,-111.111111111111,4,2,1,75,0,0
130077,-100,4,2,1,80,0,0
140183,-105.263157894737,4,2,1,80,0,0
145235,-100,4,2,1,80,0,0
150288,-153.846153846153,4,2,1,70,0,0
165446,-133.333333333333,4,2,1,75,0,0
167656,-133.333333333333,4,2,1,80,0,0
169235,-100,4,2,1,85,0,0
170341,-71.4285714285714,4,2,1,90,0,1
170657,-83.3333333333333,4,2,1,90,0,1
172867,-71.4285714285714,4,2,1,90,0,1
173183,-83.3333333333333,4,2,1,90,0,1
175393,-71.4285714285714,4,2,1,90,0,1
175709,-83.3333333333333,4,2,1,90,0,1
180446,-71.4285714285714,4,2,1,90,0,1
180762,-83.3333333333333,4,2,1,90,0,1
182972,-71.4285714285714,4,2,1,90,0,1
183288,-83.3333333333333,4,2,1,90,0,1
185499,-71.4285714285714,4,2,1,90,0,1
185815,-83.3333333333333,4,2,1,90,0,1
188025,-71.4285714285714,4,2,1,90,0,1
188341,-83.3333333333333,4,2,1,90,0,1
189762,-71.4285714285714,4,2,1,90,0,1
189999,-71.4285714285714,4,2,1,5,0,1
190078,-83.3333333333333,4,2,1,90,0,1
190709,-100,4,2,1,80,0,0
200735,-100,4,2,1,5,0,0
200814,-100,4,2,1,80,0,0
210920,-83.3333333333333,4,2,1,90,0,1
218499,-83.3333333333333,4,2,1,100,0,0
237446,-200,4,2,1,50,0,0
238393,-100,4,2,2,80,0,0
238709,-71.4285714285714,4,2,1,90,0,1
238946,-71.4285714285714,4,2,1,5,0,1
239025,-83.3333333333333,4,2,1,90,0,1
239814,-71.4285714285714,4,2,1,90,0,1
240130,-83.3333333333333,4,2,1,90,0,1
241235,-71.4285714285714,4,2,1,90,0,1
241551,-83.3333333333333,4,2,1,90,0,1
242341,-71.4285714285714,4,2,1,90,0,1
242657,-83.3333333333333,4,2,1,90,0,1
243762,-71.4285714285714,4,2,1,90,0,1
244078,-83.3333333333333,4,2,1,90,0,1
244867,-71.4285714285714,4,2,1,90,0,1
245183,-83.3333333333333,4,2,1,90,0,1
246288,-71.4285714285714,4,2,1,90,0,1
246604,-83.3333333333333,4,2,1,90,0,1
248656,-71.4285714285714,4,2,1,90,0,1
248972,-83.3333333333333,4,2,1,90,0,1
249920,-71.4285714285714,4,2,1,90,0,1
250156,-71.4285714285714,4,2,1,5,0,1
250235,-83.3333333333333,4,2,1,90,0,1
253867,-71.4285714285714,4,2,1,90,0,1
254182,-83.3333333333333,4,2,1,90,0,1
256393,-71.4285714285714,4,2,1,90,0,1
256708,-83.3333333333333,4,2,1,90,0,1
258920,-71.4285714285714,4,2,1,90,0,1
259867,-83.3333333333333,4,2,1,90,0,1
260183,-71.4285714285714,4,2,1,90,0,1
266341,-71.4285714285714,4,2,1,90,0,0
267762,-71.4285714285714,4,2,1,60,0,0
268393,-71.4285714285714,4,2,1,65,0,0
268551,-133.333333333333,4,2,1,75,0,0
268867,-90.9090909090909,4,2,1,85,0,0
269104,-90.9090909090909,4,2,1,5,0,0
269183,-90.9090909090909,4,2,1,85,0,0
271156,-90.9090909090909,4,2,1,5,0,0
271235,-90.9090909090909,4,2,1,85,0,0
272104,-90.9090909090909,4,2,1,5,0,0
272183,-90.9090909090909,4,2,1,85,0,0

[Colours]
Combo1 : 192,192,192
Combo2 : 172,89,255

[HitObjects]
29,21,2499,6,0,P|32:77|84:140,1,132.999995941162,2|0,0:0|0:0,0:0:0:0:
224,60,3762,2,0,P|217:125|175:175,1,132.999995941162,2|0,0:0|0:0,0:0:0:0:
0,364,5025,6,0,L|135:345,1,132.999995941162,2|0,0:0|0:0,0:0:0:0:
327,297,6288,2,0,L|192:278,1,132.999995941162,2|0,0:0|0:0,0:0:0:0:
459,163,7551,6,0,B|442:229|442:229|459:303,1,132.999995941162,2|0,0:0|0:0,0:0:0:0:
346,137,8814,2,0,B|360:73|360:73|343:7,1,132.999995941162,2|0,0:0|0:0,0:0:0:0:
487,203,10077,2,0,B|470:269|470:269|487:343,1,132.999995941162,2|0,0:0|0:0,0:0:0:0:
214,126,11341,6,0,B|89:96|179:60|33:36,1,199.499993911743,2|0,0:0|0:0,0:0:0:0:
104,183,12604,6,0,P|13:192|36:278,1,199.499993911743,2|0,0:0|0:0,0:0:0:0:
164,249,13867,2,0,P|149:283|170:380,1,132.999995941162,2|2,0:0|0:0,0:0:0:0:
400,269,15130,6,0,B|444:297|444:297|514:272|497:168,1,199.499993911743,2|0,0:0|0:0,0:0:0:0:
404,14,16393,2,0,B|397:62|397:62|352:119|352:119|288:71,1,199.499993911743,2|0,0:0|0:0,0:0:0:0:
2,234,17656,6,0,L|53:32,1,199.499993911743,2|0,0:0|0:0,0:0:0:0:
135,164,18920,2,0,L|183:357,1,199.499993911743,2|0,0:0|0:0,0:0:0:0:
409,326,20183,6,0,P|449:339|476:222,1,199.499993911743,2|0,0:0|0:0,0:0:0:0:
373,143,21446,2,0,P|333:156|306:39,1,199.499993911743,2|0,0:0|0:0,0:0:0:0:
36,225,22709,5,2,0:0:0:0:
27,250,23025,5,2,0:0:0:0:
21,275,23341,5,2,0:0:0:0:
107,301,23499,2,0,B|98:338|98:338|106:383,1,71.2500027179719,2|0,0:0|0:0,0:0:0:0:
451,207,23814,6,0,L|407:14,1,156.750004783631,14|0,0:1|0:0,0:0:0:0:
387,42,24130,1,10,0:1:0:0:
217,62,24288,2,0,B|268:51|268:51|308:12,1,104.500003189087,10|0,0:0|0:0,0:0:0:0:
3,13,24604,5,10,0:1:0:0:
109,50,24762,2,0,B|58:39|58:39|18:0,1,104.500003189087,10|8,0:1|0:0,0:0:0:0:
107,148,25077,2,0,B|56:137|56:137|16:98,1,104.500003189087,10|0,0:1|0:0,0:0:0:0:
245,371,25393,6,0,P|214:317|266:171,1,209.000006378174,10|0,0:1|0:0,0:0:0:0:
503,155,25867,2,0,B|504:117|504:117|475:62|475:62|418:92,1,156.750004783631,10|0,0:1|0:0,0:0:0:0:
395,80,26183,1,10,0:0:0:0:
417,189,26341,6,8,B|457:177|457:177|503:205|503:205|528:268|470:320,1,209.000006378174,14|8,0:1|0:1,0:0:0:0:
5,181,26814,2,0,L|28:350,1,156.750004783631,10|0,0:0|0:0,0:0:0:0:
63,364,27130,2,8,L|47:258,1,104.500003189087,10|8,0:1|0:1,0:0:0:0:
60,16,27446,1,10,0:0:0:0:
143,137,27604,2,0,L|159:31,1,104.500003189087,10|0,0:1|0:0,0:0:0:0:
361,11,27920,5,10,0:1:0:0:
277,77,28077,2,0,P|316:68|377:31,1,104.500003189087,8|0,0:0|0:0,0:0:0:0:
371,35,28393,1,8,0:1:0:0:
504,181,28551,2,0,P|453:167|409:139,1,104.500003189087,10|8,0:1|0:0,0:0:0:0:
351,286,28867,6,8,B|400:252|400:252|482:275|465:368,1,209.000006378174,14|8,0:1|0:1,0:0:0:0:
145,293,29341,2,8,B|194:327|194:327|276:304|259:208,1,209.000006378174,8|8,0:0|0:1,0:0:0:0:
32,253,29814,5,10,0:1:0:0:
58,354,29972,1,10,0:0:0:0:
114,182,30130,2,8,B|112:136|112:136|160:62|160:62|214:115,1,209.000006378174,10|8,0:1|0:1,0:0:0:0:
89,104,30604,6,0,L|51:0,1,104.500003189087,10|0,0:0|0:0,0:0:0:0:
408,174,30920,2,8,L|446:70,1,104.500003189087,10|8,0:1|0:1,0:0:0:0:
357,25,31235,5,10,0:0:0:0:
393,285,31393,2,8,L|470:72,1,209.000006378174,14|8,0:1|0:1,0:0:0:0:
281,260,31867,2,0,P|295:307|282:367,1,104.500003189087,8|0,0:0|0:0,0:0:0:0:
160,251,32183,5,10,0:1:0:0:
178,148,32341,2,0,P|192:195|179:255,1,104.500003189087,10|8,0:1|0:0,0:0:0:0:
128,58,32656,6,0,B|78:66|78:66|19:56,1,104.500003189087,10|0,0:1|0:0,0:0:0:0:
24,56,32972,1,10,0:1:0:0:
219,1,33130,2,0,B|272:10|272:10|322:2,1,104.500003189087,12|0,0:0|0:0,0:0:0:0:
449,166,33446,5,8,0:0:0:0:
512,94,33604,5,8,0:0:0:0:
464,73,33682,1,8,0:0:0:0:
413,80,33761,1,8,0:0:0:0:
373,113,33840,1,8,0:0:0:0:
357,161,33919,1,8,0:0:0:0:
368,212,33998,1,8,0:0:0:0:
404,249,34077,1,12,0:1:0:0:
75,239,34393,6,0,L|87:299,1,61.7499971733095,10|0,0:1|0:0,0:0:0:0:
0,178,34709,2,8,L|30:35,1,123.499994346619,10|8,0:1|0:1,0:0:0:0:
53,249,35183,1,2,0:0:0:0:
53,249,35341,2,8,L|83:391,1,123.499994346619,10|10,0:1|0:1,0:0:0:0:
236,358,35814,2,0,P|204:349|164:344,1,61.7499971733095,2|8,0:0|0:1,0:0:0:0:
458,87,36288,5,10,0:1:0:0:
458,87,36446,1,2,0:0:0:0:
349,133,36604,6,8,P|407:117|481:108,1,123.499994346619,10|10,0:1|0:1,0:0:0:0:
404,197,37077,2,0,P|346:181|272:172,1,123.499994346619,2|2,0:0|0:0,0:0:0:0:
177,215,37551,1,10,0:1:0:0:
177,215,37709,2,0,B|187:155|187:155|169:92,1,123.499994346619,2|0,0:0|0:0,0:0:0:0:
80,7,38183,2,0,L|63:74,1,61.7499971733095,8|0,0:1|0:0,0:0:0:0:
0,106,38499,2,0,L|17:173,1,61.7499971733095,8|0,0:1|0:0,0:0:0:0:
87,59,38814,2,0,L|102:0,1,61.7499971733095,8|0,0:0|0:0,0:0:0:0:
343,22,39130,6,8,P|398:17|455:66,1,123.499994346619,12|10,0:1|0:1,0:0:0:0:
404,152,39604,1,2,0:0:0:0:
404,152,39762,2,8,P|459:157|516:108,1,123.499994346619,10|8,0:1|0:1,0:0:0:0:
466,209,40235,1,2,0:0:0:0:
466,209,40393,2,8,L|447:352,1,123.499994346619,10|10,0:1|0:1,0:0:0:0:
347,381,40867,2,0,L|337:311,1,61.7499971733095,2|8,0:0|0:1,0:0:0:0:
33,243,41341,5,10,0:1:0:0:
33,243,41499,1,2,0:0:0:0:
41,155,41656,6,8,P|44:198|119:205,1,123.499994346619,10|10,0:1|0:1,0:0:0:0:
210,69,42130,2,0,P|207:112|132:119,1,123.499994346619,2|2,0:0|0:0,0:0:0:0:
146,20,42604,1,10,0:1:0:0:
146,20,42762,2,0,B|207:28|207:28|275:15,1,123.499994346619,2|0,0:0|0:0,0:0:0:0:
361,93,43235,2,0,P|362:67|392:25,1,61.7499971733095,10|0,0:1|0:0,0:0:0:0:
370,187,43551,1,8,0:1:0:0:
461,155,43709,1,8,0:1:0:0:
466,253,43867,2,8,P|481:279|483:310,1,61.7499971733095,10|8,0:0|0:0,0:0:0:0:
463,330,44104,1,8,0:0:0:0:
446,353,44183,6,0,B|408:359|408:359|368:354,1,76,14|0,0:1|0:0,0:0:0:0:
225,248,44499,2,0,L|244:329,1,76,10|0,0:0|0:0,0:0:0:0:
136,210,44814,1,10,0:1:0:0:
136,210,44972,2,0,L|117:291,1,76,8|0,0:1|0:0,0:0:0:0:
239,172,45288,2,0,L|258:253,1,76,10|0,0:0|0:0,0:0:0:0:
474,132,45604,5,10,0:1:0:0:
410,180,45762,2,0,P|439:173|485:142,1,76,8|0,0:0|0:0,0:0:0:0:
364,49,46077,1,10,0:1:0:0:
364,49,46235,1,8,0:1:0:0:
440,6,46393,2,0,P|469:13|515:44,1,76,8|0,0:0|0:0,0:0:0:0:
164,82,46709,6,0,B|169:46|169:46|158:-1,1,76,10|0,0:1|0:0,0:0:0:0:
60,40,47025,1,10,0:0:0:0:
60,40,47184,2,0,B|50:78|50:78|55:114,1,76,2|8,0:0|0:1,0:0:0:0:
6,278,47499,2,0,P|5:257|34:211,1,76,10|0,0:1|0:0,0:0:0:0:
111,280,47814,6,8,B|118:319|118:319|154:367|154:367|202:335,1,152,10|8,0:0|0:1,0:0:0:0:
304,231,48288,2,8,L|278:396,1,152,10|8,0:0|0:1,0:0:0:0:
417,281,48762,1,8,0:1:0:0:
512,331,48920,2,8,L|500:255,1,76,10|8,0:0|0:0,0:0:0:0:
482,236,49156,1,8,0:0:0:0:
464,218,49235,6,0,L|440:67,1,152,14|10,0:1|0:0,0:0:0:0:
324,101,49709,1,2,0:0:0:0:
343,5,49867,2,8,P|344:32|305:76,1,76,10|8,0:1|0:1,0:0:0:0:
162,70,50183,2,0,P|161:97|200:141,1,76,2|8,0:0|0:0,0:0:0:0:
66,161,50499,6,0,B|26:167|26:167|-20:162,1,76,2|8,0:0|0:1,0:0:0:0:
133,249,50814,2,0,B|93:255|93:255|47:250,1,76,10|0,0:0|0:0,0:0:0:0:
243,278,51130,1,10,0:1:0:0:
183,345,51288,1,8,0:1:0:0:
265,279,51446,2,0,L|280:204,1,76,10|0,0:0|0:0,0:0:0:0:
471,13,51762,6,0,L|503:176,2,152,14|12|8,0:1|0:0|0:1,0:0:0:0:
442,89,52551,2,0,P|406:73|351:57,1,76,8|0,0:1|0:0,0:0:0:0:
113,65,52867,6,0,P|176:36|273:8,1,152,12|8,0:0|0:1,0:0:0:0:
4,84,53341,1,12,0:0:0:0:
39,6,53499,1,8,0:1:0:0:
59,144,53656,5,8,0:0:0:0:
58,174,53734,1,8,0:0:0:0:
63,204,53813,1,8,0:0:0:0:
77,231,53892,1,8,0:0:0:0:
99,251,53971,1,4,0:3:0:0:
116,276,54050,1,4,0:3:0:0:
122,306,54129,1,4,0:3:0:0:
122,336,54208,1,4,0:3:0:0:
479,104,54604,6,0,B|472:57|472:57|479:8,1,95,14|8,0:0|0:1,0:0:0:0:
387,155,54920,1,8,0:0:0:0:
512,200,55077,1,8,0:1:0:0:
422,253,55235,2,0,B|415:300|415:300|422:349,1,95,10|8,0:0|0:1,0:0:0:0:
246,305,55551,6,0,L|331:263,1,95,10|8,0:0|0:1,0:0:0:0:
331,262,55867,1,8,0:0:0:0:
207,373,56025,2,0,L|292:331,1,95,10|8,0:1|0:0,0:0:0:0:
292,330,56341,1,8,0:1:0:0:
122,336,56499,2,0,L|37:294,1,95,10|8,0:0|0:1,0:0:0:0:
8,61,56814,5,14,0:0:0:0:
8,61,56972,1,8,0:1:0:0:
150,85,57130,1,8,0:0:0:0:
150,85,57288,1,8,0:1:0:0:
89,18,57446,1,8,0:0:0:0:
89,18,57604,1,8,0:1:0:0:
72,123,57762,2,0,P|64:163|81:232,1,95,10|8,0:0|0:1,0:0:0:0:
283,23,58077,5,10,0:0:0:0:
283,23,58235,1,8,0:1:0:0:
386,46,58393,2,0,B|340:51|340:51|286:47,1,95,12|8,0:0|0:1,0:0:0:0:
391,150,58709,2,0,B|439:146|439:146|485:151,1,95,10|8,0:0|0:1,0:0:0:0:
436,261,59025,5,8,0:3:0:0:
441,306,59103,1,8,0:3:0:0:
413,343,59182,1,8,0:3:0:0:
367,348,59261,1,8,0:3:0:0:
331,319,59340,1,14,0:1:0:0:
203,282,59499,5,2,0:0:0:0:
203,282,59656,1,10,0:0:0:0:
236,366,59814,2,0,L|222:271,1,90.2499975900651,2|8,0:0|0:1,0:0:0:0:
104,179,60130,5,10,0:1:0:0:
104,179,60287,1,10,0:0:0:0:
71,263,60446,2,0,L|85:168,1,90.2499975900651,2|8,0:0|0:1,0:0:0:0:
247,86,60762,5,2,0:0:0:0:
247,86,60919,1,10,0:0:0:0:
280,170,61077,2,0,L|266:75,1,90.2499975900651,2|8,0:0|0:1,0:0:0:0:
266,80,61393,1,8,0:1:0:0:
369,89,61551,2,0,L|383:-6,1,90.2499975900651,10|0,0:0|0:0,0:0:0:0:
495,160,61867,6,0,P|433:149|421:244,2,180.49999518013,14|8|8,0:1|0:0|0:1,0:0:0:0:
495,160,62656,1,8,0:1:0:0:
318,286,62814,2,0,B|312:329|312:329|320:387,1,90.2499975900651,10|0,0:0|0:0,0:0:0:0:
30,311,63130,5,10,0:1:0:0:
30,311,63288,1,8,0:1:0:0:
160,279,63446,1,8,0:0:0:0:
106,384,63604,1,8,0:1:0:0:
76,204,63762,5,12,0:0:0:0:
178,100,63920,1,8,0:0:0:0:
178,100,63999,1,8,0:0:0:0:
178,100,64077,1,8,0:0:0:0:
25,22,64235,1,8,0:0:0:0:
199,118,64393,6,0,B|200:71|200:71|228:13|228:13|290:44,1,180.49999518013,12|10,0:1|0:0,0:0:0:0:
511,179,64867,1,2,0:0:0:0:
411,52,65025,1,10,0:1:0:0:
501,85,65183,2,0,P|488:137|484:184,1,90.2499975900651,10|8,0:1|0:0,0:0:0:0:
312,195,65499,6,8,P|339:305|348:405,1,180.49999518013,14|8,0:1|0:1,0:0:0:0:
3,238,65972,1,10,0:0:0:0:
157,278,66130,1,2,0:0:0:0:
70,370,66288,1,10,0:1:0:0:
12,205,66446,2,0,L|34:113,1,90.2499975900651,10|8,0:1|0:0,0:0:0:0:
130,15,66762,5,2,0:0:0:0:
130,15,66841,1,2,0:0:0:0:
130,15,66920,2,8,P|131:77|228:72,1,180.49999518013,14|8,0:1|0:0,0:0:0:0:
419,12,67393,2,0,B|375:19|375:19|325:13,1,90.2499975900651,2|8,0:0|0:1,0:0:0:0:
495,92,67709,2,0,B|451:99|451:99|401:93,1,90.2499975900651,10|8,0:1|0:0,0:0:0:0:
251,210,68025,6,8,B|298:187|298:187|365:196|373:298,1,180.49999518013,14|10,0:1|0:1,0:0:0:0:
294,364,68499,1,10,0:0:0:0:
294,364,68656,2,0,B|298:318|298:318|285:268,1,90.2499975900651,2|8,0:0|0:1,0:0:0:0:
122,120,68972,1,8,0:1:0:0:
131,149,69051,1,8,0:1:0:0:
138,173,69130,2,0,B|142:127|142:127|129:77,1,90.2499975900651,12|0,0:0|0:0,0:0:0:0:
0,160,69446,6,0,L|33:261,1,95,12|0,0:1|0:0,0:0:0:0:
137,384,69762,1,10,0:0:0:0:
29,250,69920,1,10,0:1:0:0:
145,284,70077,2,0,L|112:385,1,95,10|8,0:0|0:1,0:0:0:0:
475,314,70393,2,0,L|446:224,1,95,8|10,0:0|0:1,0:0:0:0:
346,18,70709,6,0,P|352:55|317:100,1,95,10|8,0:0|0:1,0:0:0:0:
319,98,71025,1,8,0:0:0:0:
237,92,71183,2,0,P|231:129|266:174,1,95,10|8,0:1|0:0,0:0:0:0:
263,172,71499,1,8,0:1:0:0:
374,9,71656,2,0,P|380:46|345:91,1,95,10|8,0:0|0:1,0:0:0:0:
28,78,71972,6,0,B|20:126|20:126|26:172,1,95,14|8,0:0|0:1,0:0:0:0:
142,263,72288,2,0,B|148:217|148:217|140:169,1,95,8|8,0:0|0:1,0:0:0:0:
111,361,72604,1,8,0:0:0:0:
3,319,72762,1,8,0:1:0:0:
94,384,72920,2,0,P|131:376|185:349,1,95,8|8,0:0|0:1,0:0:0:0:
460,73,73235,6,0,P|423:65|369:38,1,95,10|8,0:0|0:1,0:0:0:0:
512,141,73551,1,10,0:0:0:0:
512,141,73709,2,0,P|475:133|421:106,1,95,10|8,0:1|0:0,0:0:0:0:
423,107,74025,1,8,0:1:0:0:
278,304,74183,5,10,0:0:0:0:
413,133,74341,1,8,0:0:0:0:
288,278,74499,5,14,0:1:0:0:
288,278,74656,1,4,0:3:0:0:
391,310,74814,1,4,0:3:0:0:
391,310,74972,1,4,0:3:0:0:
364,225,75130,1,4,0:3:0:0:
364,225,75288,1,4,0:3:0:0:
324,370,75446,1,4,0:3:0:0:
324,370,75604,1,4,0:3:0:0:
57,136,75762,5,10,0:0:0:0:
147,211,75920,1,8,0:0:0:0:
73,108,76077,5,10,0:0:0:0:
0,282,76235,1,8,0:0:0:0:
87,83,76393,5,10,0:0:0:0:
194,335,76551,1,8,0:0:0:0:
100,60,76709,5,10,0:0:0:0:
34,384,76867,1,8,0:0:0:0:
34,384,77025,1,8,0:1:0:0:
260,13,77183,5,14,0:0:0:0:
271,183,77341,2,0,P|267:155|298:95,1,95,14|8,0:0|0:1,0:0:0:0:
512,300,77656,5,14,0:0:0:0:
406,105,77814,1,10,0:0:0:0:
406,105,77972,1,8,0:1:0:0:
382,384,78130,1,14,0:0:0:0:
256,192,78209,12,0,79077,0:0:0:0:
0,308,79235,6,0,L|33:211,1,95,8|0,0:0|0:0,0:0:0:0:
156,37,79551,6,0,L|227:246,1,199.499993911743,14|0,0:1|0:0,0:0:0:0:
246,242,79867,2,0,B|233:299|233:299|246:357,1,113.999996520996,8|0,0:0|0:0,0:0:0:0:
386,316,80183,1,10,0:1:0:0:
355,207,80341,2,0,B|342:264|342:264|355:322,1,113.999996520996,10|8,0:1|0:0,0:0:0:0:
512,145,80656,6,8,B|460:155|460:155|387:116|387:116|379:40|312:20,1,265.999991882324,14|8,0:1|0:1,0:0:0:0:
24,248,81130,2,0,L|137:189,1,113.999996520996,10|0,0:0|0:0,0:0:0:0:
79,331,81446,1,10,0:1:0:0:
79,331,81604,1,8,0:1:0:0:
181,384,81762,2,0,L|79:331,1,113.999996520996,10|0,0:0|0:0,0:0:0:0:
0,0,82077,6,0,P|-3:109|127:92,1,265.999991882324,12|8,0:1|0:0,0:0:0:0:
122,99,82551,1,0,0:0:0:0:
350,54,82709,1,10,0:1:0:0:
219,77,82867,1,8,0:1:0:0:
447,122,83025,1,8,0:0:0:0:
374,171,83183,6,8,B|418:148|418:148|494:195|494:195|468:336,1,265.999991882324,12|8,0:1|0:1,0:0:0:0:
238,338,83656,2,0,P|291:320|331:267,1,113.999996520996,8|0,0:0|0:0,0:0:0:0:
134,298,83972,2,8,P|170:254|223:236,1,113.999996520996,8|8,0:1|0:1,0:0:0:0:
0,299,84288,5,10,0:0:0:0:
49,377,84446,1,2,0:0:0:0:
84,212,84604,6,0,B|63:119|142:76|142:76|61:-7,2,265.999991882324,12|8|8,0:1|0:0|0:1,0:0:0:0:
367,113,85393,2,0,B|359:59|359:59|365:-5,1,113.999996520996,10|8,0:1|0:0,0:0:0:0:
511,84,85709,6,8,P|427:65|453:213,1,265.999991882324,12|8,0:1|0:1,0:0:0:0:
262,309,86183,5,10,0:0:0:0:
146,127,86341,1,2,0:0:0:0:
211,67,86499,1,10,0:1:0:0:
210,375,86656,1,10,0:1:0:0:
259,285,86814,5,10,0:0:0:0:
143,103,86972,1,2,0:0:0:0:
379,142,87130,6,0,B|436:146|453:171|453:171|480:278|378:337,2,265.999991882324,12|8|8,0:1|0:0|0:1,0:0:0:0:
5,161,87920,1,8,0:1:0:0:
99,229,88077,1,8,0:0:0:0:
37,39,88235,1,8,0:1:0:0:
13,187,88393,6,0,P|3:236|26:301,1,113.999996520996,2|8,0:0|0:1,0:0:0:0:
156,7,88709,2,0,P|146:56|169:121,1,113.999996520996,12|0,0:0|0:0,0:0:0:0:
436,27,89025,2,0,B|380:36|380:36|312:20,1,113.999996520996,8|8,0:0|0:0,0:0:0:0:
307,2,89262,1,8,0:0:0:0:
307,2,89341,1,8,0:0:0:0:
379,142,89499,6,0,P|303:131|314:288,1,265.999991882324,14|8,0:1|0:1,0:0:0:0:
468,362,89972,2,0,L|428:244,1,113.999996520996,10|0,0:0|0:0,0:0:0:0:
120,181,90288,1,10,0:1:0:0:
0,270,90446,2,0,L|40:152,1,113.999996520996,10|8,0:1|0:0,0:0:0:0:
241,75,90762,6,0,B|280:89|280:89|339:70|339:70|351:21|399:2,1,199.499993911743,12|0,0:1|0:0,0:0:0:0:
420,18,91077,1,10,0:1:0:0:
310,211,91235,2,0,P|305:257|351:314,1,113.999996520996,8|0,0:0|0:0,0:0:0:0:
395,158,91551,1,10,0:1:0:0:
488,271,91709,1,8,0:1:0:0:
488,271,91788,1,8,0:1:0:0:
488,271,91867,2,0,P|493:317|447:374,1,113.999996520996,10|0,0:0|0:0,0:0:0:0:
10,193,92183,5,14,0:0:0:0:
141,68,92341,1,8,0:1:0:0:
148,333,92499,1,8,0:1:0:0:
0,164,92656,5,14,0:0:0:0:
131,39,92814,1,8,0:1:0:0:
138,304,92972,1,8,0:1:0:0:
176,169,93130,6,0,P|222:163|279:122,1,113.999996520996,14|0,0:0|0:0,0:0:0:0:
407,0,93446,5,14,0:1:0:0:
490,183,93604,1,8,0:1:0:0:
510,70,93762,2,0,P|464:64|407:23,1,113.999996520996,10|0,0:0|0:0,0:0:0:0:
445,337,94077,5,6,0:3:0:0:
436,309,94155,1,4,0:3:0:0:
428,282,94234,1,4,0:3:0:0:
419,255,94313,1,4,0:3:0:0:
411,228,94392,1,8,0:0:0:0:
131,39,94551,5,10,0:0:0:0:
131,39,94630,1,8,0:0:0:0:
131,39,94709,2,0,L|32:327,1,265.999991882324,12|8,0:1|0:0,0:0:0:0:
45,290,95183,1,0,0:0:0:0:
215,297,95341,5,8,0:1:0:0:
108,360,95499,1,8,0:1:0:0:
243,288,95656,1,8,0:0:0:0:
136,351,95814,2,8,B|288:342|195:280|352:281,1,227.999993041992,8|8,0:1|0:1,0:1:0:0:
486,206,96288,5,10,0:0:0:0:
345,281,96446,1,2,0:0:0:0:
441,371,96604,1,10,0:1:0:0:
391,122,96762,2,0,B|397:68|397:68|385:5,1,113.999996520996,10|8,0:1|0:0,0:0:0:0:
54,37,97077,5,2,0:0:0:0:
54,37,97156,1,2,0:0:0:0:
54,37,97235,2,0,B|127:18|127:18|172:97|300:72,2,265.999991882324,14|8|8,0:1|0:0|0:1,0:0:0:0:
54,37,98025,1,8,0:1:0:0:
0,148,98183,5,10,0:0:0:0:
126,153,98341,1,10,0:1:0:0:
11,128,98499,2,0,L|30:249,1,113.999996520996,2|8,0:0|0:1,0:0:0:0:
260,177,98814,2,0,L|241:298,1,113.999996520996,14|0,0:0|0:0,0:0:0:0:
115,248,99130,2,8,L|134:369,1,113.999996520996,10|8,0:0|0:0,0:0:0:0:
162,373,99367,1,8,0:0:0:0:
162,373,99446,1,10,0:0:0:0:
393,175,99604,1,8,0:0:0:0:
428,265,99762,5,14,0:1:0:0:
428,265,99920,2,0,L|453:103,1,142.500005435944,8|8,0:1|0:1,0:0:0:0:
341,66,100393,2,0,B|426:60|379:26|483:16,1,142.500005435944,14|8,0:0|0:1,0:0:0:0:
253,91,100867,2,0,P|249:60|224:26,1,71.2500027179719,10|0,0:1|0:0,0:0:0:0:
226,27,101183,1,8,0:1:0:0:
91,131,101341,2,0,B|82:163|82:163|47:202|47:202|0:166,1,142.500005435944,14|8,0:0|0:1,0:0:0:0:
1,167,101814,1,8,0:1:0:0:
95,217,101972,2,8,P|138:214|132:297,1,142.500005435944,14|12,0:0|0:1,0:0:0:0:
283,238,102446,6,8,P|270:289|290:375,1,142.500005435944,10|8,0:1|0:1,0:0:0:0:
357,171,102920,2,8,P|370:222|350:308,1,142.500005435944,14|8,0:0|0:1,0:0:0:0:
415,222,103393,2,0,L|481:189,1,71.2500027179719,10|0,0:1|0:0,0:0:0:0:
478,190,103709,1,8,0:1:0:0:
309,0,103867,2,0,L|435:63,1,142.500005435944,14|8,0:0|0:1,0:0:0:0:
229,5,104341,1,8,0:1:0:0:
229,5,104420,1,8,0:1:0:0:
229,5,104499,2,0,L|355:68,1,142.500005435944,14|12,0:0|0:1,0:0:0:0:
191,153,104972,6,8,P|181:197|89:197,1,142.500005435944,10|8,0:1|0:1,0:0:0:0:
0,290,105446,2,0,P|10:334|102:334,1,142.500005435944,14|8,0:0|0:1,0:0:0:0:
243,375,105920,2,0,P|227:360|177:338,1,71.2500027179719,10|0,0:1|0:0,0:0:0:0:
182,339,106235,1,8,0:1:0:0:
309,261,106393,2,8,P|382:231|443:181,1,142.500005435944,14|8,0:0|0:1,0:0:0:0:
432,193,106867,1,8,0:1:0:0:
389,267,107025,2,8,P|462:296|523:346,1,142.500005435944,14|12,0:0|0:1,0:0:0:0:
214,214,107499,6,8,B|243:194|243:194|258:132|192:110,1,142.500005435944,10|8,0:1|0:1,0:0:0:0:
0,127,107972,2,0,B|41:116|41:116|61:169|126:164,1,142.500005435944,14|8,0:0|0:1,0:0:0:0:
101,34,108446,2,0,L|19:11,1,71.2500027179719,10|0,0:1|0:0,0:0:0:0:
32,14,108762,1,8,0:1:0:0:
259,54,108920,2,8,L|107:11,1,142.500005435944,14|8,0:0|0:1,0:0:0:0:
444,176,109393,1,8,0:1:0:0:
444,176,109472,1,8,0:1:0:0:
444,176,109551,2,0,L|526:153,1,71.2500027179719,14|0,0:0|0:0,0:0:0:0:
390,3,109867,5,14,0:1:0:0:
324,229,110025,1,14,0:1:0:0:
10,376,111130,5,10,0:0:0:0:
12,354,111208,1,8,0:0:0:0:
15,333,111287,1,8,0:1:0:0:
21,313,111366,1,8,0:1:0:0:
30,293,111445,1,8,0:3:0:0:
44,277,111524,1,8,0:3:0:0:
60,263,111603,1,8,0:1:0:0:
73,246,111682,1,8,0:1:0:0:
82,227,111761,1,4,0:3:0:0:
88,207,111840,1,4,0:3:0:0:
91,185,111919,1,8,0:1:0:0:
93,164,111998,1,8,0:1:0:0:
85,140,112077,2,0,B|78:105|78:105|86:64,1,71.2500027179719,14|0,0:0|0:0,0:0:0:0:
268,8,112393,6,0,L|299:185,1,170.999994781494,14|10,0:1|0:0,0:0:0:0:
369,113,112867,2,0,L|388:0,1,85.4999973907472,2|8,0:0|0:1,0:0:0:0:
499,111,113183,1,10,0:1:0:0:
499,111,113341,1,10,0:0:0:0:
388,153,113499,6,0,L|407:39,1,85.4999973907472,2|8,0:0|0:1,0:0:0:0:
402,68,113814,1,8,0:1:0:0:
460,255,113972,1,10,0:0:0:0:
460,255,114130,2,0,L|474:339,1,85.4999973907472,2|8,0:0|0:1,0:0:0:0:
383,286,114446,1,10,0:1:0:0:
272,358,114604,2,0,B|230:365|230:365|179:358,1,85.4999973907472,10|8,0:0|0:3,0:0:0:0:
172,326,114841,1,8,0:3:0:0:
158,296,114920,6,0,B|159:264|159:264|193:195|193:195|231:244,1,170.999994781494,14|10,0:1|0:0,0:0:0:0:
86,179,115393,1,2,0:0:0:0:
86,179,115551,2,8,P|46:175|-5:180,1,85.4999973907472,10|8,0:1|0:1,0:0:0:0:
125,91,115867,2,0,P|85:87|34:92,1,85.4999973907472,8|2,0:0|0:0,0:0:0:0:
250,8,116183,6,8,L|272:95,1,85.4999973907472,10|8,0:1|0:1,0:0:0:0:
348,146,116499,1,10,0:0:0:0:
348,146,116656,2,0,L|368:63,1,85.4999973907472,2|8,0:0|0:1,0:0:0:0:
368,63,116972,1,8,0:1:0:0:
455,27,117130,1,10,0:0:0:0:
455,27,117288,1,2,0:0:0:0:
417,178,117446,6,0,B|370:163|370:163|331:211|243:193,1,170.999994781494,14|10,0:1|0:0,0:0:0:0:
187,281,117920,2,0,P|181:245|145:195,1,85.4999973907472,2|8,0:0|0:1,0:0:0:0:
91,282,118235,1,10,0:1:0:0:
91,282,118393,1,10,0:0:0:0:
12,189,118551,2,0,P|18:153|54:103,1,85.4999973907472,2|8,0:0|0:1,0:0:0:0:
43,112,118867,1,8,0:1:0:0:
190,26,119025,5,10,0:0:0:0:
190,26,119183,2,0,B|149:35|149:35|100:24,1,85.4999973907472,2|8,0:0|0:1,0:0:0:0:
106,25,119499,1,8,0:1:0:0:
271,74,119656,2,0,B|313:83|313:83|354:74,1,85.4999973907472,10|8,0:0|0:3,0:0:0:0:
373,93,119893,1,8,0:3:0:0:
397,109,119972,6,0,P|383:153|480:167,1,170.999994781494,14|10,0:1|0:0,0:0:0:0:
312,220,120446,1,2,0:0:0:0:
312,220,120604,2,8,P|306:262|314:310,1,85.4999973907472,10|8,0:1|0:1,0:0:0:0:
234,142,120920,2,0,P|228:184|236:232,1,85.4999973907472,8|2,0:0|0:0,0:0:0:0:
93,121,121235,6,8,L|114:37,1,85.4999973907472,10|8,0:1|0:1,0:0:0:0:
0,146,121551,1,10,0:0:0:0:
0,146,121709,2,0,L|20:228,1,85.4999973907472,2|8,0:0|0:1,0:0:0:0:
20,228,122025,1,8,0:1:0:0:
79,377,122183,5,10,0:0:0:0:
79,377,122341,1,2,0:0:0:0:
166,292,122499,6,8,B|115:271|115:271|50:293|58:380,1,170.999994781494,14|10,0:1|0:0,0:0:0:0:
321,312,122972,2,0,P|352:299|419:286,1,85.4999973907472,2|8,0:0|0:1,0:0:0:0:
408,144,123288,1,10,0:1:0:0:
408,144,123446,1,10,0:0:0:0:
493,199,123604,2,0,P|462:186|395:173,1,85.4999973907472,2|8,0:0|0:1,0:0:0:0:
411,174,123920,1,8,0:1:0:0:
315,93,124077,5,10,0:0:0:0:
315,93,124235,2,0,B|319:49|319:49|311:5,1,85.4999973907472,2|8,0:0|0:1,0:0:0:0:
311,8,124551,1,10,0:1:0:0:
182,61,124709,2,0,B|174:101|174:101|178:145,1,85.4999973907472,10|8,0:0|0:3,0:0:0:0:
200,162,124946,1,8,0:3:0:0:
223,181,125025,6,8,B|226:223|226:223|205:279|205:279|134:243,1,170.999994781494,14|10,0:1|0:0,0:0:0:0:
325,367,125499,1,2,0:0:0:0:
325,367,125656,2,8,L|421:340,1,85.4999973907472,10|8,0:1|0:1,0:0:0:0:
416,249,125972,2,0,L|512:276,1,85.4999973907472,10|0,0:0|0:0,0:0:0:0:
413,120,126288,5,10,0:1:0:0:
413,120,126446,1,8,0:1:0:0:
506,148,126604,2,0,P|497:108|470:62,1,85.4999973907472,10|0,0:0|0:0,0:0:0:0:
336,83,126920,2,8,P|345:43|372:-3,1,85.4999973907472,10|8,0:1|0:1,0:0:0:0:
507,119,127235,2,0,P|498:79|471:33,1,85.4999973907472,10|0,0:0|0:0,0:0:0:0:
254,276,127551,6,0,B|205:255|205:255|145:289|178:375,1,170.999994781494,14|10,0:1|0:0,0:0:0:0:
172,357,128025,1,2,0:0:0:0:
81,339,128183,1,8,0:1:0:0:
81,339,128341,2,0,B|88:294|88:294|77:241,1,85.4999973907472,8|0,0:1|0:0,0:0:0:0:
18,93,128656,6,8,P|16:150|118:149,1,170.999994781494,8|8,0:0|0:1,0:0:0:0:
330,0,129130,2,0,P|324:34|353:78,1,85.4999973907472,12|0,0:0|0:0,0:0:0:0:
512,116,129446,5,8,0:0:0:0:
486,118,129524,1,8,0:0:0:0:
461,122,129603,1,8,0:0:0:0:
436,130,129682,1,8,0:0:0:0:
415,144,129761,1,8,0:3:0:0:
395,160,129840,1,8,0:3:0:0:
371,169,129919,1,8,0:3:0:0:
346,174,129998,1,8,0:3:0:0:
323,175,130077,6,0,B|316:225|316:225|324:281,1,95,12|8,0:0|0:1,0:0:0:0:
478,364,130393,2,0,B|484:319|484:319|477:269,1,95,10|8,0:0|0:1,0:0:0:0:
175,242,130709,5,8,0:0:0:0:
230,337,130867,1,8,0:1:0:0:
155,260,131025,2,0,P|127:241|51:224,1,95,10|8,0:0|0:1,0:0:0:0:
0,91,131341,2,0,P|45:80|86:56,1,95,10|8,0:0|0:1,0:0:0:0:
86,55,131656,1,8,0:0:0:0:
170,104,131814,6,0,L|192:9,1,95,10|8,0:1|0:0,0:0:0:0:
191,11,132130,1,8,0:1:0:0:
323,153,132288,2,0,L|301:58,1,95,10|8,0:0|0:1,0:0:0:0:
480,282,132604,5,14,0:0:0:0:
480,282,132762,1,8,0:1:0:0:
407,223,132920,1,8,0:0:0:0:
407,223,133077,1,8,0:1:0:0:
447,136,133235,1,8,0:0:0:0:
447,136,133393,1,8,0:1:0:0:
492,305,133551,6,0,B|450:311|450:311|391:304,1,95,10|8,0:0|0:1,0:0:0:0:
264,260,133867,2,0,B|222:266|222:266|163:259,1,95,10|8,0:0|0:1,0:0:0:0:
26,255,134183,5,8,0:0:0:0:
90,343,134341,1,8,0:1:0:0:
103,170,134499,6,0,P|100:135|73:69,1,95,10|8,0:0|0:1,0:0:0:0:
216,9,134814,2,0,P|198:52|192:99,1,95,8|8,0:0|0:1,0:0:0:0:
423,55,135130,6,0,L|332:11,1,95,14|8,0:0|0:1,0:0:0:0:
474,132,135446,1,10,0:0:0:0:
404,190,135604,2,0,L|495:146,1,95,10|8,0:1|0:0,0:0:0:0:
352,296,135920,5,10,0:1:0:0:
352,296,136077,1,10,0:0:0:0:
426,339,136235,2,0,L|517:295,1,95,10|8,0:1|0:0,0:0:0:0:
262,256,136551,5,10,0:1:0:0:
262,256,136708,1,10,0:0:0:0:
188,299,136867,2,0,L|97:255,1,95,10|8,0:1|0:0,0:0:0:0:
102,257,137183,5,8,0:1:0:0:
5,222,137341,1,10,0:0:0:0:
47,340,137499,1,8,0:1:0:0:
72,144,137656,6,0,B|63:96|63:96|74:49,1,95,14|8,0:0|0:1,0:0:0:0:
185,104,137972,2,0,B|176:56|176:56|187:9,1,95,8|8,0:0|0:1,0:0:0:0:
94,167,138288,2,0,B|85:119|85:119|96:72,1,95,8|8,0:0|0:1,0:0:0:0:
384,230,138604,5,10,0:0:0:0:
479,145,138762,1,10,0:1:0:0:
386,119,138920,2,0,P|422:108|489:122,1,95,10|8,0:0|0:1,0:0:0:0:
351,21,139235,2,0,P|387:10|454:24,1,95,8|8,0:0|0:1,0:0:0:0:
230,337,139551,5,8,0:0:0:0:
251,171,139709,1,8,0:1:0:0:
297,274,139867,1,8,0:0:0:0:
191,243,140025,1,8,0:0:0:0:
191,243,140104,1,8,0:0:0:0:
191,243,140183,2,0,B|72:219|146:186|23:169,1,180.49999518013,12|10,0:1|0:0,0:0:0:0:
146,108,140656,5,2,0:0:0:0:
20,22,140814,1,10,0:1:0:0:
112,20,140972,2,0,L|130:115,1,90.2499975900651,10|8,0:1|0:0,0:0:0:0:
459,61,141288,6,8,L|422:252,1,180.49999518013,14|8,0:1|0:1,0:0:0:0:
351,360,141762,1,10,0:0:0:0:
425,238,141920,1,2,0:0:0:0:
480,323,142077,1,10,0:1:0:0:
330,376,142235,2,0,P|282:362|229:355,1,90.2499975900651,10|8,0:1|0:0,0:0:0:0:
22,273,142551,5,10,0:1:0:0:
22,273,142630,1,8,0:1:0:0:
22,273,142709,2,0,P|129:255|233:224,1,180.49999518013,14|10,0:1|0:0,0:0:0:0:
101,64,143183,2,0,B|91:106|91:106|103:160,1,90.2499975900651,2|8,0:0|0:1,0:0:0:0:
138,9,143499,2,0,B|128:51|128:51|140:105,1,90.2499975900651,10|8,0:1|0:0,0:0:0:0:
325,34,143814,6,8,P|266:19|255:117,1,180.49999518013,14|10,0:1|0:1,0:0:0:0:
448,138,144288,1,10,0:0:0:0:
448,138,144446,2,0,P|429:110|411:51,1,90.2499975900651,2|8,0:0|0:1,0:0:0:0:
505,254,144762,1,8,0:1:0:0:
502,225,144841,1,8,0:1:0:0:
500,201,144920,2,0,P|481:229|463:288,1,90.2499975900651,12|0,0:0|0:0,0:0:0:0:
308,286,145235,6,0,P|332:325|346:371,1,95,12|0,0:1|0:0,0:0:0:0:
185,238,145551,1,10,0:0:0:0:
276,163,145709,1,10,0:1:0:0:
222,344,145867,1,10,0:0:0:0:
205,246,146025,6,0,B|160:255|160:255|103:245,1,95,10|8,0:1|0:0,0:0:0:0:
102,133,146341,2,0,B|57:142|57:142|8:133,1,95,10|8,0:1|0:0,0:0:0:0:
8,133,146656,1,8,0:1:0:0:
66,37,146814,5,10,0:0:0:0:
0,112,146972,1,10,0:1:0:0:
58,16,147130,5,10,0:0:0:0:
58,16,147209,1,2,0:0:0:0:
199,76,147367,1,2,0:0:0:0:
199,76,147446,1,10,0:0:0:0:
276,160,147604,1,10,0:1:0:0:
417,100,147762,6,0,P|408:74|417:4,1,95,14|8,0:0|0:1,0:0:0:0:
463,171,148077,2,0,P|454:145|463:75,1,95,8|8,0:0|0:1,0:0:0:0:
401,240,148393,1,8,0:0:0:0:
476,302,148551,1,8,0:1:0:0:
412,361,148709,2,0,L|314:326,1,95,10|8,0:0|0:1,0:0:0:0:
189,128,149025,6,0,L|91:163,1,95,10|8,0:0|0:1,0:0:0:0:
99,159,149341,1,8,0:0:0:0:
262,71,149499,2,0,L|164:106,1,95,10|8,0:1|0:0,0:0:0:0:
37,222,149814,5,8,0:1:0:0:
172,102,149972,1,8,0:0:0:0:
68,36,150130,1,8,0:0:0:0:
143,292,150288,6,0,B|241:286|283:356|283:356|411:359|416:225,1,370.499983039857,14|2,0:1|0:0,0:0:0:0:
462,0,151551,6,0,L|510:136,1,123.499994346619,10|0,0:3|0:0,0:0:0:0:
341,160,152025,2,0,L|382:43,1,123.499994346619,8|0,0:3|0:0,0:0:0:0:
281,58,152499,2,0,L|301:0,1,61.7499971733095,4|0,0:3|0:0,0:0:0:0:
10,152,152814,6,0,B|-2:226|-2:226|64:372|64:372|201:305,1,370.499983039857,14|0,0:1|0:0,0:0:0:0:
77,0,154077,5,14,0:1:0:0:
57,35,154182,1,8,0:0:0:0:
59,76,154287,1,8,0:0:0:0:
83,108,154392,1,8,0:0:0:0:
121,124,154498,1,8,0:0:0:0:
160,116,154603,1,8,0:0:0:0:
194,86,154709,5,14,0:1:0:0:
192,110,154814,1,8,0:3:0:0:
192,135,154919,1,8,0:3:0:0:
197,159,155024,1,8,0:3:0:0:
204,183,155130,1,8,0:3:0:0:
207,207,155235,1,8,0:3:0:0:
206,233,155341,6,0,B|173:84|314:10|314:10|392:98,1,370.499983039857,14|0,0:1|0:0,0:0:0:0:
481,272,156604,6,0,P|444:251|361:235,1,123.499994346619,10|0,0:3|0:0,0:0:0:0:
422,374,157077,2,0,P|385:353|302:337,1,123.499994346619,8|0,0:3|0:0,0:0:0:0:
504,303,157551,2,0,P|482:290|434:281,1,61.7499971733095,4|0,0:3|0:0,0:0:0:0:
0,331,157867,6,0,B|89:371|89:371|213:306|158:133,1,370.499983039857,14|0,0:1|0:0,0:0:0:0:
0,16,159130,5,14,0:1:0:0:
53,209,159341,1,8,0:3:0:0:
158,133,159551,1,8,0:3:0:0:
201,37,159762,5,6,0:3:0:0:
354,164,159972,1,4,0:3:0:0:
203,0,160183,1,4,0:3:0:0:
356,128,160393,2,0,B|414:106|414:106|483:138|483:138|531:269|433:349,1,370.499983039857,14|0,0:1|0:0,0:0:0:0:
113,189,161656,6,0,P|102:237|117:319,1,123.499994346619,8|0,0:3|0:0,0:0:0:0:
200,368,162130,2,0,P|211:307|199:247,1,123.499994346619,8|0,0:3|0:0,0:0:0:0:
228,147,162604,2,0,B|223:117|223:117|225:80,1,61.7499971733095,4|0,0:3|0:0,0:0:0:0:
512,162,162920,6,0,P|526:259|310:261,1,370.499983039857,14|0,0:1|0:0,0:0:0:0:
83,343,164183,5,14,0:1:0:0:
119,361,164288,1,8,0:0:0:0:
159,358,164393,1,8,0:0:0:0:
191,333,164498,1,8,0:0:0:0:
206,295,164604,1,8,0:0:0:0:
197,255,164709,1,8,0:0:0:0:
169,226,164814,5,14,0:1:0:0:
146,248,164920,1,8,0:3:0:0:
121,257,165025,1,8,0:3:0:0:
97,249,165130,1,8,0:3:0:0:
84,226,165235,1,8,0:3:0:0:
89,201,165341,1,8,0:3:0:0:
101,181,165446,6,0,L|51:30,1,142.500005435944,14|0,0:1|0:0,0:0:0:0:
56,45,165920,1,8,0:1:0:0:
179,137,166077,2,8,L|223:2,2,142.500005435944,10|0|8,0:0|0:0|0:1,0:0:0:0:
333,6,166867,6,0,B|371:10|371:10|413:3,1,71.2500027179719,10|0,0:1|0:0,0:0:0:0:
509,64,167183,1,10,0:1:0:0:
310,28,167341,2,0,B|348:32|348:32|390:25,1,71.2500027179719,8|0,0:0|0:0,0:0:0:0:
488,243,167656,5,8,0:0:0:0:
454,233,167734,1,8,0:0:0:0:
426,201,167813,1,8,0:0:0:0:
395,177,167892,1,8,0:0:0:0:
361,175,167971,1,14,0:1:0:0:
362,176,169235,6,0,B|356:225|356:225|366:285,1,95,12|8,0:1|0:0,0:0:0:0:
357,298,169472,1,8,0:0:0:0:
357,298,169551,1,10,0:0:0:0:
166,163,169709,1,8,0:0:0:0:
114,292,169867,5,10,0:0:0:0:
209,25,170025,1,8,0:0:0:0:
218,337,170183,1,10,0:0:0:0:
123,70,170341,2,0,P|32:52|30:198,1,265.999991882324,14|8,0:1|0:1,0:0:0:0:
301,66,170814,6,0,P|350:57|405:10,1,113.999996520996,8|0,0:0|0:0,0:0:0:0:
362,176,171130,2,0,P|313:185|258:232,1,113.999996520996,8|0,0:1|0:0,0:0:0:0:
368,61,171446,2,0,P|417:52|472:5,1,113.999996520996,8|0,0:0|0:0,0:0:0:0:
429,171,171762,2,0,P|380:180|325:227,1,113.999996520996,8|0,0:1|0:0,0:0:0:0:
485,372,172077,6,0,B|490:312|490:312|476:254,1,113.999996520996,10|0,0:0|0:0,0:0:0:0:
215,371,172393,2,0,B|220:311|220:311|207:258,1,113.999996520996,10|0,0:1|0:0,0:0:0:0:
83,76,172709,5,10,0:0:0:0:
0,126,172867,2,8,B|52:136|52:136|125:97|125:97|133:21|200:1,1,265.999991882324,14|8,0:1|0:1,0:0:0:0:
494,71,173341,2,0,P|451:48|386:28,1,113.999996520996,8|0,0:0|0:0,0:0:0:0:
480,176,173656,5,8,0:1:0:0:
322,112,173814,1,8,0:1:0:0:
358,204,173972,2,0,P|412:187|463:161,1,113.999996520996,10|0,0:0|0:0,0:0:0:0:
383,381,174288,5,8,0:1:0:0:
500,336,174446,1,8,0:1:0:0:
241,249,174604,6,0,L|264:367,1,113.999996520996,10|0,0:0|0:0,0:0:0:0:
46,173,174920,2,8,L|23:291,1,113.999996520996,10|8,0:1|0:1,0:0:0:0:
0,71,175235,5,10,0:0:0:0:
91,57,175393,2,8,L|38:328,1,265.999991882324,14|10,0:1|0:1,0:0:0:0:
207,80,175867,2,0,B|260:72|260:72|327:40,1,113.999996520996,10|0,0:0|0:0,0:0:0:0:
494,0,176183,5,8,0:1:0:0:
314,45,176341,1,8,0:1:0:0:
404,109,176499,2,0,B|457:117|457:117|524:149,1,113.999996520996,8|0,0:0|0:0,0:0:0:0:
327,174,176814,2,8,B|380:182|380:182|447:214,1,113.999996520996,8|8,0:1|0:1,0:0:0:0:
311,366,177130,2,0,P|312:331|268:253,1,113.999996520996,10|0,0:0|0:0,0:0:0:0:
50,227,177446,5,10,0:1:0:0:
50,227,177525,1,2,0:0:0:0:
277,261,177683,1,2,0:0:0:0:
277,261,177762,1,10,0:0:0:0:
154,371,177920,5,14,0:1:0:0:
169,119,178077,2,0,B|167:25|66:12|66:12|18:65,1,227.999993041992,2|8,0:0|0:0,0:0:0:0:
23,58,178551,1,0,0:0:0:0:
266,40,178709,2,8,P|317:16|386:-2,1,113.999996520996,10|8,0:1|0:1,0:0:0:0:
417,244,179025,5,10,0:0:0:0:
512,254,179183,2,0,P|417:209|289:176,1,227.999993041992,2|8,0:0|0:1,0:0:0:0:
406,100,179656,2,0,P|457:76|526:58,1,113.999996520996,8|0,0:0|0:0,0:0:0:0:
67,241,179972,5,8,0:1:0:0:
182,283,180130,1,8,0:1:0:0:
44,219,180288,5,10,0:0:0:0:
262,198,180446,2,8,B|216:230|173:222|173:222|101:310|183:375,1,265.999991882324,14|8,0:1|0:1,0:0:0:0:
350,272,180920,2,0,P|350:317|405:367,1,113.999996520996,8|0,0:0|0:0,0:0:0:0:
505,228,181235,5,10,0:1:0:0:
329,80,181393,1,10,0:1:0:0:
489,31,181551,1,10,0:0:0:0:
420,94,181709,6,0,B|265:54|383:28|205:-2,1,227.999993041992,2|8,0:0|0:1,0:0:0:0:
0,186,182183,2,0,L|104:112,1,113.999996520996,10|0,0:0|0:0,0:0:0:0:
106,382,182499,2,8,L|127:256,1,113.999996520996,10|8,0:1|0:1,0:0:0:0:
98,20,182814,5,10,0:0:0:0:
142,361,182972,2,8,L|189:80,1,265.999991882324,14|8,0:1|0:1,0:0:0:0:
261,173,183446,2,0,L|282:47,1,113.999996520996,8|0,0:0|0:0,0:0:0:0:
386,235,183762,6,8,P|356:244|310:321,1,113.999996520996,10|8,0:1|0:1,0:0:0:0:
406,117,184077,5,10,0:0:0:0:
512,276,184235,2,0,P|456:259|372:117,1,227.999993041992,2|8,0:0|0:1,0:0:0:0:
511,24,184709,2,0,B|498:78|498:78|515:145,1,113.999996520996,8|0,0:0|0:0,0:0:0:0:
84,301,185025,5,10,0:1:0:0:
161,0,185183,1,10,0:1:0:0:
170,369,185341,1,10,0:0:0:0:
0,248,185499,6,8,B|74:223|125:263|125:263|212:241|202:156,1,265.999991882324,12|8,0:1|0:1,0:0:0:0:
41,44,185972,2,0,P|58:96|76:177,1,113.999996520996,10|0,0:0|0:0,0:0:0:0:
172,278,186288,2,8,P|185:222|202:168,1,113.999996520996,10|8,0:1|0:1,0:0:0:0:
474,69,186604,5,10,0:0:0:0:
406,9,186762,2,0,P|444:127|473:248,1,227.999993041992,2|8,0:0|0:1,0:0:0:0:
332,60,187235,2,0,B|275:72|275:72|214:59,1,113.999996520996,10|0,0:0|0:0,0:0:0:0:
0,123,187551,2,8,B|54:134|54:134|111:122,1,113.999996520996,10|8,0:1|0:1,0:0:0:0:
194,295,187867,5,10,0:0:0:0:
237,233,188025,2,0,P|153:231|180:368,1,265.999991882324,14|8,0:1|0:1,0:0:0:0:
363,273,188499,2,0,P|349:322|383:393,1,113.999996520996,8|0,0:0|0:0,0:0:0:0:
507,252,188814,5,10,0:1:0:0:
428,170,188972,1,8,0:1:0:0:
446,351,189130,1,8,0:0:0:0:
449,141,189288,2,0,P|428:88|442:34,1,113.999996520996,2|8,0:0|0:1,0:0:0:0:
442,34,189604,1,8,0:1:0:0:
230,97,189762,6,0,B|154:76|154:76|116:100|116:100|39:76,1,199.499993911743,12|0,0:0|0:0,0:0:0:0:
44,49,190077,5,10,0:0:0:0:
254,300,190235,1,8,0:0:0:0:
231,6,190393,1,10,0:0:0:0:
21,257,190551,1,8,0:0:0:0:
89,195,190709,6,0,B|95:240|95:240|139:300|139:300|201:252,1,190,12|10,0:1|0:0,0:0:0:0:
194,257,191183,1,0,0:0:0:0:
374,143,191341,2,8,P|373:179|412:234,1,95,10|8,0:1|0:1,0:0:0:0:
482,316,191656,2,0,P|509:277|511:231,1,95,10|0,0:0|0:0,0:0:0:0:
390,118,191972,2,0,P|389:154|428:209,1,95,10|0,0:1|0:0,0:0:0:0:
473,42,192288,6,0,L|266:-6,1,190,10|8,0:0|0:1,0:0:0:0:
287,0,192762,1,8,0:1:0:0:
259,81,192920,2,0,L|155:104,1,95,10|0,0:0|0:0,0:0:0:0:
170,259,193235,6,0,B|118:247|118:247|75:308|-5:284,1,190,14|8,0:1|0:0,0:0:0:0:
85,308,193709,2,0,B|137:296|137:296|180:357|260:333,1,190,2|8,0:0|0:1,0:0:0:0:
478,249,194183,2,0,P|494:286|499:342,1,95,10|0,0:0|0:0,0:0:0:0:
373,242,194499,6,0,P|383:147|419:60,2,190,10|8|8,0:1|0:0|0:1,0:0:0:0:
373,242,195288,1,8,0:1:0:0:
128,101,195446,6,0,B|81:107|81:107|23:101,1,95,8|0,0:0|0:0,0:0:0:0:
200,9,195762,2,0,B|153:15|153:15|95:9,1,95,12|0,0:1|0:0,0:0:0:0:
277,186,196077,5,10,0:0:0:0:
277,186,196235,1,2,0:0:0:0:
211,129,196393,2,8,P|215:174|262:199,1,95,10|8,0:1|0:1,0:0:0:0:
350,229,196709,1,10,0:0:0:0:
350,229,196867,1,2,0:0:0:0:
416,172,197025,2,0,P|412:217|365:242,1,95,10|0,0:1|0:0,0:0:0:0:
163,303,197341,5,10,0:0:0:0:
94,247,197499,2,0,B|218:256|134:318|267:325,1,190,2|8,0:0|0:1,0:0:0:0:
96,340,197972,2,0,P|61:341|7:371,1,95,10|0,0:0|0:0,0:0:0:0:
70,122,198288,6,0,L|35:20,1,95,14|0,0:1|0:0,0:0:0:0:
150,158,198604,2,0,L|185:56,1,95,8|0,0:0|0:0,0:0:0:0:
359,99,198920,6,0,L|324:-3,1,95,10|0,0:1|0:0,0:0:0:0:
439,135,199236,2,0,L|474:33,1,95,8|0,0:0|0:0,0:0:0:0:
368,261,199551,6,0,B|417:253|417:253|464:262,1,95,10|0,0:1|0:0,0:0:0:0:
417,364,199867,2,0,B|466:372|466:372|510:363,1,95,8|0,0:0|0:0,0:0:0:0:
283,234,200183,5,10,0:1:0:0:
205,330,200341,1,8,0:1:0:0:
263,213,200499,2,0,P|252:150|265:65,1,142.5,12|0,0:0|0:0,0:0:0:0:
343,98,200814,6,0,B|382:112|382:112|441:94|441:94|453:45|500:26,1,190,14|10,0:1|0:0,0:0:0:0:
493,28,201288,1,0,0:0:0:0:
157,25,201446,2,8,B|112:30|112:30|55:10,1,95,10|8,0:1|0:1,0:0:0:0:
29,133,201762,2,0,B|74:138|74:138|131:118,1,95,10|0,0:0|0:0,0:0:0:0:
121,300,202077,6,0,B|74:277|74:277|-3:296|9:390,1,190,10|10,0:1|0:0,0:0:0:0:
239,332,202551,2,0,B|309:313|309:313|322:276|322:276|399:258,1,190,2|8,0:0|0:1,0:0:0:0:
510,268,203025,2,0,P|497:326|495:378,1,95,10|0,0:0|0:0,0:0:0:0:
491,103,203341,6,0,B|497:25|415:-1|415:-1|371:39,1,190,14|8,0:1|0:0,0:0:0:0:
197,186,203814,2,0,B|191:108|273:82|273:82|317:122,1,190,2|8,0:0|0:1,0:0:0:0:
185,111,204288,2,0,B|186:66|186:66|154:13,1,95,10|0,0:0|0:0,0:0:0:0:
0,88,204604,6,0,P|71:84|72:185,2,190,10|8|8,0:1|0:0|0:1,0:0:0:0:
0,88,205393,1,8,0:1:0:0:
76,181,205551,5,10,0:0:0:0:
2,239,205709,1,2,0:0:0:0:
78,334,205867,6,0,L|267:300,2,190,14|8|8,0:1|0:0|0:1,0:0:0:0:
78,334,206656,1,8,0:1:0:0:
223,193,206814,2,0,P|217:153|248:96,1,95,10|0,0:0|0:0,0:0:0:0:
325,0,207130,6,0,P|332:73|436:77,1,190,10|8,0:1|0:0,0:0:0:0:
512,198,207604,2,0,P|424:193|405:279,1,190,2|8,0:0|0:1,0:0:0:0:
506,384,208077,2,0,P|491:343|509:283,1,95,10|0,0:0|0:0,0:0:0:0:
259,375,208393,6,0,B|187:358|187:358|173:312|173:312|86:288,1,190,14|8,0:1|0:0,0:0:0:0:
100,135,208867,2,0,P|135:129|187:87,1,95,2|8,0:0|0:1,0:0:0:0:
0,0,209183,2,0,P|35:6|87:48,1,95,10|8,0:1|0:0,0:0:0:0:
31,182,209499,6,8,P|102:169|207:84,1,190,10|8,0:1|0:1,0:0:0:0:
346,138,209972,2,0,L|374:37,1,95,14|0,0:0|0:0,0:0:0:0:
508,282,210288,5,8,0:0:0:0:
501,259,210366,1,8,0:0:0:0:
495,236,210445,1,8,0:0:0:0:
488,213,210524,1,8,0:0:0:0:
482,190,210603,1,8,0:3:0:0:
476,167,210682,1,8,0:3:0:0:
469,144,210761,1,4,0:3:0:0:
463,121,210840,1,4,0:3:0:0:
457,98,210919,1,14,0:1:0:0:
301,360,211235,6,0,B|246:370|246:370|185:362,1,113.999996520996,10|8,0:0|0:1,0:0:0:0:
125,262,211551,2,0,B|70:272|70:272|9:264,1,113.999996520996,10|8,0:0|0:1,0:0:0:0:
343,368,211867,2,0,B|288:378|288:378|227:370,1,113.999996520996,10|8,0:0|0:1,0:0:0:0:
304,13,212183,6,0,P|297:59|339:113,1,113.999996520996,10|8,0:0|0:1,0:0:0:0:
335,110,212499,1,8,0:0:0:0:
426,196,212656,2,0,P|461:153|456:97,1,113.999996520996,10|8,0:1|0:0,0:0:0:0:
456,97,212972,1,8,0:1:0:0:
433,242,213130,6,0,P|468:199|463:143,1,113.999996520996,10|8,0:0|0:1,0:0:0:0:
6,106,213446,5,14,0:0:0:0:
170,32,213604,1,8,0:1:0:0:
296,245,213762,1,8,0:0:0:0:
132,171,213920,1,8,0:1:0:0:
14,75,214077,5,8,0:0:0:0:
178,1,214235,1,8,0:1:0:0:
304,214,214393,1,8,0:0:0:0:
140,140,214551,1,8,0:1:0:0:
70,295,214709,5,10,0:0:0:0:
229,133,214867,1,8,0:1:0:0:
190,353,215025,1,8,0:0:0:0:
21,191,215183,1,8,0:1:0:0:
86,277,215340,5,8,0:0:0:0:
245,115,215498,1,8,0:1:0:0:
206,335,215656,1,8,0:0:0:0:
37,173,215814,1,8,0:1:0:0:
465,68,215972,5,14,0:0:0:0:
345,368,216130,1,8,0:1:0:0:
376,46,216288,1,8,0:0:0:0:
470,346,216446,1,8,0:1:0:0:
445,84,216604,5,8,0:0:0:0:
325,384,216762,1,8,0:1:0:0:
356,62,216920,1,8,0:0:0:0:
450,362,217078,1,8,0:1:0:0:
400,212,217235,6,0,B|457:218|457:218|514:207,1,113.999996520996,10|8,0:0|0:1,0:0:0:0:
243,48,217551,2,0,B|185:54|185:54|128:43,1,113.999996520996,10|8,0:0|0:1,0:0:0:0:
49,4,217867,5,10,0:0:0:0:
296,149,218025,1,10,0:0:0:0:
0,384,218183,1,10,0:0:0:0:
247,239,218341,1,10,0:0:0:0:
247,239,218499,1,2,0:0:0:0:
468,333,237446,6,0,B|415:367|415:367|323:333|329:228,1,237.5,2|2,0:0|0:0,0:0:0:0:
424,96,238393,2,0,B|428:47|428:47|416:-3,1,95,10|0,0:0|0:0,0:0:0:0:
93,128,238709,6,0,B|68:50|157:16|157:16|198:70,1,199.499993911743,14|0,0:1|0:0,0:0:0:0:
217,84,239025,2,0,P|211:126|262:184,1,113.999996520996,8|0,0:0|0:0,0:0:0:0:
358,141,239341,1,10,0:1:0:0:
479,164,239499,2,0,B|425:174|425:174|352:162,1,113.999996520996,10|8,0:1|0:0,0:0:0:0:
241,288,239814,6,0,B|138:306|138:306|111:358|111:358|1:376,1,265.999991882324,14|8,0:1|0:1,0:0:0:0:
354,381,240288,2,0,B|345:326|345:326|355:266,1,113.999996520996,10|0,0:0|0:0,0:0:0:0:
478,163,240604,1,10,0:1:0:0:
478,163,240762,1,8,0:1:0:0:
477,275,240920,2,0,B|468:220|468:220|478:160,1,113.999996520996,10|0,0:0|0:0,0:0:0:0:
212,6,241235,6,0,P|200:87|32:55,1,265.999991882324,12|8,0:1|0:0,0:0:0:0:
45,86,241709,1,0,0:0:0:0:
127,44,241867,5,10,0:1:0:0:
121,224,242025,1,8,0:1:0:0:
108,23,242183,1,8,0:0:0:0:
45,275,242341,6,0,B|101:234|101:234|210:264|199:384,1,265.999991882324,12|8,0:1|0:1,0:0:0:0:
280,124,242814,2,0,P|277:80|313:15,1,113.999996520996,8|0,0:0|0:0,0:0:0:0:
452,225,243130,2,0,P|455:181|419:116,1,113.999996520996,8|8,0:1|0:1,0:0:0:0:
301,325,243446,5,10,0:0:0:0:
506,374,243604,1,2,0:0:0:0:
373,283,243762,6,0,B|299:258|248:298|248:298|161:276|171:191,2,265.999991882324,12|8|8,0:1|0:0|0:1,0:0:0:0:
354,74,244551,2,0,L|471:51,1,113.999996520996,10|8,0:1|0:0,0:0:0:0:
240,74,244867,6,0,B|344:96|344:96|374:143|374:143|480:162,1,265.999991882324,12|8,0:1|0:1,0:0:0:0:
24,194,245341,5,10,0:0:0:0:
84,95,245499,1,2,0:0:0:0:
117,290,245656,5,10,0:1:0:0:
65,72,245814,1,10,0:1:0:0:
22,339,245972,5,10,0:0:0:0:
47,46,246130,1,2,0:0:0:0:
144,203,246288,6,0,B|151:255|151:255|214:346|214:346|305:274,2,265.999991882324,12|8|8,0:1|0:0|0:1,0:0:0:0:
320,53,247077,5,8,0:1:0:0:
252,97,247235,1,8,0:0:0:0:
247,8,247393,1,8,0:1:0:0:
333,138,247551,6,0,P|374:137|446:106,1,113.999996520996,2|8,0:0|0:1,0:0:0:0:
512,371,247867,2,0,P|460:347|404:342,1,113.999996520996,12|0,0:0|0:0,0:0:0:0:
6,384,248183,2,0,B|-7:331|-7:331|7:256,1,113.999996520996,8|8,0:0|0:0,0:0:0:0:
32,268,248420,1,8,0:0:0:0:
32,268,248499,1,8,0:0:0:0:
87,0,248656,6,0,B|54:24|1:23|1:23|-37:124|61:164,1,265.999991882324,14|8,0:1|0:1,0:0:0:0:
328,60,249130,2,0,B|271:55|271:55|209:34,1,113.999996520996,10|0,0:0|0:0,0:0:0:0:
448,9,249446,1,10,0:1:0:0:
424,160,249604,2,0,B|367:165|367:165|305:186,1,113.999996520996,10|8,0:1|0:0,0:0:0:0:
123,361,249920,6,0,B|113:277|193:256|193:256|249:307,1,199.499993911743,12|0,0:1|0:0,0:0:0:0:
241,328,250235,1,10,0:1:0:0:
7,154,250393,2,0,P|22:208|31:283,1,113.999996520996,8|0,0:0|0:0,0:0:0:0:
104,0,250709,1,10,0:1:0:0:
187,75,250867,1,8,0:1:0:0:
187,75,250946,1,8,0:1:0:0:
187,75,251025,2,0,P|172:129|163:204,1,113.999996520996,10|0,0:0|0:0,0:0:0:0:
483,178,251341,5,14,0:0:0:0:
370,39,251499,1,8,0:1:0:0:
415,380,251656,1,8,0:1:0:0:
502,156,251814,5,14,0:0:0:0:
389,17,251972,1,8,0:1:0:0:
434,358,252129,1,8,0:1:0:0:
378,233,252288,6,0,L|331:120,1,113.999996520996,14|0,0:0|0:0,0:0:0:0:
38,18,252604,5,14,0:1:0:0:
138,172,252762,1,8,0:1:0:0:
8,241,252920,2,0,L|55:128,1,113.999996520996,10|0,0:0|0:0,0:0:0:0:
124,278,253235,5,6,0:3:0:0:
135,305,253313,1,4,0:3:0:0:
146,331,253392,1,4,0:3:0:0:
157,357,253471,1,4,0:3:0:0:
168,384,253550,1,8,0:0:0:0:
512,145,253709,5,10,0:0:0:0:
512,145,253788,1,8,0:0:0:0:
512,145,253867,2,0,B|460:155|460:155|387:116|387:116|379:40|312:20,1,265.999991882324,12|8,0:1|0:0,0:0:0:0:
312,20,254341,1,0,0:0:0:0:
203,119,254499,5,8,0:1:0:0:
307,211,254656,1,8,0:1:0:0:
312,20,254814,1,8,0:0:0:0:
295,235,254972,6,0,P|380:221|381:350,1,227.999993041992,8|8,0:1|0:1,0:0:0:0:
0,311,255446,1,10,0:0:0:0:
165,235,255604,1,2,0:0:0:0:
135,383,255762,1,10,0:1:0:0:
26,162,255920,2,0,B|16:110|16:110|30:33,1,113.999996520996,10|8,0:1|0:0,0:0:0:0:
228,58,256235,5,2,0:0:0:0:
228,58,256314,1,2,0:0:0:0:
228,58,256393,2,0,B|287:117|395:72|395:72|409:27|457:-5,2,265.999991882324,14|8|8,0:1|0:0|0:1,0:0:0:0:
228,58,257183,1,8,0:1:0:0:
366,108,257341,5,10,0:0:0:0:
207,179,257499,1,10,0:1:0:0:
342,229,257656,6,0,P|389:211|460:194,1,113.999996520996,2|8,0:0|0:1,0:0:0:0:
120,314,257972,2,0,P|73:296|2:279,1,113.999996520996,14|0,0:0|0:0,0:0:0:0:
382,371,258288,2,0,P|429:353|500:336,1,113.999996520996,10|8,0:0|0:0,0:0:0:0:
495,309,258525,1,8,0:0:0:0:
495,309,258604,5,10,0:0:0:0:
342,230,258762,1,8,0:0:0:0:
512,0,258920,2,0,B|517:116|398:120|398:120|375:86|342:71,1,265.999991882324,14|10,0:1|0:0,0:0:0:0:
58,0,259393,2,8,B|53:116|171:120|171:120|194:86|227:71,1,265.999991882324,14|8,0:1|0:1,0:0:0:0:
8,143,259867,2,0,B|1:198|1:198|7:260,1,113.999996520996,12|0,0:0|0:0,0:0:0:0:
223,252,260183,6,0,P|133:238|143:381,1,265.999991882324,14|8,0:1|0:0,0:0:0:0:
403,217,260656,2,8,P|493:203|483:346,1,265.999991882324,14|8,0:1|0:1,0:0:0:0:
352,86,261130,6,0,L|477:33,1,132.999995941162,14|0,0:0|0:0,0:0:0:0:
265,331,261446,2,0,L|390:384,1,132.999995941162,14|0,0:1|0:0,0:0:0:0:
1,70,261762,5,10,0:0:0:0:
40,211,261920,1,8,0:1:0:0:
106,14,262077,1,8,0:0:0:0:
37,248,262235,1,8,0:1:0:0:
109,130,262393,5,8,0:0:0:0:
148,271,262551,1,8,0:1:0:0:
214,74,262708,1,8,0:0:0:0:
145,308,262866,1,8,0:1:0:0:
501,295,263025,5,10,0:0:0:0:
295,198,263183,1,8,0:1:0:0:
464,112,263341,1,8,0:0:0:0:
350,384,263499,1,8,0:1:0:0:
503,265,263656,5,8,0:0:0:0:
297,168,263814,1,8,0:1:0:0:
357,38,263972,5,14,0:0:0:0:
415,294,264130,1,8,0:1:0:0:
346,67,264288,1,8,0:0:0:0:
288,323,264446,1,8,0:1:0:0:
80,66,264604,5,8,0:0:0:0:
22,322,264762,1,8,0:1:0:0:
91,95,264920,5,10,0:0:0:0:
149,351,265078,1,10,0:1:0:0:
106,124,265235,2,0,P|106:82|156:-3,1,132.999995941162,10|8,0:0|0:1,0:0:0:0:
486,139,265551,6,0,P|480:73|443:18,1,132.999995941162,14|0,0:0|0:0,0:0:0:0:
285,299,265867,5,10,0:0:0:0:
348,79,266025,1,8,0:0:0:0:
348,79,266104,1,8,0:0:0:0:
348,79,266183,1,10,0:0:0:0:
424,358,266341,1,8,0:0:0:0:
14,57,267762,5,2,0:0:0:0:
32,40,268077,5,2,0:0:0:0:
51,25,268393,5,2,0:0:0:0:
121,132,268551,2,0,P|119:162|147:206,1,71.2500027179719,2|0,0:0|0:0,0:0:0:0:
286,193,268867,6,0,L|311:24,1,156.750004783631,14|0,0:1|0:0,0:0:0:0:
333,17,269183,1,10,0:1:0:0:
467,152,269341,2,0,L|448:27,1,104.500003189087,10|0,0:0|0:0,0:0:0:0:
423,368,269656,5,10,0:1:0:0:
430,259,269814,2,0,P|432:302|391:365,1,104.500003189087,10|8,0:1|0:0,0:0:0:0:
288,384,270130,2,0,P|290:340|249:277,1,104.500003189087,10|0,0:1|0:0,0:0:0:0:
88,152,270446,6,0,B|90:204|90:204|38:286|38:286|-15:226,1,209.000006378174,10|0,0:1|0:0,0:0:0:0:
10,120,270920,2,0,L|183:72,1,156.750004783631,10|0,0:1|0:0,0:0:0:0:
174,45,271235,1,10,0:0:0:0:
255,281,271393,6,0,L|474:341,1,209.000006378174,14|8,0:1|0:1,0:0:0:0:
368,126,271867,2,0,B|365:87|365:87|394:26|394:26|448:71,1,156.750004783631,10|0,0:0|0:0,0:0:0:0:
470,82,272183,2,0,P|458:127|481:199,1,104.500003189087,10|8,0:1|0:1,0:0:0:0:
255,163,272499,1,10,0:0:0:0:
276,48,272656,2,0,P|264:93|287:165,1,104.500003189087,10|0,0:1|0:0,0:0:0:0:
16,50,272972,5,10,0:1:0:0:
144,125,273130,2,0,B|96:134|96:134|29:130,1,104.500003189087,8|0,0:0|0:0,0:0:0:0:
40,130,273446,1,8,0:1:0:0:
95,269,273604,2,0,B|151:273|151:273|199:264,1,104.500003189087,10|8,0:1|0:0,0:0:0:0:
427,121,273920,6,0,B|403:131|403:131|345:95|345:95|336:25|400:-2,1,209.000006378174,14|8,0:1|0:1,0:0:0:0:
506,211,274393,2,0,B|482:201|482:201|424:237|424:237|415:307|479:334,1,209.000006378174,8|8,0:0|0:1,0:0:0:0:
172,363,274867,5,10,0:1:0:0:
314,262,275025,1,10,0:0:0:0:
278,355,275183,2,0,B|140:329|233:280|73:266,1,209.000006378174,10|8,0:1|0:1,0:0:0:0:
0,245,275656,2,0,P|16:294|25:368,1,104.500003189087,10|0,0:0|0:0,0:0:0:0:
59,119,275972,2,0,P|66:67|83:17,1,104.500003189087,10|8,0:1|0:1,0:0:0:0:
330,46,276288,5,10,0:0:0:0:
184,50,276446,2,0,B|229:21|229:21|319:26|319:128,1,209.000006378174,14|8,0:1|0:1,0:0:0:0:
486,70,276920,2,0,B|480:120|480:120|486:174,1,104.500003189087,8|0,0:0|0:0,0:0:0:0:
399,319,277235,1,10,0:1:0:0:
318,125,277393,2,0,B|311:174|311:174|317:228,1,104.500003189087,10|8,0:1|0:0,0:0:0:0:
104,273,277709,6,0,P|144:247|198:230,1,104.500003189087,10|0,0:1|0:0,0:0:0:0:
278,346,278025,1,10,0:1:0:0:
103,378,278183,2,0,P|63:352|9:335,1,104.500003189087,12|0,0:0|0:0,0:0:0:0:
32,145,278499,2,0,B|26:91|26:91|32:41,1,104.500003189087,8|8,0:0|0:0,0:0:0:0:
58,35,278735,1,8,0:0:0:0:
58,35,278814,1,8,0:0:0:0:
318,125,278972,6,0,B|396:106|396:106|408:65|408:65|499:44,1,209.000006378174,12|8,0:1|0:1,0:0:0:0:
489,283,279446,2,0,L|432:192,1,104.500003189087,8|0,0:0|0:0,0:0:0:0:
433,194,279762,1,8,0:1:0:0:
373,328,279920,2,0,L|316:237,1,104.500003189087,10|8,0:1|0:0,0:0:0:0:
155,75,280235,6,8,P|144:149|23:129,1,209.000006378174,10|8,0:1|0:1,0:0:0:0:
142,281,280709,2,0,B|90:270|90:270|27:283,1,104.500003189087,8|0,0:0|0:0,0:0:0:0:
39,280,281025,1,8,0:1:0:0:
163,197,281183,5,10,0:1:0:0:
31,144,281341,1,8,0:0:0:0:
155,75,281499,1,8,0:0:0:0:
432,187,281656,5,14,0:1:0:0:
345,13,281814,1,10,0:1:0:0:
459,37,281972,1,10,0:0:0:0:
423,212,282130,2,0,P|421:174|388:99,1,104.500003189087,10|0,0:1|0:0,0:0:0:0:
307,219,282446,5,10,0:1:0:0:
493,288,282604,1,10,0:0:0:0:
434,353,282762,2,8,P|437:284|497:148,1,209.000006378174,14|8,0:1|0:1,0:0:0:0:
316,357,283235,2,0,B|264:368|264:368|206:358,1,104.500003189087,8|0,0:0|0:0,0:0:0:0:
213,359,283551,1,8,0:1:0:0:
104,249,283709,2,0,B|52:260|52:260|-6:250,1,104.500003189087,10|8,0:1|0:0,0:0:0:0:
112,159,284025,6,8,P|117:231|231:230,1,209.000006378174,14|8,0:1|0:1,0:0:0:0:
456,0,284499,5,8,0:0:0:0:
503,146,284656,1,8,0:1:0:0:
384,73,284814,1,8,0:0:0:0:
337,219,284971,5,10,0:1:0:0:
508,65,285130,1,10,0:0:0:0:
345,249,285288,2,0,L|452:222,1,104.500003189087,10|8,0:1|0:0,0:0:0:0:
446,223,285604,1,8,0:1:0:0:
241,124,285762,5,10,0:0:0:0:
110,282,285920,1,8,0:1:0:0:
228,89,286077,5,10,0:0:0:0:
244,382,286235,1,8,0:1:0:0:
216,60,286393,5,10,0:0:0:0:
0,39,286551,2,8,B|-2:134|75:149|75:149|130:110,1,209.000006378174,14|8,0:1|0:1,0:0:0:0:
502,154,287025,5,8,0:0:0:0:
402,74,287183,1,8,0:1:0:0:
490,6,287341,5,10,0:0:0:0:
423,228,287499,2,0,B|417:286|417:286|425:346,1,104.500003189087,10|8,0:1|0:0,0:0:0:0:
423,331,287814,1,10,0:1:0:0:
79,293,287972,5,8,0:0:0:0:
268,108,288130,1,10,0:1:0:0:
240,326,288288,1,8,0:0:0:0:
51,141,288446,1,8,0:1:0:0:
157,224,288604,5,8,0:0:0:0:
316,10,288762,5,8,0:0:0:0:
347,12,288840,1,8,0:0:0:0:
377,19,288919,1,8,0:0:0:0:
403,36,288998,1,8,0:0:0:0:
423,60,289077,1,8,0:0:0:0:
451,75,289156,1,8,0:0:0:0:
482,81,289235,5,14,0:1:0:0:
473,291,289393,2,0,L|499:183,1,104.500003189087,14|0,0:1|0:0,0:0:0:0:
378,154,289709,5,14,0:1:0:0:
387,363,289867,2,0,L|361:255,1,104.500003189087,14|0,0:1|0:0,0:0:0:0:
75,318,290183,5,14,0:1:0:0:
84,108,290341,2,0,L|58:216,1,104.500003189087,14|0,0:1|0:0,0:0:0:0:
179,245,290657,5,14,0:1:0:0:
170,36,290815,2,0,L|196:144,1,104.500003189087,14|0,0:1|0:0,0:0:0:0:
394,0,291130,6,0,B|338:9|338:9|280:-1,1,104.500003189087,14|8,0:0|0:1,0:0:0:0:
353,98,291446,2,0,B|400:106|400:106|456:97,1,104.500003189087,14|8,0:0|0:1,0:0:0:0:
466,289,291762,5,10,0:0:0:0:
431,315,291840,1,8,0:0:0:0:
389,328,291919,1,8,0:1:0:0:
346,325,291998,1,8,0:1:0:0:
307,308,292077,1,8,0:3:0:0:
276,277,292156,1,8,0:3:0:0:
258,237,292235,1,8,0:1:0:0:
257,194,292315,1,8,0:1:0:0:
256,151,292394,1,8,0:3:0:0:
238,112,292473,1,8,0:3:0:0:
207,81,292552,1,8,0:1:0:0:
168,63,292631,1,8,0:1:0:0:
125,61,292710,1,4,0:3:0:0:
83,74,292789,1,4,0:3:0:0:
49,101,292867,1,14,0:1:0:0:
