osu file format v14

[General]
AudioFilename: audio.mp3
AudioLeadIn: 0
PreviewTime: 87834
Countdown: 0
SampleSet: Soft
StackLeniency: 0.7
Mode: 0
LetterboxInBreaks: 0
WidescreenStoryboard: 1

[Editor]
DistanceSpacing: 0.8
BeatDivisor: 4
GridSize: 32
TimelineZoom: 1.7

[Metadata]
Title:Souhaku Rebellion
TitleUnicode:蒼白リベリオン
Artist:Genkaku Aria
ArtistUnicode:幻覚アリア
Creator:Lasse
Version:Insane
Source:
Tags:toushou hysteria 凍傷ヒステリア nayuta yukki# hallucination aria japanese rock metal
BeatmapID:2248125
BeatmapSetID:1072923

[Difficulty]
HPDrainRate:5
CircleSize:4
OverallDifficulty:8
ApproachRate:9
SliderMultiplier:1.6
SliderTickRate:1

[Events]
//Background and Video events
0,0,"a.jpg",0,0
//Break Periods
2,31428,35428
2,223828,227428
2,235828,237028
//Storyboard Layer 0 (Background)
//Storyboard Layer 1 (Fail)
//Storyboard Layer 2 (Pass)
//Storyboard Layer 3 (Foreground)
//Storyboard Layer 4 (Overlay)
//Storyboard Sound Samples

[TimingPoints]
1228,300,4,2,34,40,1,0
1228,-200,4,2,34,40,0,0
2728,-200,4,2,36,40,0,0
3628,-200,4,2,34,40,0,0
5128,-200,4,2,36,42,0,0
6028,-200,4,2,34,44,0,0
6328,-200,4,2,34,5,0,0
7528,-200,4,2,36,44,0,0
8428,-200,4,2,34,46,0,0
8578,-200,4,2,34,5,0,0
9628,-200,4,2,36,46,0,0
9778,-200,4,2,36,5,0,0
10828,-200,4,2,36,18,0,0
12028,-100,4,2,34,74,0,0
14428,-100,4,2,35,74,0,0
16828,-83.3333333333333,4,2,35,76,0,0
17053,-83.3333333333333,4,2,34,50,0,0
17128,-100,4,2,34,74,0,0
19228,-83.3333333333333,4,2,35,76,0,0
19453,-83.3333333333333,4,2,34,50,0,0
19528,-100,4,2,34,74,0,0
20428,-100,4,2,34,70,0,0
21628,-100,4,2,34,80,0,0
21928,-100,4,2,35,80,0,0
22078,-100,4,2,34,74,0,0
24028,-100,4,2,35,74,0,0
26428,-83.3333333333333,4,2,35,76,0,0
26653,-83.3333333333333,4,2,34,50,0,0
26728,-100,4,2,35,74,0,0
28828,-83.3333333333333,4,2,35,76,0,0
29053,-83.3333333333333,4,2,34,50,0,0
29128,-100,4,2,35,74,0,0
30028,-100,4,2,35,70,0,0
30178,-100,4,2,35,74,0,0
31228,-166.666666666667,4,2,35,60,0,0
33628,-166.666666666667,4,2,35,60,0,0
36028,-166.666666666667,4,2,35,48,0,0
40828,-153.846153846154,4,2,35,50,0,0
48028,-142.857142857143,4,2,34,52,0,0
50428,-90.9090909090909,4,2,34,74,0,0
52828,-90.9090909090909,4,2,35,74,0,0
55228,-76.9230769230769,4,2,35,76,0,0
55453,-76.9230769230769,4,2,35,50,0,0
55528,-90.9090909090909,4,2,35,74,0,0
57628,-76.9230769230769,4,2,35,76,0,0
57853,-76.9230769230769,4,2,35,50,0,0
57928,-90.9090909090909,4,2,35,74,0,0
58828,-90.9090909090909,4,2,35,70,0,0
60028,-90.9090909090909,4,2,34,80,0,0
60328,-90.9090909090909,4,2,35,80,0,0
60478,-90.9090909090909,4,2,35,74,0,0
64828,-76.9230769230769,4,2,35,76,0,0
65053,-76.9230769230769,4,2,35,50,0,0
65128,-90.9090909090909,4,2,35,74,0,0
67228,-76.9230769230769,4,2,35,76,0,0
67453,-76.9230769230769,4,2,35,50,0,0
67528,-90.9090909090909,4,2,35,74,0,0
68428,-90.9090909090909,4,2,35,70,0,0
68578,-90.9090909090909,4,2,35,74,0,0
69628,-133.333333333333,4,2,35,60,0,0
69928,-133.333333333333,4,2,35,50,0,0
72028,-133.333333333333,4,2,35,55,0,0
72328,-133.333333333333,4,2,35,50,0,0
74428,-133.333333333333,4,2,35,55,0,0
74728,-133.333333333333,4,2,35,50,0,0
76828,-133.333333333333,4,2,35,55,0,0
77128,-133.333333333333,4,2,35,50,0,0
78928,-133.333333333333,4,2,35,55,0,0
79228,-133.333333333333,4,2,35,60,0,0
83728,-133.333333333333,4,2,35,62,0,0
84028,-133.333333333333,4,2,35,65,0,0
84328,-133.333333333333,4,2,35,60,0,0
84478,-133.333333333333,4,2,35,61,0,0
84628,-133.333333333333,4,2,35,62,0,0
84778,-133.333333333333,4,2,35,63,0,0
84928,-133.333333333333,4,2,35,65,0,0
85078,-133.333333333333,4,2,35,66,0,0
85228,-133.333333333333,4,2,35,68,0,0
85378,-100,4,2,35,69,0,0
85528,-100,4,2,35,70,0,0
85678,-100,4,2,35,72,0,0
85828,-90.9090909090909,4,2,35,73,0,0
85978,-100,4,2,35,74,0,0
86128,-83.3333333333333,4,2,35,76,0,0
86278,-100,4,2,35,77,0,0
86428,-100,4,2,35,78,0,0
87328,-100,4,2,35,80,0,0
87478,-100,4,2,35,78,0,0
88828,-83.3333333333333,4,2,34,80,0,1
91228,-83.3333333333333,4,2,35,80,0,1
98428,-100,4,2,34,87,0,1
98728,-100,4,2,35,82,0,1
98878,-100,4,2,34,74,0,1
100828,-90.9090909090909,4,2,35,76,0,1
103228,-83.3333333333333,4,2,35,78,0,1
105628,-76.9230769230769,4,2,35,80,0,1
105928,-83.3333333333333,4,2,35,75,0,1
106828,-83.3333333333333,4,2,35,76,0,1
106978,-100,4,2,35,72,0,1
108028,-111.111111111111,4,2,34,70,0,0
108628,-111.111111111111,4,2,35,70,0,0
110428,-111.111111111111,4,2,35,74,0,0
110728,-111.111111111111,4,2,35,72,0,0
110878,-111.111111111111,4,2,35,73,0,0
111028,-111.111111111111,4,2,35,74,0,0
111178,-111.111111111111,4,2,35,75,0,0
111328,-111.111111111111,4,2,35,76,0,0
111478,-111.111111111111,4,2,35,77,0,0
111628,-111.111111111111,4,2,35,78,0,0
112828,-90.9090909090909,4,2,34,74,0,0
115228,-90.9090909090909,4,2,35,74,0,0
117628,-76.9230769230769,4,2,35,76,0,0
117853,-76.9230769230769,4,2,35,50,0,0
117928,-90.9090909090909,4,2,35,74,0,0
120028,-76.9230769230769,4,2,35,76,0,0
120253,-76.9230769230769,4,2,35,50,0,0
120328,-90.9090909090909,4,2,35,74,0,0
121228,-90.9090909090909,4,2,35,70,0,0
122428,-90.9090909090909,4,2,34,80,0,0
122728,-90.9090909090909,4,2,35,80,0,0
122878,-90.9090909090909,4,2,35,74,0,0
127228,-76.9230769230769,4,2,35,76,0,0
127453,-76.9230769230769,4,2,35,50,0,0
127528,-90.9090909090909,4,2,35,74,0,0
129628,-76.9230769230769,4,2,35,76,0,0
129853,-76.9230769230769,4,2,35,50,0,0
129928,-90.9090909090909,4,2,35,74,0,0
130828,-90.9090909090909,4,2,35,70,0,0
130978,-90.9090909090909,4,2,35,74,0,0
132028,-133.333333333333,4,2,35,60,0,0
132328,-133.333333333333,4,2,35,50,0,0
134428,-133.333333333333,4,2,35,55,0,0
134728,-133.333333333333,4,2,35,50,0,0
136828,-133.333333333333,4,2,35,55,0,0
137128,-133.333333333333,4,2,35,50,0,0
139228,-133.333333333333,4,2,35,55,0,0
139528,-133.333333333333,4,2,35,50,0,0
141328,-133.333333333333,4,2,35,55,0,0
141628,-133.333333333333,4,2,35,60,0,0
146128,-133.333333333333,4,2,35,62,0,0
146428,-133.333333333333,4,2,35,65,0,0
146728,-100,4,2,35,60,0,0
146878,-100,4,2,35,61,0,0
147028,-100,4,2,35,62,0,0
147178,-100,4,2,35,63,0,0
147328,-100,4,2,35,64,0,0
147478,-100,4,2,35,65,0,0
147628,-100,4,2,35,68,0,0
147778,-100,4,2,35,69,0,0
147928,-100,4,2,35,70,0,0
148078,-100,4,2,35,71,0,0
148228,-100,4,2,35,74,0,0
148378,-100,4,2,35,75,0,0
148528,-100,4,2,35,76,0,0
148678,-100,4,2,35,77,0,0
148828,-100,4,2,35,78,0,0
149728,-83.3333333333333,4,2,35,80,0,0
149878,-83.3333333333333,4,2,35,78,0,0
151228,-166.666666666667,4,2,34,65,0,0
151378,-166.666666666667,4,2,34,5,0,0
153328,-166.666666666667,4,2,34,50,0,0
153628,-125,4,2,35,65,0,0
153928,-125,4,2,35,50,0,0
154078,-125,4,2,35,65,0,0
154115,-125,4,2,35,5,0,0
154378,-125,4,2,35,65,0,0
156028,-155.038759689922,4,2,34,65,0,0
156178,-155.038759689922,4,2,34,5,0,0
158128,-155.038759689922,4,2,34,50,0,0
158428,-125,4,2,35,65,0,0
158728,-125,4,2,35,50,0,0
158878,-125,4,2,35,65,0,0
158915,-125,4,2,35,5,0,0
159178,-125,4,2,35,65,0,0
159215,-125,4,2,35,5,0,0
160228,-142.857142857143,4,2,34,55,0,0
160828,-100,4,2,35,72,0,0
164728,-71.4285714285714,4,2,35,78,0,0
165478,-71.4285714285714,4,2,35,70,0,0
165628,-100,4,2,35,72,0,0
169528,-66.6666666666667,4,2,35,78,0,0
170428,-66.6666666666667,4,2,35,70,0,0
170728,-76.9230769230769,4,2,35,78,0,0
170953,-76.9230769230769,4,2,35,20,0,0
171028,-76.9230769230769,4,2,35,78,0,0
171253,-76.9230769230769,4,2,35,20,0,0
171328,-76.9230769230769,4,2,35,70,0,0
171478,-76.9230769230769,4,2,35,78,0,0
171703,-76.9230769230769,4,2,35,20,0,0
171778,-76.9230769230769,4,2,35,78,0,0
172003,-76.9230769230769,4,2,35,20,0,0
172078,-90.9090909090909,4,2,35,74,0,0
172153,-76.9230769230769,4,2,35,20,0,0
172228,-71.4285714285714,4,2,35,80,0,0
172453,-71.4285714285714,4,2,35,60,0,0
172528,-71.4285714285714,4,2,35,80,0,0
172678,-71.4285714285714,4,2,35,74,0,0
172828,-100,4,2,34,76,0,0
173428,-83.3333333333333,4,2,34,78,0,0
173728,-71.4285714285714,4,2,34,72,0,0
173803,-71.4285714285714,4,2,34,70,0,0
173878,-71.4285714285714,4,2,34,68,0,0
174178,-100,4,2,34,70,0,0
174628,-71.4285714285714,4,2,34,72,0,0
174778,-71.4285714285714,4,2,34,74,0,0
174928,-71.4285714285714,4,2,34,76,0,0
175078,-66.6666666666667,4,2,34,80,0,1
175528,-90.9090909090909,4,2,34,80,0,1
176278,-76.9230769230769,4,2,34,80,0,1
177478,-66.6666666666667,4,2,35,80,0,1
177778,-66.6666666666667,4,2,35,80,0,1
177928,-83.3333333333333,4,2,35,80,0,1
178678,-76.9230769230769,4,2,35,80,0,1
179878,-66.6666666666667,4,2,35,80,0,1
180178,-66.6666666666667,4,2,34,80,0,1
180328,-83.3333333333333,4,2,34,80,0,1
181078,-76.9230769230769,4,2,34,80,0,1
182278,-66.6666666666667,4,2,35,80,0,1
182728,-90.9090909090909,4,2,34,80,0,1
183478,-83.3333333333333,4,2,34,80,0,1
183928,-71.4285714285714,4,2,35,80,0,1
184153,-71.4285714285714,4,2,35,50,0,1
184228,-62.5,4,2,34,80,0,1
184828,-66.6666666666667,4,2,34,80,0,1
185053,-66.6666666666667,4,2,35,50,0,1
185128,-90.9090909090909,4,2,34,80,0,1
185878,-66.6666666666667,4,2,35,80,0,1
186478,-76.9230769230769,4,2,34,80,0,1
187228,-66.6666666666667,4,2,35,80,0,1
187453,-66.6666666666667,4,2,35,50,0,1
187528,-90.9090909090909,4,2,34,80,0,1
188278,-66.6666666666667,4,2,35,80,0,1
188578,-66.6666666666667,4,2,35,76,0,1
188728,-66.6666666666667,4,2,35,78,0,1
189028,-66.6666666666667,4,2,35,80,0,1
189328,-66.6666666666667,4,2,34,80,0,0
189628,-76.9230769230769,4,2,35,78,0,1
189928,-76.9230769230769,4,2,34,80,0,1
190228,-76.9230769230769,4,2,34,82,0,1
192028,-66.6666666666667,4,2,34,82,0,1
192328,-66.6666666666667,4,2,34,80,0,1
193078,-76.9230769230769,4,2,34,80,0,1
193378,-76.9230769230769,4,2,34,82,0,1
193828,-76.9230769230769,4,2,34,85,0,1
194353,-76.9230769230769,4,2,34,85,0,0
194428,-76.9230769230769,4,2,34,82,0,1
194578,-76.9230769230769,4,2,35,82,0,1
203953,-76.9230769230769,4,2,34,82,0,0
204028,-76.9230769230769,4,2,34,84,0,1
206428,-76.9230769230769,4,2,35,84,0,1
208753,-76.9230769230769,4,2,34,84,0,0
208828,-71.4285714285714,4,2,34,85,0,1
211228,-71.4285714285714,4,2,35,85,0,1
212428,-71.4285714285714,4,2,35,87,0,1
213028,-71.4285714285714,4,2,34,90,0,1
213328,-71.4285714285714,4,2,34,80,0,1
213403,-71.4285714285714,4,2,34,78,0,1
213478,-71.4285714285714,4,2,34,76,0,1
213553,-71.4285714285714,4,2,34,74,0,1
213628,-200,4,2,34,72,0,0
216028,-166.666666666667,4,2,35,65,0,0
216478,-166.666666666667,4,2,35,68,0,0
216515,-166.666666666667,4,2,35,5,0,0
216778,-166.666666666667,4,2,35,68,0,0
216815,-166.666666666667,4,2,35,5,0,0
217078,-166.666666666667,4,2,35,70,0,0
217228,-166.666666666667,4,2,35,5,0,0
217528,-166.666666666667,4,2,35,50,0,0
217828,-166.666666666667,4,2,35,65,0,0
218428,-133.333333333333,4,2,35,70,0,0
218728,-133.333333333333,4,2,35,60,0,0
218878,-133.333333333333,4,2,35,65,0,0
220828,-133.333333333333,4,2,35,70,0,0
221128,-133.333333333333,4,2,35,60,0,0
221278,-133.333333333333,4,2,35,65,0,0
222628,-133.333333333333,4,2,35,68,0,0
222778,-133.333333333333,4,2,35,70,0,0
222928,-133.333333333333,4,2,35,72,0,0
223078,-133.333333333333,4,2,35,74,0,0
228028,-100,4,2,34,80,0,0
228328,-100,4,2,34,72,0,0
228628,-100,4,2,34,74,0,0
228928,-100,4,2,34,76,0,0
229228,-100,4,2,34,78,0,0
229678,-100,4,2,34,80,0,0
229828,-100,4,2,34,80,0,0
230128,-100,4,2,34,82,0,0
230428,-100,4,2,34,84,0,0
230578,-100,4,2,34,82,0,0
232078,-100,4,2,36,82,0,0
232678,-100,4,2,34,80,0,0
233728,-100,4,2,34,84,0,0
233878,-100,4,2,34,70,0,0
235828,-285.714285714286,4,2,34,70,0,0
237628,-76.9230769230769,4,2,34,84,0,1
240028,-76.9230769230769,4,2,35,84,0,1
247228,-76.9230769230769,4,2,34,90,0,1
247528,-90.9090909090909,4,2,35,86,0,1
247678,-90.9090909090909,4,2,34,76,0,1
249628,-83.3333333333333,4,2,35,78,0,1
252028,-76.9230769230769,4,2,35,80,0,1
254428,-71.4285714285714,4,2,35,82,0,1
254728,-76.9230769230769,4,2,35,77,0,1
255628,-76.9230769230769,4,2,35,78,0,1
255778,-100,4,2,35,74,0,1
256828,-100,4,2,34,72,0,0
257428,-100,4,2,35,72,0,0
260953,-100,4,2,35,40,0,0
261028,-100,4,2,35,72,0,0
264028,-100,4,2,35,74,0,0
265828,-62.5,4,2,35,72,0,0
265903,-62.5,4,2,35,30,0,0
265978,-62.5,4,2,35,72,0,0
266053,-62.5,4,2,35,30,0,0
266128,-62.5,4,2,35,72,0,0
266203,-62.5,4,2,35,30,0,0
266278,-62.5,4,2,35,72,0,0
266353,-62.5,4,2,35,30,0,0
266428,-90.9090909090909,4,2,34,74,0,0
266728,-90.9090909090909,4,2,35,70,0,0
268828,-90.9090909090909,4,2,35,74,0,0
269128,-90.9090909090909,4,2,35,72,0,0
269278,-90.9090909090909,4,2,35,73,0,0
269428,-90.9090909090909,4,2,35,74,0,0
269578,-90.9090909090909,4,2,35,75,0,0
269728,-90.9090909090909,4,2,35,76,0,0
269878,-90.9090909090909,4,2,35,77,0,0
270028,-133.333333333333,4,2,34,78,0,0
270103,-133.333333333333,4,2,34,20,0,0
271228,-133.333333333333,4,2,36,30,0,0
272428,-90.9090909090909,4,2,34,76,0,0
274828,-90.9090909090909,4,2,35,76,0,0
277228,-76.9230769230769,4,2,35,78,0,0
277453,-76.9230769230769,4,2,35,50,0,0
277528,-90.9090909090909,4,2,35,76,0,0
279628,-76.9230769230769,4,2,35,78,0,0
279853,-76.9230769230769,4,2,35,50,0,0
279928,-90.9090909090909,4,2,35,76,0,0
280828,-90.9090909090909,4,2,35,72,0,0
282028,-90.9090909090909,4,2,34,82,0,0
282328,-90.9090909090909,4,2,35,82,0,0
282478,-90.9090909090909,4,2,35,76,0,0
286828,-76.9230769230769,4,2,35,78,0,0
287053,-76.9230769230769,4,2,35,50,0,0
287128,-90.9090909090909,4,2,35,76,0,0
289228,-76.9230769230769,4,2,35,78,0,0
289453,-76.9230769230769,4,2,35,50,0,0
289528,-90.9090909090909,4,2,35,76,0,0
290428,-90.9090909090909,4,2,35,72,0,0
290578,-90.9090909090909,4,2,35,76,0,0
291628,-250,4,2,34,44,0,0
291778,-250,4,2,34,42,0,0
291928,-250,4,2,34,40,0,0
292078,-250,4,2,34,38,0,0
292378,-250,4,2,34,36,0,0
292678,-250,4,2,34,34,0,0

[Colours]
Combo1 : 255,140,140
Combo2 : 120,200,230
Combo3 : 255,230,130
Combo4 : 160,230,150

[HitObjects]
2,106,1228,5,2,0:0:0:0:
10,134,1378,1,0,0:0:0:0:
18,162,1528,1,0,0:0:0:0:
26,190,1678,1,0,0:0:0:0:
98,158,1978,1,0,0:0:0:0:
170,126,2278,1,0,0:0:0:0:
170,126,2728,5,2,0:0:0:0:
216,198,3028,1,2,0:0:0:0:
256,123,3328,1,2,0:0:0:0:
384,178,3628,5,2,0:0:0:0:
376,206,3778,1,0,0:0:0:0:
368,234,3928,1,0,0:0:0:0:
360,262,4078,1,0,0:0:0:0:
288,230,4378,1,0,0:0:0:0:
216,198,4678,1,0,0:0:0:0:
216,198,5128,5,2,0:0:0:0:
163,282,5428,1,2,0:0:0:0:
116,194,5728,1,2,0:0:0:0:
29,249,6028,6,0,L|430:216,1,400,2|2,0:0|0:0,0:0:0:0:
480,155,7828,1,2,0:0:0:0:
440,85,8128,1,2,0:0:0:0:
476,13,8428,6,0,P|414:43|167:39,2,320,2|2|6,0:0|0:0|0:0,0:0:0:0:
512,115,12028,6,0,L|327:95,1,160,14|10,0:1|0:0,0:0:0:0:
206,77,12478,2,0,P|197:39|213:4,1,80,2|8,0:0|0:1,0:0:0:0:
285,166,12778,2,0,P|294:203|278:239,1,80,2|8,0:0|0:0,0:0:0:0:
171,297,13078,2,0,L|54:279,1,80,2|8,0:0|0:1,0:0:0:0:
92,285,13528,6,0,P|130:275|170:269,1,80,10|0,0:0|0:0,0:0:0:0:
0,164,13828,2,0,P|9:203|15:243,1,80,10|0,0:1|0:0,0:0:0:0:
120,72,14128,2,0,P|82:82|42:88,1,80,10|0,0:0|0:0,0:0:0:0:
195,143,14428,6,0,B|226:164|226:164|370:144,1,160,14|10,0:1|0:0,0:0:0:0:
483,101,14878,2,0,P|484:61|464:28,1,80,2|8,0:0|0:1,0:0:0:0:
347,147,15178,2,0,P|334:183|345:221,1,80,2|8,0:0|0:0,0:0:0:0:
466,332,15478,2,0,P|486:298|484:259,1,80,2|8,0:0|0:1,0:0:0:0:
363,36,15928,6,0,P|324:32|284:26,1,80,10|0,0:0|0:0,0:0:0:0:
194,126,16228,2,0,P|233:120|273:116,1,80,10|0,0:1|0:0,0:0:0:0:
148,19,16528,1,10,0:0:0:0:
148,19,16678,1,0,0:0:0:0:
68,131,16828,6,0,P|55:200|87:263,1,143.999995605469,14|0,0:1|0:0,0:0:0:0:
87,263,17128,2,0,L|164:249,1,80,10|0,0:0|0:0,0:0:0:0:
253,366,17428,1,10,0:1:0:0:
253,366,17578,2,0,L|176:352,1,80,2|8,0:0|0:0,0:0:0:0:
337,267,17878,6,0,P|339:201|443:191,1,160,2|0,0:0|0:0,0:0:0:0:
506,264,18328,2,0,L|488:355,1,80,10|0,0:0|0:0,0:0:0:0:
417,189,18628,5,10,0:1:0:0:
493,151,18778,1,2,0:0:0:0:
455,75,18928,1,10,0:0:0:0:
379,113,19078,1,2,0:0:0:0:
285,49,19228,6,0,B|254:34|227:40|227:40|209:52|209:52|185:57|134:37,1,143.999995605469,14|0,0:1|0:0,0:0:0:0:
111,75,19528,2,0,P|102:36|117:0,1,80,10|0,0:0|0:0,0:0:0:0:
226,150,19828,1,10,0:1:0:0:
226,150,19978,2,0,P|233:188|218:224,1,80,2|8,0:1|0:0,0:0:0:0:
0,384,20428,6,0,B|4:373|-2:369|-2:369|8:353|8:353|-15:297|21:230,1,160,10|8,3:1|3:2,0:0:0:0:
111,163,20878,1,0,3:0:0:0:
111,163,20953,1,0,3:0:0:0:
111,163,21028,2,0,B|132:212|199:198|199:198|203:165|247:134,1,160,8|8,3:1|3:2,0:0:0:0:
506,32,21628,5,10,0:3:0:0:
476,25,21703,1,8,0:3:0:0:
446,19,21778,1,8,0:3:0:0:
417,13,21853,1,8,0:3:0:0:
387,7,21928,1,14,0:0:0:0:
310,104,22078,6,0,B|346:100|346:100|351:103|351:103|391:99,1,80,2|8,0:0|0:1,0:0:0:0:
274,21,22378,2,0,B|238:17|238:17|234:19|234:19|195:15,1,80,2|8,0:0|0:0,0:0:0:0:
316,119,22678,2,0,B|352:115|352:115|356:117|356:117|395:113,1,80,2|8,0:0|0:1,0:0:0:0:
395,112,23128,6,0,P|385:74|394:36,1,80,10|0,0:0|0:0,0:0:0:0:
487,159,23428,2,0,B|506:186|506:186|488:238,1,80,10|0,0:1|0:0,0:0:0:0:
409,299,23728,2,0,P|370:283|330:282,1,80,10|0,0:0|0:0,0:0:0:0:
233,357,24028,6,0,P|308:353|332:282,1,160,14|10,0:1|0:0,0:0:0:0:
269,182,24478,2,0,L|189:169,1,80,2|8,0:0|0:1,0:0:0:0:
361,138,24778,2,0,L|440:125,1,80,2|8,0:0|0:0,0:0:0:0:
281,76,25078,2,0,P|275:40|250:0,1,80,2|8,0:0|0:1,0:0:0:0:
34,142,25528,6,0,B|14:178|14:178|27:214,1,80,10|0,0:0|0:0,0:0:0:0:
150,260,25828,2,0,B|170:224|170:224|156:187,1,80,10|0,0:1|0:0,0:0:0:0:
57,312,26128,1,10,0:0:0:0:
57,312,26278,1,0,0:0:0:0:
176,369,26428,6,0,B|221:364|221:364|237:376|237:376|332:369,1,143.999995605469,14|0,0:1|0:0,0:0:0:0:
315,370,26728,2,0,P|327:324|313:275,1,80,10|0,0:0|0:0,0:0:0:0:
224,189,27028,1,10,0:1:0:0:
224,189,27178,2,0,L|141:179,1,80,2|8,0:0|0:0,0:0:0:0:
307,100,27478,6,0,B|311:22|389:13|389:13|429:29,1,160,2|0,0:0|0:0,0:0:0:0:
496,114,27928,2,0,B|491:142|491:142|494:147|494:147|492:150|492:150|484:206,1,80,10|0,0:0|0:0,0:0:0:0:
424,288,28228,5,10,0:1:0:0:
351,243,28378,1,2,0:0:0:0:
283,294,28528,1,10,0:0:0:0:
208,252,28678,1,2,0:0:0:0:
115,339,28828,6,0,B|82:366|82:366|22:334|49:272,1,143.999995605469,14|0,0:1|0:0,0:0:0:0:
58,262,29128,2,0,P|74:227|67:188,1,80,10|0,0:0|0:0,0:0:0:0:
138,44,29428,1,10,0:1:0:0:
138,44,29578,2,0,P|131:82|147:118,1,80,2|8,0:0|0:0,0:0:0:0:
385,258,30028,5,2,3:1:0:0:
439,195,30178,1,0,1:0:0:0:
422,172,30253,1,0,1:0:0:0:
417,144,30328,1,0,1:0:0:0:
427,117,30403,1,0,1:0:0:0:
443,94,30478,2,0,P|459:68|449:40,5,40,0|0|0|0|0|0,1:0|1:0|1:0|1:0|1:0|1:0,0:0:0:0:
383,51,30928,2,0,P|368:24|339:18,3,40,0|0|0|0,1:0|1:0|1:0|1:0,0:0:0:0:
284,14,31228,5,4,1:2:0:0:
0,176,36028,6,0,L|108:169,1,95.9999970703126,2|0,0:0|0:0,0:0:0:0:
150,115,36478,2,0,P|155:85|137:57,1,47.9999985351563,2|0,0:0|1:0,0:0:0:0:
148,69,36928,1,0,0:0:0:0:
96,170,37228,2,0,P|87:216|100:262,1,95.9999970703126,2|0,0:0|0:0,0:0:0:0:
176,345,37828,2,0,L|280:354,1,95.9999970703126,2|0,1:2|0:2,0:0:0:0:
378,259,38428,6,0,P|367:211|387:162,1,95.9999970703126,2|0,0:0|0:0,0:0:0:0:
448,128,38878,2,0,L|506:118,1,47.9999985351563,2|0,0:0|1:0,0:0:0:0:
495,119,39328,1,0,0:0:0:0:
411,35,39628,2,0,L|307:19,1,95.9999970703126,2|0,0:0|0:0,0:0:0:0:
213,73,40228,2,0,L|109:57,1,95.9999970703126,2|0,1:2|0:0,0:0:0:0:
200,185,40828,6,0,P|183:224|199:294,1,103.999995239258,2|0,0:0|0:0,0:0:0:0:
251,335,41278,2,0,L|315:327,1,51.999997619629,2|0,0:0|1:0,0:0:0:0:
302,328,41728,1,0,0:0:0:0:
419,384,42028,2,0,P|431:334|416:284,1,103.999995239258,2|0,0:0|0:0,0:0:0:0:
350,165,42628,2,0,P|338:114|353:65,1,103.999995239258,2|0,1:0|0:0,0:0:0:0:
230,220,43228,6,0,P|242:269|227:319,1,103.999995239258,2|0,0:0|0:0,0:0:0:0:
169,368,43678,1,2,0:0:0:0:
169,368,43828,2,0,L|53:359,1,103.999995239258,0|0,1:0|0:0,0:0:0:0:
0,233,44428,2,0,L|116:224,1,103.999995239258,2|0,0:0|0:0,0:0:0:0:
145,92,45028,2,0,L|29:83,1,103.999995239258,2|0,1:2|0:0,0:0:0:0:
244,0,45628,6,0,P|232:51|252:100,1,103.999995239258,2|0,0:0|0:0,0:0:0:0:
320,138,46078,1,2,0:0:0:0:
320,138,46228,2,0,P|365:116|439:124,1,103.999995239258,0|0,1:0|0:0,0:0:0:0:
501,211,46828,2,0,L|492:314,1,103.999995239258,2|0,0:0|0:0,0:0:0:0:
377,384,47428,2,0,L|368:280,1,103.999995239258,0|0,1:0|0:0,0:0:0:0:
276,147,48028,6,0,P|231:161|159:137,1,111.999996582031,2|0,0:0|0:0,0:0:0:0:
112,91,48478,1,2,0:0:0:0:
112,91,48628,2,0,P|108:31|54:34,1,111.999996582031,0|0,1:0|0:0,0:0:0:0:
2,194,49228,2,0,L|17:314,1,111.999996582031,2|2,0:0|0:0,0:0:0:0:
70,371,49678,1,0,0:0:0:0:
70,371,49828,2,0,P|116:342|171:343,1,111.999996582031,2|0,1:2|0:0,0:0:0:0:
172,343,50428,6,0,P|224:363|279:262,1,176.000005371094,14|10,0:1|0:0,0:0:0:0:
209,174,50878,2,0,P|178:173|128:140,1,88.000002685547,2|8,0:0|0:1,0:0:0:0:
276,82,51178,2,0,P|266:40|281:-1,1,88.000002685547,2|8,0:0|0:0,0:0:0:0:
384,117,51478,2,0,P|420:94|464:96,1,88.000002685547,2|8,0:0|0:1,0:0:0:0:
464,96,51928,6,0,B|486:109|512:105|512:105|499:78|468:86,1,88.000002685547,10|0,0:0|0:0,0:0:0:0:
404,197,52228,2,0,B|410:221|431:237|431:237|441:209|413:192,1,88.000002685547,10|0,0:1|0:0,0:0:0:0:
290,225,52528,2,0,B|277:246|280:272|280:272|307:259|299:227,1,88.000002685547,10|0,0:0|0:0,0:0:0:0:
231,97,52828,6,0,B|215:30|136:10|136:10|83:38,1,176.000005371094,14|10,0:1|0:0,0:0:0:0:
5,139,53278,2,0,L|109:123,1,88.000002685547,2|8,0:0|0:1,0:0:0:0:
192,228,53578,2,0,L|88:212,1,88.000002685547,2|8,0:0|0:0,0:0:0:0:
15,321,53878,2,0,L|119:305,1,88.000002685547,2|8,0:0|0:1,0:0:0:0:
341,381,54328,6,0,P|324:335|340:287,1,88.000002685547,10|0,0:0|0:0,0:0:0:0:
430,231,54628,2,0,P|474:236|521:209,1,88.000002685547,10|0,0:1|0:0,0:0:0:0:
357,142,54928,1,10,0:0:0:0:
357,142,55078,1,0,0:0:0:0:
469,90,55228,6,0,B|501:48|446:-6|446:-6|399:38,1,155.999992858887,14|0,0:1|0:0,0:0:0:0:
403,38,55528,2,0,P|378:41|323:-2,1,88.000002685547,10|0,0:0|0:0,0:0:0:0:
211,110,55828,1,10,0:1:0:0:
211,110,55978,2,0,P|236:113|291:70,1,88.000002685547,2|8,0:0|0:0,0:0:0:0:
134,30,56278,6,0,B|90:16|90:16|16:54|39:133,1,176.000005371094,2|0,0:0|0:0,0:0:0:0:
126,236,56728,2,0,B|149:198|149:198|130:158,1,88.000002685547,10|0,0:0|0:0,0:0:0:0:
19,308,57028,5,10,0:1:0:0:
96,365,57178,1,2,0:0:0:0:
180,318,57328,1,10,0:0:0:0:
259,373,57478,1,2,0:0:0:0:
347,275,57628,6,0,B|356:227|356:227|346:198|346:198|366:104,1,155.999992858887,14|0,0:1|0:0,0:0:0:0:
377,112,57928,2,0,P|407:118|465:90,1,88.000002685547,10|0,0:0|0:0,0:0:0:0:
302,11,58228,1,10,0:1:0:0:
302,11,58378,2,0,P|272:5|214:33,1,88.000002685547,2|8,0:1|0:0,0:0:0:0:
0,138,58828,6,0,B|129:151|129:151|74:96,1,176.000005371094,10|8,3:1|3:2,0:0:0:0:
18,249,59278,1,0,3:0:0:0:
18,249,59353,1,0,3:0:0:0:
18,249,59428,2,0,B|-5:331|65:364|65:364|108:344,1,176.000005371094,8|8,3:1|3:2,0:0:0:0:
284,134,60028,5,10,0:3:0:0:
248,125,60103,1,8,0:3:0:0:
213,118,60178,1,8,0:3:0:0:
178,111,60253,1,8,0:3:0:0:
143,104,60328,1,14,0:0:0:0:
206,14,60478,6,0,B|237:10|237:10|250:16|250:16|292:14,1,88.000002685547,2|8,0:0|0:1,0:0:0:0:
143,104,60778,2,0,B|112:100|112:100|99:106|99:106|56:104,1,88.000002685547,2|8,0:0|0:0,0:0:0:0:
207,25,61078,2,0,B|238:21|238:21|251:27|251:27|293:25,1,88.000002685547,2|8,0:0|0:1,0:0:0:0:
293,24,61528,6,0,P|281:61|312:117,1,88.000002685547,10|0,0:0|0:0,0:0:0:0:
435,186,61828,2,0,P|447:149|416:93,1,88.000002685547,10|0,0:1|0:0,0:0:0:0:
313,212,62128,2,0,P|301:249|332:305,1,88.000002685547,10|0,0:0|0:0,0:0:0:0:
440,374,62428,6,0,P|401:299|317:293,1,176.000005371094,14|10,0:1|0:0,0:0:0:0:
183,384,62878,2,0,L|274:374,1,88.000002685547,2|8,0:0|0:1,0:0:0:0:
164,276,63178,2,0,P|169:220|142:181,1,88.000002685547,2|8,0:0|0:0,0:0:0:0:
48,297,63478,2,0,P|31:336|38:379,1,88.000002685547,2|8,0:0|0:1,0:0:0:0:
197,119,63928,6,0,B|214:97|214:97|195:17,1,88.000002685547,10|0,0:0|0:0,0:0:0:0:
62,121,64228,2,0,B|48:179|48:179|65:201,1,88.000002685547,10|0,0:1|0:0,0:0:0:0:
150,284,64528,1,10,0:0:0:0:
150,284,64678,1,0,0:0:0:0:
271,210,64828,6,0,B|315:197|350:225|350:225|397:229|417:186,1,155.999992858887,14|0,0:1|0:0,0:0:0:0:
422,178,65128,2,0,P|410:134|431:88,1,88.000002685547,10|0,0:0|0:0,0:0:0:0:
512,248,65428,1,10,0:1:0:0:
512,248,65578,2,0,P|518:290|499:329,1,88.000002685547,2|8,0:0|0:0,0:0:0:0:
348,382,65878,6,0,B|282:376|282:376|280:372|280:372|275:375|275:375|174:366,1,176.000005371094,2|0,0:0|0:0,0:0:0:0:
107,261,66328,2,0,P|127:222|121:180,1,88.000002685547,10|0,0:0|0:0,0:0:0:0:
52,45,66628,5,10,0:1:0:0:
21,136,66778,1,2,0:0:0:0:
112,167,66928,1,10,0:0:0:0:
143,76,67078,1,2,0:0:0:0:
241,162,67228,6,0,B|268:184|268:184|278:108|278:108|240:70,1,155.999992858887,14|0,0:1|0:0,0:0:0:0:
230,65,67528,2,0,L|123:78,1,88.000002685547,10|0,0:0|0:0,0:0:0:0:
14,152,67828,1,10,0:1:0:0:
14,152,67978,2,0,P|0:190|11:237,1,88.000002685547,2|8,0:0|0:0,0:0:0:0:
214,377,68428,5,2,3:1:0:0:
291,316,68578,1,0,1:0:0:0:
260,298,68653,1,0,1:0:0:0:
240,268,68728,1,0,1:0:0:0:
241,232,68803,1,0,1:0:0:0:
261,203,68878,2,0,P|277:182|276:140,5,44.0000013427735,0|0|0|0|0|0,1:0|1:0|1:0|1:0|1:0|1:0,0:0:0:0:
206,147,69328,2,0,P|195:122|158:102,3,44.0000013427735,0|0|0|0,1:0|1:0|1:0|1:0,0:0:0:0:
109,87,69628,6,0,B|54:141|56:203|78:195|75:296|16:338|16:338|10:298|51:267,1,360.000013732911,4|0,1:2|0:0,0:0:0:0:
127,353,70828,2,0,P|182:373|240:359,1,120.000004577637,8|2,0:1|0:1,0:0:0:0:
358,379,71428,2,0,P|403:340|420:284,1,120.000004577637,10|2,0:0|0:0,0:0:0:0:
378,158,72028,6,0,B|258:146|235:247|287:285|427:227|353:95|288:61,1,360.000013732911,14|0,0:1|0:0,0:0:0:0:
190,5,73228,1,8,0:1:0:0:
174,124,73528,1,10,0:1:0:0:
54,120,73828,2,0,L|24:2,1,120.000004577637,8|2,0:0|0:0,0:0:0:0:
0,227,74428,6,0,B|76:171|194:227|119:313|245:377|326:294,1,360.000013732911,14|0,0:1|0:0,0:0:0:0:
393,229,75628,1,8,0:1:0:0:
346,118,75928,1,10,0:1:0:0:
432,34,76228,2,0,P|455:86|520:124,1,120.000004577637,10|2,0:0|0:2,0:0:0:0:
318,0,76828,6,0,B|266:88|146:129|77:87|90:28|187:22|227:103,1,360.000013732911,14|0,0:1|0:0,0:0:0:0:
282,206,78028,1,8,0:1:0:0:
200,292,78328,1,10,0:1:0:0:
92,240,78628,1,10,0:2:0:0:
108,121,78928,5,10,0:0:0:0:
108,121,79078,1,10,0:0:0:0:
167,177,79228,6,0,P|200:169|220:131,1,60.0000022888184,12|8,0:1|0:1,0:0:0:0:
277,48,79528,2,0,P|283:19|305:0,1,60.0000022888184,8|8,0:1|0:1,0:0:0:0:
412,126,79828,1,10,0:0:0:0:
412,126,80128,6,0,P|405:97|383:78,1,60.0000022888184,8|8,0:1|0:1,0:0:0:0:
376,237,80428,2,0,P|382:265|404:284,1,60.0000022888184,8|8,0:1|0:1,0:0:0:0:
291,144,80728,2,0,P|220:115|156:128,1,120.000004577637,2|10,0:0|0:0,0:0:0:0:
178,119,81328,2,0,P|150:141|114:144,1,60.0000022888184,2|0,0:0|0:0,0:0:0:0:
60,74,81628,6,0,L|45:1,1,60.0000022888184,14|8,0:1|0:1,0:0:0:0:
178,119,81928,2,0,L|193:46,1,60.0000022888184,8|8,0:1|0:1,0:0:0:0:
64,209,82228,1,10,0:0:0:0:
64,209,82528,6,0,L|0:227,1,60.0000022888184,8|8,0:1|0:1,0:0:0:0:
142,306,82828,2,0,L|206:324,1,60.0000022888184,8|8,0:1|0:1,0:0:0:0:
290,235,83128,2,0,P|261:188|295:124,1,120.000004577637,2|10,0:0|0:0,0:0:0:0:
425,9,83728,5,8,0:0:0:0:
425,9,83878,1,8,0:0:0:0:
471,77,84028,5,14,0:1:0:0:
471,77,84328,5,10,0:0:0:0:
425,9,84478,1,8,0:0:0:0:
421,142,84628,1,8,0:0:0:0:
346,31,84778,1,8,0:0:0:0:
343,114,84928,5,10,0:0:0:0:
343,114,85078,1,8,0:0:0:0:
267,2,85228,5,10,0:0:0:0:
237,103,85378,2,0,L|252:194,1,80,8|8,0:0|0:0,0:0:0:0:
158,53,85678,5,10,0:0:0:0:
165,181,85828,2,0,L|149:281,1,88.000002685547,8|8,0:0|0:0,0:0:0:0:
32,170,86128,6,0,L|7:61,1,95.9999970703126,10|8,0:0|0:0,0:0:0:0:
161,9,86428,5,8,0:3:0:0:
183,29,86503,1,8,0:3:0:0:
211,41,86578,1,8,0:3:0:0:
240,42,86653,1,8,0:3:0:0:
269,33,86728,2,0,P|293:21|317:22,3,40,8|8|8|8,0:3|0:3|0:3|0:3,0:0:0:0:
375,54,87028,2,0,P|395:65|438:62,3,40,8|8|8|8,0:3|0:3|0:3|0:3,0:0:0:0:
482,28,87328,5,10,0:0:0:0:
447,143,87478,1,10,0:1:0:0:
145,48,88828,6,0,L|48:36,1,95.9999970703126,14|8,0:1|0:0,0:0:0:0:
205,134,89128,2,0,L|261:123,2,47.9999985351563,8|8|8,0:1|0:1|0:0,0:0:0:0:
91,227,89428,1,10,0:1:0:0:
170,297,89578,2,0,L|267:309,1,95.9999970703126,8|8,0:0|0:1,0:0:0:0:
75,336,89878,2,0,L|265:308,1,191.999994140625,10|8,0:0|0:0,0:0:0:0:
410,203,90328,5,10,0:1:0:0:
410,203,90403,1,8,0:1:0:0:
410,203,90478,1,8,0:0:0:0:
321,127,90628,2,0,P|308:95|326:29,1,95.9999970703126,8|8,0:1|0:2,0:0:0:0:
410,203,90928,2,0,P|423:235|405:301,1,95.9999970703126,10|8,0:1|0:0,0:0:0:0:
250,363,91228,6,0,L|137:350,1,95.9999970703126,14|8,0:1|0:0,0:0:0:0:
33,384,91528,1,8,0:1:0:0:
33,384,91603,1,8,0:1:0:0:
33,384,91678,1,8,0:0:0:0:
0,261,91828,1,10,0:1:0:0:
121,229,91978,2,0,P|134:195|108:137,1,95.9999970703126,8|8,0:0|0:1,0:0:0:0:
19,36,92278,2,0,P|9:94|136:124,1,191.999994140625,10|8,0:0|0:0,0:0:0:0:
242,21,92728,5,10,0:1:0:0:
242,21,92803,1,8,0:1:0:0:
242,21,92878,1,8,0:0:0:0:
266,166,93028,2,0,L|271:229,2,47.9999985351563,10|8|8,0:1|0:1|0:0,0:0:0:0:
140,54,93328,2,0,L|135:-9,2,47.9999985351563,10|8|8,0:1|0:1|0:0,0:0:0:0:
85,170,93628,5,14,0:1:0:0:
12,227,93778,2,0,P|-7:177|14:115,1,95.9999970703126,8|8,0:0|0:1,0:0:0:0:
140,54,94078,5,10,0:0:0:0:
213,111,94228,2,0,P|232:61|211:-1,1,95.9999970703126,8|8,0:1|0:2,0:0:0:0:
54,30,94528,6,0,L|-4:34,2,47.9999985351563,10|8|8,0:1|0:1|0:0,0:0:0:0:
213,111,94828,2,0,L|325:104,1,95.9999970703126,8|8,0:1|0:0,0:0:0:0:
455,22,95128,5,10,0:1:0:0:
455,22,95203,1,8,0:1:0:0:
455,22,95278,1,8,0:0:0:0:
430,165,95428,2,0,L|438:224,2,47.9999985351563,10|8|8,0:1|0:1|0:0,0:0:0:0:
308,105,95728,2,0,L|300:46,2,47.9999985351563,10|8|8,0:1|0:1|0:0,0:0:0:0:
234,230,96028,5,14,0:1:0:0:
188,148,96178,2,0,B|177:120|177:120|180:97|180:97|157:48,1,95.9999970703126,8|8,0:0|0:1,0:0:0:0:
4,167,96478,5,10,0:0:0:0:
55,95,96628,2,0,B|66:67|66:67|63:44|63:44|86:-5,1,95.9999970703126,8|8,0:1|0:2,0:0:0:0:
261,58,96928,5,10,0:1:0:0:
261,58,97003,1,8,0:1:0:0:
261,58,97078,1,8,0:0:0:0:
188,148,97228,2,0,B|157:187|157:187|155:138,1,95.9999970703126,8|8,0:1|0:0,0:0:0:0:
308,256,97528,2,0,B|339:295|339:295|341:246,1,95.9999970703126,10|8,0:1|0:0,0:0:0:0:
177,330,97828,2,0,B|146:369|146:369|144:320,1,95.9999970703126,8|8,0:1|0:0,0:0:0:0:
283,163,98128,5,10,0:1:0:0:
283,163,98203,1,8,0:1:0:0:
283,163,98278,1,8,0:0:0:0:
340,248,98428,5,10,0:3:0:0:
369,267,98503,1,8,0:3:0:0:
406,269,98578,1,8,0:3:0:0:
439,253,98653,1,8,0:3:0:0:
459,223,98728,6,0,P|436:147|465:75,1,160,12|8,0:0|0:1,0:0:0:0:
224,0,99328,2,0,P|246:75|217:147,2,160,10|8|8,0:0|0:1|0:0,0:0:0:0:
224,0,100078,1,0,0:1:0:0:
136,70,100228,2,0,L|52:66,1,80,10|0,0:1|0:0,0:0:0:0:
217,148,100528,2,0,L|301:152,1,80,8|0,0:0|0:0,0:0:0:0:
190,287,100828,6,0,P|174:367|92:375,1,176.000005371094,14|8,0:1|0:0,0:0:0:0:
84,194,101278,2,0,P|21:140|55:65,1,176.000005371094,2|0,0:0|0:0,0:0:0:0:
218,148,101728,2,0,P|295:121|343:187,1,176.000005371094,10|8,0:0|0:1,0:0:0:0:
343,188,102328,6,0,P|333:245|363:294,1,88.000002685547,8|0,0:0|0:0,0:0:0:0:
506,172,102628,2,0,P|476:141|434:130,1,88.000002685547,10|0,0:1|0:0,0:0:0:0:
438,322,102928,2,0,P|479:311|510:280,1,88.000002685547,10|0,0:0|0:0,0:0:0:0:
343,188,103228,6,0,B|245:155|265:228|155:188,1,191.999994140625,14|8,0:1|0:0,0:0:0:0:
156,188,103678,1,0,0:0:0:0:
94,113,103828,2,0,P|110:51|88:21,1,95.9999970703126,8|0,0:1|0:0,0:0:0:0:
14,149,104128,2,0,P|-16:233|24:345,2,191.999994140625,10|8|8,0:0|0:1|0:0,0:0:0:0:
14,149,104878,1,0,0:0:0:0:
94,113,105028,2,0,L|195:99,1,95.9999970703126,10|0,0:1|0:0,0:0:0:0:
296,18,105328,2,0,L|195:4,1,95.9999970703126,10|0,0:0|0:0,0:0:0:0:
305,138,105628,6,0,P|312:245|413:259,1,207.999990478516,14|8,0:1|0:0,0:0:0:0:
396,266,106078,1,2,0:0:0:0:
487,190,106228,2,0,B|494:124|494:124|483:94|483:94|490:-5,1,191.999994140625,8|10,0:1|0:0,0:0:0:0:
272,158,106828,5,10,0:1:0:0:
210,84,106978,1,0,1:0:0:0:
222,68,107053,1,0,1:0:0:0:
228,49,107128,1,0,1:0:0:0:
224,30,107203,1,0,1:0:0:0:
212,14,107278,1,0,1:0:0:0:
194,5,107353,1,0,1:0:0:0:
175,5,107428,2,0,L|124:13,3,40,0|0|0|0,1:0|1:0|1:0|1:0,0:0:0:0:
81,61,107728,2,0,L|30:69,3,40,0|0|0|0,1:0|1:0|1:0|1:0,0:0:0:0:
0,135,108028,6,0,P|16:194|96:180,1,143.999995605469,6|8,0:1|0:1,0:0:0:0:
149,242,108478,1,8,0:1:0:0:
206,129,108628,2,0,B|172:137|172:137|121:115,1,71.9999978027344,14|0,0:0|0:0,0:0:0:0:
250,211,108928,1,10,0:1:0:0:
250,211,109078,2,0,B|303:209|303:209|319:221|319:221|407:220,1,143.999995605469,8|8,0:1|0:1,0:0:0:0:
477,155,109528,2,0,P|484:116|468:83,1,71.9999978027344,2|0,0:0|0:0,0:0:0:0:
389,220,109828,2,0,P|382:259|398:292,1,71.9999978027344,14|0,0:0|0:0,0:0:0:0:
477,369,110128,1,10,0:1:0:0:
477,369,110278,1,8,0:1:0:0:
512,257,110428,5,14,0:1:0:0:
318,84,110728,5,8,0:2:0:0:
276,174,110878,1,8,0:2:0:0:
233,72,111028,1,8,2:2:0:0:
186,175,111178,1,8,2:2:0:0:
148,56,111328,1,8,2:2:0:0:
96,173,111478,1,8,2:2:0:0:
61,40,111628,1,14,0:1:0:0:
0,338,112828,6,0,B|69:334|69:334|89:347|89:347|171:342,1,176.000005371094,14|10,0:1|0:0,0:0:0:0:
278,232,113278,2,0,P|253:198|258:140,1,88.000002685547,2|8,0:0|0:1,0:0:0:0:
362,258,113578,2,0,P|345:296|292:321,1,88.000002685547,2|8,0:0|0:0,0:0:0:0:
341,168,113878,2,0,P|382:163|430:196,1,88.000002685547,2|8,0:0|0:1,0:0:0:0:
422,185,114328,6,0,B|456:213|456:213|499:202,1,88.000002685547,10|0,0:0|0:0,0:0:0:0:
402,88,114628,2,0,B|439:64|439:64|442:19,1,88.000002685547,10|0,0:1|0:0,0:0:0:0:
304,76,114928,2,0,B|292:33|292:33|251:16,1,88.000002685547,10|0,0:0|0:0,0:0:0:0:
187,160,115228,6,0,P|152:242|192:355,1,176.000005371094,14|10,0:1|0:0,0:0:0:0:
309,381,115678,2,0,L|417:372,1,88.000002685547,2|8,0:0|0:1,0:0:0:0:
494,271,115978,2,0,L|386:262,1,88.000002685547,2|8,0:0|0:0,0:0:0:0:
309,160,116278,2,0,L|417:151,1,88.000002685547,2|8,0:0|0:1,0:0:0:0:
118,86,116728,6,0,B|134:46|134:46|114:5,1,88.000002685547,10|0,0:0|0:0,0:0:0:0:
8,131,117028,2,0,B|-11:171|-11:171|4:211,1,88.000002685547,10|0,0:1|0:0,0:0:0:0:
61,312,117328,1,10,0:0:0:0:
61,312,117478,1,0,0:0:0:0:
185,264,117628,6,0,B|285:240|246:300|348:271,1,155.999992858887,14|0,0:1|0:0,0:0:0:0:
336,273,117928,2,0,P|352:233|339:191,1,88.000002685547,10|0,0:0|0:0,0:0:0:0:
261,95,118228,1,10,0:1:0:0:
261,95,118378,2,0,L|141:86,1,88.000002685547,2|8,0:0|0:0,0:0:0:0:
337,0,118678,6,0,P|339:61|450:84,1,176.000005371094,2|0,0:0|0:0,0:0:0:0:
512,197,119128,2,0,B|471:179|471:179|407:196,1,88.000002685547,10|0,0:0|0:0,0:0:0:0:
336,273,119428,5,10,0:1:0:0:
393,350,119578,1,2,0:0:0:0:
470,293,119728,1,10,0:0:0:0:
413,216,119878,1,2,0:0:0:0:
323,288,120028,6,0,B|282:295|253:321|253:321|239:290|197:263,1,155.999992858887,14|0,0:1|0:0,0:0:0:0:
182,273,120328,2,0,P|164:222|178:186,1,88.000002685547,10|0,0:0|0:0,0:0:0:0:
344,158,120628,1,10,0:1:0:0:
344,158,120778,2,0,P|362:107|348:71,1,88.000002685547,2|8,0:1|0:0,0:0:0:0:
56,6,121228,6,0,B|-1:76|12:139|12:139|27:156|56:162,1,176.000005371094,10|8,3:1|3:2,0:0:0:0:
155,204,121678,1,0,3:0:0:0:
155,204,121753,1,0,3:0:0:0:
155,204,121828,2,0,B|198:155|159:85|159:85|105:102,1,176.000005371094,8|8,3:1|3:2,0:0:0:0:
260,344,122428,5,10,0:3:0:0:
297,348,122503,1,8,0:3:0:0:
331,354,122578,1,8,0:3:0:0:
366,361,122653,1,8,0:3:0:0:
401,367,122728,1,14,0:0:0:0:
493,267,122878,6,0,P|506:225|491:185,1,88.000002685547,2|8,0:0|0:1,0:0:0:0:
367,279,123178,2,0,P|351:319|365:360,1,88.000002685547,2|8,0:0|0:0,0:0:0:0:
508,269,123478,2,0,P|521:227|506:187,1,88.000002685547,2|8,0:0|0:1,0:0:0:0:
506,187,123928,6,0,L|416:179,1,88.000002685547,10|0,0:0|0:0,0:0:0:0:
337,63,124228,2,0,L|427:55,1,88.000002685547,10|0,0:1|0:0,0:0:0:0:
266,167,124528,2,0,P|271:128|245:82,1,88.000002685547,10|0,0:0|0:0,0:0:0:0:
117,0,124828,6,0,B|111:48|111:48|125:96|125:96|104:194,1,176.000005371094,14|10,0:1|0:0,0:0:0:0:
18,290,125278,2,0,B|3:249|3:249|20:208,1,88.000002685547,2|8,0:0|0:1,0:0:0:0:
153,290,125578,2,0,B|168:331|168:331|150:371,1,88.000002685547,2|8,0:0|0:0,0:0:0:0:
6,292,125878,2,0,B|-11:251|-11:251|3:210,1,88.000002685547,2|8,0:0|0:1,0:0:0:0:
3,210,126328,6,0,L|105:200,1,88.000002685547,10|0,0:0|0:0,0:0:0:0:
212,142,126628,2,0,P|184:98|199:55,1,88.000002685547,10|0,0:1|0:0,0:0:0:0:
292,0,126928,1,10,0:0:0:0:
292,0,127078,1,0,0:0:0:0:
391,92,127228,6,0,B|468:125|500:69|500:69|472:63|450:88,1,155.999992858887,14|0,0:1|0:0,0:0:0:0:
469,72,127528,2,0,P|457:116|478:162,1,88.000002685547,10|0,0:0|0:0,0:0:0:0:
390,275,127828,1,10,0:1:0:0:
390,275,127978,2,0,P|402:233|387:192,1,88.000002685547,2|8,0:0|0:0,0:0:0:0:
305,87,128278,6,0,B|240:80|240:80|211:99|211:99|130:90,1,176.000005371094,2|0,0:0|0:0,0:0:0:0:
0,23,128728,2,0,B|38:17|38:17|48:22|48:22|98:15,1,88.000002685547,10|0,0:0|0:0,0:0:0:0:
220,43,129028,5,10,0:1:0:0:
235,140,129178,1,2,0:0:0:0:
150,187,129328,1,10,0:0:0:0:
135,90,129478,1,2,0:0:0:0:
241,160,129628,6,0,B|306:203|306:203|382:155,1,155.999992858887,14|0,0:1|0:0,0:0:0:0:
384,150,129928,2,0,P|398:110|383:69,1,88.000002685547,10|0,0:0|0:0,0:0:0:0:
248,167,130228,1,10,0:1:0:0:
248,167,130378,2,0,P|233:207|248:248,1,88.000002685547,2|8,0:0|0:0,0:0:0:0:
415,382,130828,5,2,3:1:0:0:
483,316,130978,1,0,1:0:0:0:
457,290,131053,1,0,1:0:0:0:
446,256,131128,1,0,1:0:0:0:
456,221,131203,1,0,1:0:0:0:
483,199,131278,2,0,B|497:182|497:182|487:135,5,44.0000013427735,0|0|0|0|0|0,1:0|1:0|1:0|1:0|1:0|1:0,0:0:0:0:
453,94,131728,2,0,L|385:71,3,44.0000013427735,0|0|0|0,1:0|1:0|1:0|1:0,0:0:0:0:
354,18,132028,6,0,B|252:12|227:105|240:106|246:113|212:170|139:188|92:76|177:49,1,360.000013732911,4|0,1:2|0:0,0:0:0:0:
244,149,133228,1,8,0:1:0:0:
188,255,133528,1,10,0:1:0:0:
258,351,133828,2,0,L|382:363,1,120.000004577637,10|2,0:0|0:0,0:0:0:0:
512,299,134428,6,0,B|459:238|419:117|474:68|474:68|477:130|430:175,1,360.000013732911,14|0,0:1|0:0,0:0:0:0:
338,230,135628,1,8,0:1:0:0:
239,161,135928,1,10,0:1:0:0:
148,239,136228,2,0,B|107:280|107:280|59:237,1,120.000004577637,8|2,0:0|0:0,0:0:0:0:
181,87,136828,6,0,B|265:39|329:120|329:120|406:153|474:107|459:23,1,360.000013732911,14|0,0:1|0:0,0:0:0:0:
346,3,138028,1,8,0:1:0:0:
276,101,138328,1,10,0:1:0:0:
347,197,138628,2,0,L|470:212,1,120.000004577637,10|2,0:0|0:2,0:0:0:0:
312,291,139228,6,0,B|277:396|143:365|143:365|213:297|160:213,1,360.000013732911,14|0,0:1|0:0,0:0:0:0:
72,153,140428,1,8,0:1:0:0:
111,39,140728,1,10,0:1:0:0:
231,40,141028,1,10,0:2:0:0:
267,154,141328,5,10,0:0:0:0:
267,154,141478,1,10,0:0:0:0:
346,103,141628,6,0,P|357:74|346:38,1,60.0000022888184,12|8,0:1|0:1,0:0:0:0:
267,154,141928,2,0,P|256:183|267:219,1,60.0000022888184,8|8,0:1|0:1,0:0:0:0:
351,283,142228,1,10,0:0:0:0:
351,283,142528,6,0,L|433:274,1,60.0000022888184,8|8,0:1|0:1,0:0:0:0:
262,211,142828,2,0,L|202:217,1,60.0000022888184,8|8,0:1|0:1,0:0:0:0:
344,131,143128,2,0,P|356:75|320:30,1,120.000004577637,2|10,0:0|0:0,0:0:0:0:
319,30,143728,2,0,L|254:25,1,60.0000022888184,2|0,0:0|0:0,0:0:0:0:
133,77,144028,6,0,P|123:44|131:15,1,60.0000022888184,14|8,0:1|0:1,0:0:0:0:
205,159,144328,2,0,P|210:188|200:216,1,60.0000022888184,8|8,0:1|0:1,0:0:0:0:
115,298,144628,1,10,0:0:0:0:
115,298,144928,6,0,L|45:303,1,60.0000022888184,8|8,0:1|0:1,0:0:0:0:
175,384,145228,2,0,L|245:379,1,60.0000022888184,8|8,0:1|0:1,0:0:0:0:
328,317,145528,2,0,P|302:266|310:199,1,120.000004577637,2|10,0:0|0:0,0:0:0:0:
423,27,146128,5,8,0:0:0:0:
423,27,146278,1,8,0:0:0:0:
432,126,146428,5,14,0:1:0:0:
432,126,146728,6,0,L|518:121,1,80,10|8,0:0|0:0,0:0:0:0:
314,81,147028,2,0,P|320:43|307:5,1,80,8|8,0:0|0:0,0:0:0:0:
182,143,147328,2,0,P|175:181|188:219,1,80,8|8,0:0|0:0,0:0:0:0:
291,315,147628,5,10,0:0:0:0:
331,207,147778,1,8,0:0:0:0:
439,247,147928,1,8,0:0:0:0:
399,355,148078,1,8,0:0:0:0:
279,320,148228,5,10,0:0:0:0:
325,195,148378,1,8,0:0:0:0:
449,241,148528,1,8,0:0:0:0:
404,365,148678,1,8,0:0:0:0:
269,326,148828,6,0,L|232:282,3,40,8|8|8|8,0:3|0:3|0:3|0:3,0:0:0:0:
197,231,149128,2,0,L|208:166,3,40,8|8|8|8,0:3|0:3|0:3|0:3,0:0:0:0:
259,134,149428,2,0,L|238:68,3,40,8|8|8|8,0:3|0:3|0:3|0:3,0:0:0:0:
221,21,149728,5,10,0:0:0:0:
167,104,149878,1,10,0:1:0:0:
472,278,151228,6,0,B|388:194|241:186|168:286|222:427|388:378|416:325|358:135|152:101,1,671.999979492188,14|0,0:1|0:0,0:0:0:0:
166,103,153628,6,0,L|313:89,1,128,14|0,0:1|0:0,0:0:0:0:
354,44,154078,2,0,P|355:33|349:18,1,16,14|0,0:1|0:0,0:0:0:0:
271,172,154378,2,0,P|270:183|276:198,1,16,14|0,0:1|0:0,0:0:0:0:
80,227,156028,6,0,B|-43:151|50:31|147:157|61:211|49:219|38:220|-15:422|200:446|340:386|330:149|171:141,1,722.400011022949,14|0,0:1|0:0,0:0:0:0:
172,141,158428,6,0,B|156:183|156:183|177:222|157:264,1,128,14|0,0:1|0:0,0:0:0:0:
94,303,158878,2,0,L|69:304,1,16,14|0,0:1|0:0,0:0:0:0:
250,381,159178,2,0,L|275:382,1,16,14|0,0:1|0:0,0:0:0:0:
78,303,160228,6,0,L|48:298,4,27.9999991455078,2|2|2|2|2,0:0|0:0|0:0|0:0|0:0,0:0:0:0:
0,120,160828,6,0,L|94:111,1,80,14|8,0:1|0:1,0:0:0:0:
79,112,161053,1,8,0:1:0:0:
79,112,161128,1,8,0:1:0:0:
146,41,161278,1,8,0:1:0:0:
202,148,161428,2,0,P|194:184|212:231,1,80,10|8,0:0|0:1,0:0:0:0:
206,224,161653,1,8,0:1:0:0:
206,224,161728,1,8,0:1:0:0:
322,186,161878,1,8,0:1:0:0:
474,316,162178,5,10,0:1:0:0:
474,316,162253,1,8,0:1:0:0:
474,316,162328,2,0,L|382:309,1,80,8|8,0:1|0:1,0:0:0:0:
476,216,162628,1,10,0:0:0:0:
397,117,162778,1,8,0:1:0:0:
397,117,162853,1,8,0:1:0:0:
397,117,162928,2,0,L|489:110,1,80,8|8,0:1|0:1,0:0:0:0:
295,82,163228,6,0,P|300:37|281:2,1,80,14|8,0:1|0:1,0:0:0:0:
285,6,163453,1,8,0:1:0:0:
285,6,163528,1,8,0:1:0:0:
197,101,163678,1,8,0:1:0:0:
102,19,163828,2,0,L|189:12,1,80,10|8,0:0|0:1,0:0:0:0:
181,12,164053,1,8,0:1:0:0:
181,12,164128,1,8,0:1:0:0:
121,137,164278,1,8,0:1:0:0:
351,289,164578,6,0,P|351:266|343:244,1,40,10|8,0:1|0:1,0:0:0:0:
325,209,164728,2,2,B|277:185|277:185|210:206,1,111.999996582031,10|8,0:1|0:1,0:1:0:0:
368,330,165028,2,2,B|416:354|416:354|483:333,1,111.999996582031,10|8,0:0|0:1,0:1:0:0:
504,306,165253,1,8,0:1:0:0:
504,306,165328,2,2,B|497:264|497:264|500:261|500:261|497:257|497:257|483:177,1,111.999996582031,10|8,0:1|0:1,0:1:0:0:
405,89,165628,6,0,P|367:98|332:82,1,80,14|8,0:1|0:1,0:0:0:0:
332,82,165853,1,8,0:1:0:0:
332,82,165928,1,8,0:1:0:0:
265,0,166078,1,8,0:1:0:0:
162,103,166228,2,0,P|200:112|235:95,1,80,10|8,0:0|0:1,0:0:0:0:
235,94,166453,1,8,0:1:0:0:
235,94,166528,1,8,0:1:0:0:
127,5,166678,1,8,0:1:0:0:
0,225,166978,5,10,0:1:0:0:
0,225,167053,1,8,0:1:0:0:
0,225,167128,2,0,L|82:217,1,80,8|8,0:1|0:1,0:0:0:0:
162,103,167428,1,10,0:0:0:0:
263,196,167578,1,8,0:1:0:0:
263,196,167653,1,8,0:1:0:0:
263,196,167728,2,0,L|181:188,1,80,8|8,0:1|0:1,0:0:0:0:
344,116,168028,6,0,P|335:78|352:38,1,80,14|8,0:1|0:1,0:0:0:0:
349,41,168253,1,8,0:1:0:0:
349,41,168328,1,8,0:1:0:0:
462,0,168478,1,8,0:1:0:0:
510,100,168628,2,0,P|519:138|502:178,1,80,10|8,0:0|0:1,0:0:0:0:
504,174,168853,1,8,0:1:0:0:
504,174,168928,1,8,0:1:0:0:
416,223,169078,1,8,0:1:0:0:
161,59,169378,6,0,L|217:57,1,40,10|8,0:1|0:1,0:0:0:0:
246,70,169528,2,2,B|274:95|274:95|248:216,1,120.000004577637,10|8,0:1|0:1,0:1:0:0:
204,266,169828,1,10,0:0:0:0:
198,251,169903,1,10,0:1:0:0:
190,237,169978,1,10,0:1:0:0:
181,227,170053,1,10,0:1:0:0:
169,218,170128,1,10,0:1:0:0:
0,370,170428,5,10,0:1:0:0:
0,370,170578,1,10,0:1:0:0:
96,313,170728,6,2,B|148:240|104:150,1,155.999992858887,14|0,0:2|0:0,0:1:0:0:
44,118,171028,2,2,B|-9:190|36:281,1,155.999992858887,14|0,0:2|0:0,0:1:0:0:
29,265,171328,1,10,0:1:0:0:
181,329,171478,6,2,B|354:319,1,155.999992858887,14|0,0:2|0:0,0:1:0:0:
377,242,171778,2,2,B|204:252,1,155.999992858887,14|0,0:2|0:0,0:1:0:0:
159,204,172078,2,2,P|153:179|166:155,1,44.0000013427735,10|0,0:1|0:0,0:1:0:0:
220,104,172228,6,2,B|303:117|303:117|306:21,1,167.999994873047,14|0,0:2|0:0,0:1:0:0:
309,13,172528,1,14,0:2:0:0:
383,142,172678,1,10,0:1:0:0:
482,91,172828,5,10,0:3:0:0:
458,92,172903,1,8,0:3:0:0:
437,84,172978,1,8,0:3:0:0:
420,68,173053,1,8,0:3:0:0:
413,46,173128,2,0,L|411:0,3,40,8|8|8|8,0:3|0:3|0:3|0:3,0:0:0:0:
324,58,173428,6,0,L|305:4,3,47.9999985351563,6|6|6|6,0:3|0:3|0:3|0:3,0:0:0:0:
244,103,173728,6,0,L|204:54,2,55.9999982910157,10|10|10,2:2|2:0|2:0,0:0:0:0:
433,255,174178,5,8,0:0:0:0:
433,255,174253,1,8,0:0:0:0:
433,255,174328,2,0,L|533:246,1,80,8|8,0:0|0:0,0:0:0:0:
378,157,174628,5,10,0:0:0:0:
335,281,174778,1,10,0:0:0:0:
249,181,174928,1,10,0:0:0:0:
395,149,175078,6,2,B|447:126|447:126|419:67|419:67|426:6|426:6|341:-17,1,240.000009155274,14|8,0:1|0:1,0:1:0:0:
231,75,175528,2,0,L|328:78,1,88.000002685547,8|0,0:0|0:0,0:0:0:0:
188,0,175828,5,10,0:1:0:0:
188,0,175978,1,8,0:1:0:0:
141,117,176128,1,8,0:0:0:0:
259,203,176278,5,2,0:0:0:0:
259,203,176353,1,2,0:0:0:0:
259,203,176428,2,2,B|289:217|289:217|266:118|319:78|319:78|335:139,1,207.999990478516,10|8,0:1|0:0,0:1:0:0:
165,229,176878,5,2,0:0:0:0:
141,117,177028,1,10,0:1:0:0:
148,220,177178,1,10,0:1:0:0:
124,108,177328,1,10,0:0:0:0:
34,220,177478,6,2,B|109:183|109:183|133:159|133:159|165:170|165:170|265:178,1,240.000009155274,14|8,0:1|0:1,0:1:0:0:
383,82,177928,2,0,B|337:90|337:90|264:55,1,95.9999970703126,10|0,0:0|0:0,0:0:0:0:
410,219,178228,1,10,0:1:0:0:
410,219,178378,2,0,B|454:197|454:197|500:205,1,95.9999970703126,8|8,0:1|0:0,0:0:0:0:
347,355,178678,5,2,0:2:0:0:
347,355,178753,1,2,0:2:0:0:
347,355,178828,2,0,B|302:345|302:345|282:352|282:352|231:337,1,103.999995239258,10|8,0:1|0:1,0:0:0:0:
184,221,179128,2,0,B|209:175|209:175|196:124,1,103.999995239258,10|0,0:0|0:0,0:0:0:0:
93,21,179428,5,10,0:1:0:0:
34,131,179578,1,10,0:1:0:0:
75,15,179728,1,10,0:0:0:0:
184,114,179878,6,2,B|224:146|224:146|424:107,1,240.000009155274,14|8,0:1|0:1,0:1:0:0:
328,264,180328,2,0,P|334:310|313:352,1,95.9999970703126,10|0,0:0|0:0,0:0:0:0:
170,203,180628,1,10,0:1:0:0:
170,203,180778,2,0,P|163:156|184:114,1,95.9999970703126,10|8,0:1|0:0,0:0:0:0:
349,18,181078,5,2,0:0:0:0:
349,18,181153,1,2,0:0:0:0:
349,18,181228,2,0,L|468:10,1,103.999995239258,10|8,0:1|0:1,0:0:0:0:
371,165,181528,2,0,L|252:173,1,103.999995239258,10|0,0:0|0:0,0:0:0:0:
87,77,181828,5,10,0:1:0:0:
202,29,181978,1,10,0:1:0:0:
80,55,182128,1,10,0:0:0:0:
187,136,182278,6,2,B|231:133|255:157|266:172|266:172|270:151|288:128|288:128|281:66|328:28,1,240.000009155274,14|8,0:1|0:1,0:1:0:0:
461,7,182728,2,0,B|474:125,1,88.000002685547,8|0,0:0|0:0,0:0:0:0:
496,245,183028,5,10,0:1:0:0:
496,245,183178,1,8,0:1:0:0:
397,183,183328,1,8,0:0:0:0:
305,299,183478,5,2,0:0:0:0:
305,299,183553,1,2,0:0:0:0:
305,299,183628,2,0,B|418:285,1,95.9999970703126,10|0,0:1|0:0,0:0:0:0:
274,204,183928,2,0,B|247:183|247:183|268:108|214:39,1,167.999994873047,14|0,0:0|0:0,0:0:0:0:
160,16,184228,6,2,B|121:9|121:9|89:28|89:28|11:16,1,128,10|8,0:2|0:0,0:1:0:0:
0,13,184453,1,10,0:0:0:0:
0,13,184528,1,8,0:0:0:0:
110,106,184678,1,8,0:0:0:0:
18,203,184828,6,2,B|-12:256|-12:256|19:371,1,180.000006866455,14|0,0:1|0:0,0:1:0:0:
22,375,185128,2,0,L|122:361,1,88.000002685547,8|0,0:0|0:0,0:0:0:0:
242,309,185428,5,10,0:1:0:0:
242,309,185578,1,8,0:1:0:0:
154,249,185728,1,8,0:0:0:0:
253,161,185878,6,2,B|304:124|361:126|361:126|394:113|394:113|423:134|477:143,1,240.000009155274,14|8,0:1|0:1,0:1:0:0:
376,219,186328,1,8,0:0:0:0:
302,101,186478,5,2,0:0:0:0:
302,101,186553,1,2,0:0:0:0:
302,101,186628,2,0,B|314:49|314:49|284:7,1,103.999995239258,10|8,0:1|0:1,0:0:0:0:
167,134,186928,1,10,0:0:0:0:
285,209,187078,5,8,0:0:0:0:
285,209,187153,1,8,0:0:0:0:
285,209,187228,2,2,B|317:210|341:203|341:203|361:208|379:221|379:221|406:214|471:212,1,180.000006866455,14|0,0:1|0:0,0:1:0:0:
459,212,187528,2,0,P|473:171|460:128,1,88.000002685547,8|0,0:0|0:0,0:0:0:0:
379,7,187828,5,10,0:1:0:0:
379,7,187978,1,8,0:1:0:0:
302,101,188128,1,8,0:0:0:0:
154,39,188278,6,2,B|99:30|58:81|58:81|39:20|-1:9|-1:9|4:26|37:41,1,240.000009155274,14|8,0:1|0:1,0:1:0:0:
196,164,188728,5,8,0:3:0:0:
206,166,188803,1,8,0:3:0:0:
216,169,188878,1,8,0:3:0:0:
227,172,188953,1,8,0:3:0:0:
238,177,189028,5,8,0:0:0:0:
271,166,189103,1,8,0:0:0:0:
271,131,189178,1,8,0:0:0:0:
238,120,189253,1,8,0:0:0:0:
217,148,189328,1,10,0:2:0:0:
397,371,189628,6,0,L|401:319,3,51.999997619629,14|2|10|2,0:2|0:0|0:1|0:0,0:0:0:0:
458,264,189928,2,0,L|454:212,3,51.999997619629,10|2|10|2,0:0|0:0|0:1|0:0,0:0:0:0:
399,150,190228,5,10,0:0:0:0:
346,237,190378,1,10,0:1:0:0:
259,184,190528,1,10,0:0:0:0:
311,97,190678,1,10,0:1:0:0:
411,159,190828,6,0,P|459:175|507:158,1,103.999995239258,10|10,0:0|0:1,0:0:0:0:
359,23,191128,2,0,P|310:6|262:23,1,103.999995239258,10|10,0:0|0:1,0:0:0:0:
159,156,191428,6,0,L|149:264,1,103.999995239258,10|10,0:0|0:1,0:0:0:0:
336,340,191728,2,0,L|346:232,1,103.999995239258,10|10,0:0|0:1,0:0:0:0:
239,8,192028,6,2,B|247:72|224:128|168:161|99:86|172:34,1,240.000009155274,14|8,0:1|0:0,0:1:0:0:
268,202,192478,5,10,0:1:0:0:
268,202,192553,1,10,0:1:0:0:
268,202,192628,2,2,B|260:266|283:322|339:355|408:280|335:228,1,240.000009155274,10|8,0:0|0:0,0:1:0:0:
191,379,193078,5,10,0:1:0:0:
191,379,193153,1,10,0:1:0:0:
191,379,193228,1,10,0:0:0:0:
86,302,193378,1,8,0:0:0:0:
86,302,193453,1,8,0:0:0:0:
86,302,193528,2,0,L|75:186,1,103.999995239258,8|8,0:0|0:0,0:0:0:0:
216,50,193828,5,8,0:0:0:0:
163,167,193978,1,8,0:0:0:0:
281,220,194128,1,8,0:0:0:0:
333,101,194278,1,8,0:0:0:0:
150,148,194428,6,0,B|110:142|110:142|85:150|85:150|5:139,1,103.999995239258,14|8,0:1|0:1,0:0:0:0:
165,30,194728,2,0,B|205:24|205:24|230:32|230:32|266:26,1,103.999995239258,10|8,0:1|0:1,0:0:0:0:
337,126,195028,1,10,0:0:0:0:
452,96,195178,1,8,0:1:0:0:
452,96,195253,1,8,0:1:0:0:
452,96,195328,2,0,B|473:47|473:47|449:-3,1,103.999995239258,10|8,0:1|0:1,0:0:0:0:
319,140,195628,6,0,B|304:190|304:190|321:239,1,103.999995239258,10|8,0:1|0:1,0:0:0:0:
331,257,195853,1,8,0:1:0:0:
342,274,195928,2,0,B|456:265,1,103.999995239258,10|8,0:1|0:1,0:0:0:0:
512,143,196228,1,10,0:0:0:0:
445,55,196378,1,8,0:1:0:0:
445,55,196453,1,8,0:1:0:0:
445,55,196528,2,0,B|331:46,1,103.999995239258,10|8,0:1|0:1,0:0:0:0:
150,16,196828,6,0,L|264:4,1,103.999995239258,14|8,0:1|0:1,0:0:0:0:
154,110,197128,1,10,0:1:0:0:
154,110,197278,1,8,0:1:0:0:
233,177,197428,2,0,L|347:165,1,103.999995239258,10|8,0:0|0:1,0:0:0:0:
336,166,197653,1,8,0:1:0:0:
336,166,197728,1,10,0:1:0:0:
415,251,197878,1,8,0:1:0:0:
500,146,198028,6,0,P|513:109|476:31,1,103.999995239258,10|8,0:1|0:1,0:0:0:0:
477,37,198253,1,8,0:1:0:0:
457,30,198328,2,0,L|325:19,1,103.999995239258,10|8,0:1|0:1,0:0:0:0:
250,100,198628,2,0,P|252:139|197:204,1,103.999995239258,10|8,0:0|0:1,0:0:0:0:
199,199,198853,1,8,0:1:0:0:
178,200,198928,2,0,L|48:188,1,103.999995239258,10|8,0:1|0:1,0:0:0:0:
183,324,199228,6,0,L|313:336,1,103.999995239258,14|8,0:1|0:1,0:0:0:0:
388,384,199528,1,10,0:1:0:0:
388,384,199678,1,8,0:1:0:0:
483,302,199828,2,0,B|501:253|501:253|470:192,1,103.999995239258,10|8,0:0|0:1,0:0:0:0:
477,206,200053,1,8,0:1:0:0:
477,206,200128,1,10,0:1:0:0:
407,135,200278,1,8,0:1:0:0:
308,212,200428,6,0,B|259:228|259:228|204:199,1,103.999995239258,10|8,0:1|0:1,0:0:0:0:
194,192,200653,1,8,0:1:0:0:
180,175,200728,2,0,L|168:60,1,103.999995239258,10|8,0:1|0:1,0:0:0:0:
52,0,201028,1,10,0:2:0:0:
6,92,201178,1,8,0:1:0:0:
6,92,201253,1,8,0:1:0:0:
6,92,201328,2,0,L|18:207,1,103.999995239258,10|8,0:1|0:1,0:0:0:0:
75,308,201628,6,0,B|112:301|112:301|129:309|129:309|176:303,1,103.999995239258,14|8,0:1|0:1,0:0:0:0:
309,366,201928,2,0,L|318:258,1,103.999995239258,10|8,0:1|0:1,0:0:0:0:
337,108,202228,1,10,0:2:0:0:
421,198,202378,1,8,0:1:0:0:
421,198,202453,1,8,0:1:0:0:
421,198,202528,2,0,B|467:218|467:218|532:176,1,103.999995239258,10|8,0:1|0:1,0:0:0:0:
317,84,202828,6,0,B|280:77|280:77|263:85|263:85|216:79,1,103.999995239258,10|8,0:1|0:1,0:0:0:0:
201,93,203053,1,8,0:1:0:0:
186,108,203128,2,0,B|162:62|162:62|180:14,1,103.999995239258,10|8,0:1|0:1,0:0:0:0:
292,168,203428,2,0,B|310:216|310:216|286:262,1,103.999995239258,10|8,0:2|0:1,0:0:0:0:
178,336,203728,5,8,0:0:0:0:
152,332,203803,1,8,0:0:0:0:
126,329,203878,1,8,0:0:0:0:
100,325,203953,1,8,0:0:0:0:
74,322,204028,6,0,B|65:284|65:284|70:266|70:266|57:200,1,103.999995239258,14|8,0:1|0:2,0:0:0:0:
21,85,204328,2,0,B|11:69|11:69|9:61|9:61|-4:40,2,51.999997619629,10|8|8,0:1|0:1|0:0,0:0:0:0:
139,144,204628,1,10,0:1:0:0:
225,68,204778,1,8,0:0:0:0:
293,159,204928,1,10,0:1:0:0:
293,159,205003,1,8,0:1:0:0:
293,159,205078,1,8,0:2:0:0:
406,100,205228,6,0,P|427:50|398:-7,1,103.999995239258,10|8,0:1|0:0,0:0:0:0:
293,159,205528,2,0,L|231:171,2,51.999997619629,10|8|8,0:1|0:1|0:0,0:0:0:0:
410,243,205828,2,0,L|520:259,1,103.999995239258,10|8,0:1|0:0,0:0:0:0:
353,353,206128,1,10,0:1:0:0:
353,353,206203,1,8,0:1:0:0:
353,353,206278,1,8,0:2:0:0:
253,267,206428,6,0,P|254:189|229:155,1,103.999995239258,14|8,0:1|0:2,0:0:0:0:
143,78,206728,1,10,0:1:0:0:
143,78,206803,1,8,0:1:0:0:
143,78,206878,1,8,0:0:0:0:
49,143,207028,1,10,0:1:0:0:
39,29,207178,1,8,0:0:0:0:
143,78,207328,2,0,L|218:62,2,51.999997619629,10|8|8,0:1|0:1|0:2,0:0:0:0:
38,156,207628,6,0,P|18:203|26:254,1,103.999995239258,10|8,0:1|0:0,0:0:0:0:
87,354,207928,1,10,0:1:0:0:
87,354,208003,1,8,0:1:0:0:
87,354,208078,1,8,0:0:0:0:
198,284,208228,2,0,L|320:275,1,103.999995239258,10|8,0:1|0:0,0:0:0:0:
442,333,208528,2,0,L|467:401,2,51.999997619629,10|8|8,0:1|0:1|0:2,0:0:0:0:
479,189,208828,5,14,2:2:0:0:
363,111,208978,1,8,2:2:0:0:
378,116,209053,1,8,2:1:0:0:
393,121,209128,2,0,B|378:88|378:88|381:55|381:55|364:8,1,111.999996582031,8|8,2:2|2:2,0:0:0:0:
230,193,209428,5,8,2:2:0:0:
141,96,209578,1,8,2:2:0:0:
151,108,209653,1,8,2:1:0:0:
161,120,209728,2,0,B|176:87|176:87|173:54|173:54|190:7,1,111.999996582031,8|8,2:2|2:2,0:0:0:0:
239,209,210028,5,10,2:2:0:0:
146,289,210178,1,8,2:2:0:0:
133,300,210253,1,8,2:1:0:0:
121,311,210328,2,0,B|68:327|68:327|20:274,1,111.999996582031,8|8,2:2|2:2,0:0:0:0:
230,193,210628,5,8,2:2:0:0:
295,301,210778,1,8,2:2:0:0:
308,311,210853,1,8,2:1:0:0:
320,322,210928,2,0,B|371:344|371:344|433:302,1,111.999996582031,8|8,2:2|2:2,0:0:0:0:
512,192,211228,5,14,2:2:0:0:
505,170,211303,1,8,2:1:0:0:
498,148,211378,1,8,2:2:0:0:
492,126,211453,1,8,2:1:0:0:
484,104,211528,2,0,B|446:91|446:91|425:100|425:100|353:81,1,111.999996582031,8|8,2:2|2:2,0:0:0:0:
237,114,211828,5,10,2:2:0:0:
244,92,211903,1,8,2:1:0:0:
251,70,211978,1,8,2:2:0:0:
257,48,212053,1,8,2:1:0:0:
265,26,212128,2,0,B|303:13|303:13|324:22|324:22|396:3,1,111.999996582031,8|8,2:2|2:2,0:0:0:0:
285,184,212428,5,10,2:2:0:0:
254,198,212503,1,8,2:2:0:0:
220,201,212578,1,4,2:3:0:0:
188,188,212653,1,4,2:3:0:0:
162,164,212728,2,0,P|152:139|152:98,1,55.9999982910157,10|8,2:2|2:2,0:0:0:0:
270,219,212878,2,0,P|270:247|261:275,1,55.9999982910157,4|4,2:3|2:3,0:0:0:0:
174,324,213028,5,10,2:3:0:0:
130,316,213103,5,10,2:3:0:0:
86,310,213178,5,10,2:3:0:0:
43,304,213253,5,10,2:3:0:0:
0,297,213328,5,10,2:0:0:0:
4,293,213403,1,2,2:0:0:0:
7,288,213478,1,2,2:0:0:0:
9,283,213553,1,2,2:0:0:0:
9,278,213628,1,14,2:1:0:0:
114,0,216028,5,8,0:0:0:0:
73,84,216178,1,8,0:0:0:0:
73,84,216253,1,8,0:0:0:0:
73,84,216328,1,8,0:0:0:0:
144,138,216478,2,0,L|162:135,1,11.9999996337891,10|0,0:1|0:0,0:0:0:0:
22,232,216778,2,0,L|4:235,1,11.9999996337891,10|0,0:1|0:0,0:0:0:0:
163,313,217078,6,0,B|215:318|215:318|238:350|238:350|293:364,1,143.999995605469,14|0,0:1|0:0,0:0:0:0:
441,380,217828,5,8,0:0:0:0:
424,363,217903,1,8,0:0:0:0:
415,341,217978,1,8,0:3:0:0:
414,318,218053,1,8,0:3:0:0:
422,296,218128,1,4,0:3:0:0:
512,188,218428,6,0,B|478:215|478:215|383:193,1,120.000004577637,14|8,0:1|0:1,0:0:0:0:
332,222,218878,1,8,0:1:0:0:
345,148,219028,1,10,0:0:0:0:
252,22,219328,1,10,0:1:0:0:
252,22,219478,1,8,0:1:0:0:
316,66,219628,2,0,P|334:70|384:53,1,60.0000022888184,2|8,0:0|0:1,0:0:0:0:
252,22,219928,2,0,P|234:18|184:35,1,60.0000022888184,10|8,0:1|0:1,0:0:0:0:
130,72,220228,1,10,0:0:0:0:
208,206,220528,1,10,0:1:0:0:
208,206,220678,1,8,0:1:0:0:
133,265,220828,6,0,B|79:292|79:292|49:239,1,120.000004577637,14|0,0:1|0:0,0:0:0:0:
27,164,221278,1,8,0:1:0:0:
74,102,221428,1,8,0:0:0:0:
212,210,221728,1,10,0:1:0:0:
212,210,221878,1,8,0:1:0:0:
268,155,222028,2,0,P|279:130|271:73,1,60.0000022888184,2|8,0:0|0:1,0:0:0:0:
212,210,222328,2,0,P|212:239|223:267,1,60.0000022888184,10|8,0:1|0:1,0:0:0:0:
314,332,222628,5,8,0:0:0:0:
349,249,222778,1,8,0:0:0:0:
431,284,222928,1,8,0:0:0:0:
396,367,223078,1,8,0:0:0:0:
79,211,228028,5,14,0:1:0:0:
79,211,228328,6,0,L|-12:202,1,80,8|8,0:0|0:0,0:0:0:0:
198,111,228628,2,0,L|107:102,1,80,8|8,0:0|0:0,0:0:0:0:
254,290,228928,2,0,L|163:281,1,80,8|8,0:0|0:0,0:0:0:0:
336,141,229228,6,0,P|336:96|362:54,1,80,10|8,0:0|0:0,0:0:0:0:
448,0,229528,1,8,0:0:0:0:
509,145,229678,6,0,P|509:190|483:232,1,80,10|8,0:0|0:0,0:0:0:0:
411,284,229978,1,8,0:0:0:0:
330,161,230128,6,0,B|363:159|363:159|376:167|376:167|423:166,1,80,10|8,0:0|0:0,0:0:0:0:
291,49,230428,5,14,0:1:0:0:
227,145,230578,1,8,0:1:0:0:
227,145,230728,1,8,0:1:0:0:
154,59,230878,6,0,L|129:24,2,40,10|8|8,0:3|0:3|0:3,0:0:0:0:
227,145,231178,1,8,0:3:0:0:
140,216,231328,1,8,0:3:0:0:
215,298,231478,6,0,L|251:348,2,40,6|4|4,0:3|0:3|0:3,0:0:0:0:
140,216,231778,1,4,0:3:0:0:
37,261,231928,1,4,0:3:0:0:
5,154,232078,6,0,L|-10:98,2,40,10|8|8,0:3|0:3|0:3,0:0:0:0:
37,261,232378,1,8,0:3:0:0:
140,216,232528,1,8,0:3:0:0:
215,298,232678,5,10,0:1:0:0:
225,315,232753,1,8,0:1:0:0:
237,331,232828,2,0,P|252:344|284:352,3,40,8|8|8|8,0:1|0:1|0:1|0:1,0:0:0:0:
342,378,233128,2,0,P|360:371|383:347,3,40,8|8|8|8,0:1|0:1|0:1|0:1,0:0:0:0:
435,310,233428,2,0,P|438:290|429:258,3,40,8|8|8|8,0:1|0:1|0:1|0:1,0:0:0:0:
374,221,233728,6,0,B|346:250|346:250|350:195,1,80,10|8,0:0|0:1,0:0:0:0:
34,296,237628,6,0,B|25:259|25:259|32:238|32:238|21:185,1,103.999995239258,14|8,0:1|0:0,0:0:0:0:
141,334,237928,2,0,L|122:403,2,51.999997619629,8|8|8,0:1|0:1|0:0,0:0:0:0:
265,230,238228,1,10,0:1:0:0:
344,313,238378,2,0,B|387:337|387:337|437:314,1,103.999995239258,8|8,0:0|0:1,0:0:0:0:
327,160,238678,2,0,B|366:126|363:67|363:67|322:12|249:23,1,207.999990478516,10|8,0:0|0:0,0:0:0:0:
136,84,239128,5,10,0:1:0:0:
136,84,239203,1,8,0:1:0:0:
136,84,239278,1,8,0:0:0:0:
223,169,239428,2,0,L|334:159,1,103.999995239258,8|8,0:1|0:2,0:0:0:0:
136,84,239728,2,0,L|66:75,2,51.999997619629,10|8|8,0:1|0:1|0:0,0:0:0:0:
326,159,240028,6,0,P|341:115|298:41,1,103.999995239258,14|8,0:1|0:0,0:0:0:0:
207,193,240328,1,8,0:1:0:0:
207,193,240403,1,8,0:1:0:0:
207,193,240478,1,8,0:0:0:0:
276,283,240628,1,10,0:1:0:0:
158,333,240778,2,0,L|40:342,1,103.999995239258,8|8,0:0|0:1,0:0:0:0:
259,372,241078,2,0,L|43:339,1,207.999990478516,10|8,0:0|0:0,0:0:0:0:
214,200,241528,5,10,0:1:0:0:
214,200,241603,1,8,0:1:0:0:
214,200,241678,1,8,0:0:0:0:
343,230,241828,2,0,L|411:222,2,51.999997619629,10|8|8,0:1|0:1|0:0,0:0:0:0:
240,101,242128,2,0,L|182:86,2,51.999997619629,10|8|8,0:1|0:1|0:0,0:0:0:0:
372,43,242428,5,14,0:1:0:0:
457,101,242578,2,0,P|475:53|466:2,1,103.999995239258,8|8,0:0|0:1,0:0:0:0:
334,141,242878,5,10,0:0:0:0:
250,200,243028,2,0,P|231:152|240:101,1,103.999995239258,8|8,0:1|0:2,0:0:0:0:
422,244,243328,6,0,L|482:248,2,51.999997619629,10|8|8,0:1|0:1|0:0,0:0:0:0:
311,319,243628,2,0,B|277:315|277:315|260:322|260:322|199:312,1,103.999995239258,8|8,0:1|0:0,0:0:0:0:
87,191,243928,5,10,0:1:0:0:
87,191,244003,1,8,0:1:0:0:
87,191,244078,1,8,0:0:0:0:
7,290,244228,2,0,L|-2:351,2,51.999997619629,10|8|8,0:1|0:1|0:0,0:0:0:0:
87,191,244528,2,0,L|96:130,2,51.999997619629,10|8|8,0:1|0:1|0:0,0:0:0:0:
197,299,244828,5,14,0:1:0:0:
290,343,244978,2,0,B|339:362|339:362|399:315,1,103.999995239258,8|8,0:0|0:1,0:0:0:0:
269,159,245278,5,10,0:0:0:0:
176,203,245428,2,0,B|127:222|127:222|67:175,1,103.999995239258,8|8,0:1|0:2,0:0:0:0:
222,28,245728,5,10,0:1:0:0:
222,28,245803,1,8,0:1:0:0:
222,28,245878,1,8,0:0:0:0:
269,159,246028,2,0,P|304:170|273:144,1,103.999995239258,8|8,0:1|0:0,0:0:0:0:
95,209,246328,2,0,P|60:220|91:194,1,103.999995239258,10|8,0:1|0:0,0:0:0:0:
253,332,246628,2,0,P|288:343|257:317,1,103.999995239258,8|8,0:1|0:0,0:0:0:0:
100,376,246928,5,10,0:1:0:0:
100,376,247003,1,8,0:1:0:0:
100,376,247078,1,8,0:0:0:0:
33,282,247228,5,10,0:3:0:0:
54,249,247303,1,8,0:3:0:0:
64,211,247378,1,8,0:3:0:0:
62,173,247453,1,8,0:3:0:0:
48,136,247528,6,0,B|16:100|16:100|39:25|39:25|98:15,1,176.000005371094,12|8,0:0|0:1,0:0:0:0:
322,94,248128,2,0,L|517:77,2,176.000005371094,10|8|8,0:0|0:1|0:0,0:0:0:0:
322,94,248878,1,0,0:1:0:0:
419,193,249028,2,0,P|430:151|413:111,1,88.000002685547,10|0,0:1|0:0,0:0:0:0:
305,212,249328,2,0,P|293:253|310:293,1,88.000002685547,8|0,0:0|0:0,0:0:0:0:
208,69,249628,6,0,B|177:50|126:62|126:62|114:77|114:77|64:93|17:56,1,191.999994140625,14|8,0:1|0:0,0:0:0:0:
124,177,250078,1,2,0:0:0:0:
124,177,250228,2,0,L|230:195,1,95.9999970703126,8|0,0:1|0:0,0:0:0:0:
332,122,250528,2,0,B|366:93|416:109|416:109|428:124|428:124|479:136|510:117,1,191.999994140625,10|8,0:0|0:1,0:0:0:0:
508,118,251128,6,0,P|493:162|503:209,1,95.9999970703126,10|0,0:0|0:0,0:0:0:0:
389,64,251428,2,0,P|435:55|470:23,1,95.9999970703126,10|0,0:1|0:0,0:0:0:0:
402,195,251728,2,0,P|371:158|326:144,1,95.9999970703126,10|0,0:0|0:0,0:0:0:0:
187,218,252028,6,0,B|112:304|179:379|179:379|215:326,1,207.999990478516,14|8,0:1|0:0,0:0:0:0:
194,355,252478,1,0,0:0:0:0:
105,295,252628,2,0,L|-2:280,1,103.999995239258,8|0,0:1|0:0,0:0:0:0:
187,218,252928,2,0,P|229:138|173:35,2,207.999990478516,10|8|8,0:0|0:1|0:0,0:0:0:0:
187,218,253678,1,0,0:0:0:0:
247,309,253828,2,0,L|354:299,1,103.999995239258,10|0,0:1|0:0,0:0:0:0:
191,222,254128,2,0,L|84:232,1,103.999995239258,10|0,0:0|0:0,0:0:0:0:
248,134,254428,6,0,P|255:27|368:18,1,223.999993164063,14|8,0:1|0:0,0:0:0:0:
354,9,254878,1,2,0:0:0:0:
456,83,255028,2,0,B|461:132|461:132|465:135|465:135|462:137|462:137|477:286,1,207.999990478516,8|10,0:1|0:0,0:0:0:0:
261,384,255628,5,10,0:1:0:0:
197,315,255778,1,0,1:0:0:0:
212,302,255853,1,0,1:0:0:0:
223,285,255928,1,0,1:0:0:0:
224,266,256003,1,0,1:0:0:0:
217,247,256078,1,0,1:0:0:0:
201,234,256153,1,0,1:0:0:0:
183,229,256228,2,0,P|160:221|135:203,3,40,0|0|0|0,1:0|1:0|1:0|1:0,0:0:0:0:
89,158,256528,2,0,P|84:134|87:103,3,40,0|0|0|0,1:0|1:0|1:0|1:0,0:0:0:0:
135,48,256828,6,0,B|192:41|192:41|218:58|218:58|302:48,1,160,14|8,0:1|0:1,0:0:0:0:
349,102,257278,1,8,0:1:0:0:
431,15,257428,2,0,B|392:27|392:27|356:10,1,80,14|0,0:0|0:0,0:0:0:0:
471,94,257728,1,10,0:1:0:0:
471,94,257878,2,0,B|502:84|502:84|479:148|479:148|496:220,1,160,8|8,0:1|0:1,0:0:0:0:
437,331,258328,2,0,P|443:295|416:246,1,80,8|0,0:1|0:0,0:0:0:0:
324,170,258628,2,0,L|225:156,1,80,14|0,0:0|0:0,0:0:0:0:
173,97,258928,1,10,0:1:0:0:
173,97,259078,1,8,0:1:0:0:
242,177,259228,6,0,B|269:228|269:228|216:347,1,160,14|8,0:1|0:1,0:0:0:0:
180,383,259678,1,8,0:1:0:0:
103,293,259828,2,0,L|93:198,1,80,14|0,0:0|0:0,0:0:0:0:
7,192,260128,1,10,0:1:0:0:
7,192,260278,1,8,0:1:0:0:
53,31,260578,5,8,0:1:0:0:
53,31,260728,2,0,P|109:48|167:36,1,120,10|0,0:1|0:0,0:0:0:0:
194,28,261028,2,0,B|241:23|241:23|258:70|258:70|228:153,1,160,14|8,0:0|0:1,0:0:0:0:
209,201,261478,1,8,0:1:0:0:
283,278,261628,6,0,B|348:326|348:326|416:282,1,160,14|8,0:1|0:1,0:0:0:0:
468,342,262078,1,8,0:1:0:0:
479,235,262228,2,0,B|484:152,1,80,14|0,0:0|0:0,0:0:0:0:
379,210,262528,1,10,0:1:0:0:
379,210,262678,1,8,0:1:0:0:
341,46,262978,5,8,0:1:0:0:
341,46,263128,2,0,B|305:62|305:62|255:37,1,80,10|0,0:1|0:0,0:0:0:0:
184,136,263428,2,0,B|220:117|220:117|256:133,1,80,14|2,0:0|0:0,0:0:0:0:
139,47,263728,1,10,0:1:0:0:
139,47,263878,1,10,0:1:0:0:
36,131,264028,6,0,B|12:170|12:170|40:301,1,160,14|8,0:1|0:1,0:0:0:0:
55,360,264478,1,8,0:1:0:0:
120,269,264628,1,14,0:0:0:0:
242,380,264928,1,8,0:1:0:0:
242,380,265078,1,10,0:1:0:0:
339,254,265378,1,8,0:1:0:0:
339,254,265528,1,10,0:1:0:0:
459,376,265828,5,12,0:0:0:0:
468,289,265978,1,12,0:0:0:0:
477,202,266128,1,12,0:0:0:0:
486,115,266278,1,12,0:0:0:0:
410,42,266428,6,0,B|389:66|384:96|384:96|240:64,1,176.000005371094,14|8,0:1|0:1,0:0:0:0:
204,116,266878,1,8,0:1:0:0:
139,13,267028,2,0,B|181:26|181:26|228:2,1,88.000002685547,14|0,0:0|0:0,0:0:0:0:
85,85,267328,1,10,0:1:0:0:
85,85,267478,2,0,B|48:128|48:128|91:258,1,176.000005371094,8|8,0:1|0:1,0:0:0:0:
161,347,267928,2,0,B|145:306|145:306|169:258,1,88.000002685547,8|0,0:1|0:0,0:0:0:0:
278,136,268228,2,0,L|375:123,1,88.000002685547,14|0,0:0|0:0,0:0:0:0:
450,172,268528,1,10,0:1:0:0:
450,172,268678,1,10,0:1:0:0:
379,17,268828,5,14,0:1:0:0:
280,242,269128,5,8,0:2:0:0:
278,136,269278,1,8,0:2:0:0:
192,216,269428,1,8,2:2:0:0:
184,91,269578,1,8,2:2:0:0:
102,195,269728,1,8,2:2:0:0:
106,56,269878,1,8,2:2:0:0:
12,169,270028,6,0,B|18:104|83:89|138:118|157:194|85:222|78:225|65:228|20:284|62:364|161:370|186:288|181:229|85:187,1,480.000018310548,14|4,0:1|0:0,0:0:0:0:
512,341,272428,6,0,B|474:338|441:329|441:329|411:343|411:343|386:336|341:333,1,176.000005371094,14|10,0:1|0:0,0:0:0:0:
267,206,272878,2,0,B|289:168|289:168|271:127,1,88.000002685547,2|8,0:0|0:1,0:0:0:0:
138,199,273178,2,0,B|116:237|116:237|133:277,1,88.000002685547,2|8,0:0|0:0,0:0:0:0:
280,211,273478,2,0,B|302:173|302:173|284:132,1,88.000002685547,2|8,0:0|0:1,0:0:0:0:
284,132,273928,6,0,B|184:119,1,88.000002685547,10|0,0:0|0:0,0:0:0:0:
374,87,274228,2,0,P|372:40|400:-7,1,88.000002685547,10|0,0:1|0:0,0:0:0:0:
461,148,274528,2,0,P|479:187|476:231,1,88.000002685547,10|0,0:0|0:0,0:0:0:0:
381,317,274828,6,0,B|327:307|327:307|296:318|296:318|206:305,1,176.000005371094,14|10,0:1|0:0,0:0:0:0:
61,224,275278,2,0,L|166:209,1,88.000002685547,2|8,0:0|0:1,0:0:0:0:
224,115,275578,2,0,L|119:100,1,88.000002685547,2|8,0:0|0:0,0:0:0:0:
27,18,275878,2,0,L|132:3,1,88.000002685547,2|8,0:0|0:1,0:0:0:0:
305,162,276328,6,0,P|319:119|304:72,1,88.000002685547,10|0,0:0|0:0,0:0:0:0:
173,189,276628,2,0,P|159:232|174:279,1,88.000002685547,10|0,0:1|0:0,0:0:0:0:
236,358,276928,1,10,0:0:0:0:
236,358,277078,1,0,0:0:0:0:
353,303,277228,6,0,B|397:296|423:325|423:325|467:339|504:298,1,155.999992858887,14|0,0:1|0:0,0:0:0:0:
495,306,277528,2,0,L|489:215,1,88.000002685547,10|0,0:0|0:0,0:0:0:0:
393,111,277828,1,10,0:1:0:0:
393,111,277978,2,0,L|399:20,1,88.000002685547,2|8,0:0|0:0,0:0:0:0:
272,108,278278,6,0,B|169:71|195:146|102:112,1,176.000005371094,2|0,0:0|0:0,0:0:0:0:
225,189,278728,2,0,P|212:229|233:278,1,88.000002685547,10|0,0:0|0:0,0:0:0:0:
326,369,279028,5,10,0:1:0:0:
359,278,279178,1,2,0:0:0:0:
441,329,279328,1,10,0:0:0:0:
474,238,279478,1,2,0:0:0:0:
360,173,279628,6,0,B|321:177|297:199|297:199|208:183,1,155.999992858887,14|0,0:1|0:0,0:0:0:0:
195,177,279928,2,0,P|191:132|213:95,1,88.000002685547,10|0,0:0|0:0,0:0:0:0:
281,250,280228,1,10,0:1:0:0:
281,250,280378,2,0,P|285:295|263:332,1,88.000002685547,2|8,0:1|0:0,0:0:0:0:
66,364,280828,6,0,B|31:377|31:377|40:318|40:318|17:225,1,176.000005371094,10|8,3:1|3:2,0:0:0:0:
99,133,281278,1,0,3:0:0:0:
99,133,281353,1,0,3:0:0:0:
99,133,281428,2,0,B|58:201|-6:190|-6:190|-5:160|33:142,1,176.000005371094,8|8,3:1|3:2,0:0:0:0:
174,263,282028,5,10,0:3:0:0:
211,268,282103,1,8,0:3:0:0:
245,274,282178,1,8,0:3:0:0:
280,281,282253,1,8,0:3:0:0:
315,287,282328,1,14,0:0:0:0:
426,257,282478,6,0,B|441:215|441:215|424:175,1,88.000002685547,2|8,0:0|0:1,0:0:0:0:
315,287,282778,2,0,B|300:329|300:329|317:369,1,88.000002685547,2|8,0:0|0:0,0:0:0:0:
442,261,283078,2,0,B|457:219|457:219|440:179,1,88.000002685547,2|8,0:0|0:1,0:0:0:0:
440,179,283528,6,0,B|407:171|407:171|393:175|393:175|354:166,1,88.000002685547,10|0,0:0|0:0,0:0:0:0:
271,77,283828,2,0,B|303:69|303:69|318:73|318:73|356:64,1,88.000002685547,10|0,0:1|0:0,0:0:0:0:
262,175,284128,2,0,B|229:167|229:167|215:171|215:171|176:162,1,88.000002685547,10|0,0:0|0:0,0:0:0:0:
297,270,284428,6,0,P|299:339|393:363,1,176.000005371094,14|10,0:1|0:0,0:0:0:0:
493,274,284878,2,0,B|502:181,1,88.000002685547,2|8,0:0|0:1,0:0:0:0:
364,151,285178,2,0,B|355:58,1,88.000002685547,2|8,0:0|0:0,0:0:0:0:
220,191,285478,2,0,B|229:98,1,88.000002685547,2|8,0:0|0:1,0:0:0:0:
42,18,285928,6,0,B|78:15|78:15|88:19|88:19|138:16,1,88.000002685547,10|0,0:0|0:0,0:0:0:0:
228,103,286228,2,0,B|191:100|191:100|181:104|181:104|131:101,1,88.000002685547,10|0,0:1|0:0,0:0:0:0:
293,25,286528,1,10,0:0:0:0:
293,25,286678,1,0,0:0:0:0:
381,133,286828,6,0,B|402:157|402:157|411:79|411:79|443:46,1,155.999992858887,14|0,0:1|0:0,0:0:0:0:
459,40,287128,2,0,P|486:75|482:123,1,88.000002685547,10|0,0:0|0:0,0:0:0:0:
401,240,287428,1,10,0:1:0:0:
401,240,287578,2,0,L|305:231,1,88.000002685547,2|8,0:0|0:0,0:0:0:0:
177,150,287878,6,0,P|208:74|129:13,1,176.000005371094,2|0,0:0|0:0,0:0:0:0:
47,79,288328,2,0,L|30:182,1,88.000002685547,10|0,0:0|0:0,0:0:0:0:
81,289,288628,5,10,0:1:0:0:
169,249,288778,1,2,0:0:0:0:
203,339,288928,1,10,0:0:0:0:
281,281,289078,1,2,0:0:0:0:
377,353,289228,6,0,B|456:375|456:375|493:311,1,155.999992858887,14|0,0:1|0:0,0:0:0:0:
493,311,289528,2,0,L|488:213,1,88.000002685547,10|0,0:0|0:0,0:0:0:0:
425,95,289828,1,10,0:1:0:0:
425,95,289978,2,0,P|396:117|343:110,1,88.000002685547,2|8,0:0|0:0,0:0:0:0:
97,4,290428,5,2,3:1:0:0:
159,81,290578,1,0,1:0:0:0:
191,66,290653,1,0,1:0:0:0:
225,74,290728,1,0,1:0:0:0:
248,99,290803,1,0,1:0:0:0:
250,134,290878,2,0,P|239:159|231:190,5,44.0000013427735,0|0|0|0|0|0,1:0|1:0|1:0|1:0|1:0|1:0,0:0:0:0:
265,247,291328,2,0,P|276:272|284:303,3,44.0000013427735,0|0|0|0,1:0|1:0|1:0|1:0,0:0:0:0:
222,342,291628,6,0,L|181:348,2,32,2|2|2,0:0|0:0|0:0,0:0:0:0:
297,364,292078,2,0,L|371:368,2,64,2|2|2,0:0|0:0|0:0,0:0:0:0:
