osu file format v14

[General]
AudioFilename: audio.mp3
AudioLeadIn: 0
PreviewTime: 94301
Countdown: 0
SampleSet: Soft
StackLeniency: 0.7
Mode: 0
LetterboxInBreaks: 0
WidescreenStoryboard: 1

[Editor]
Bookmarks: 13581,25952,37086,46982,56879,66776,85332,95228,105125,115022,128051,133576,161410,166358,176255,186152,196049,205946,215842,223265,240594,250490,260387,272758,286984
DistanceSpacing: 1
BeatDivisor: 4
GridSize: 32
TimelineZoom: 1.600004

[Metadata]
Title:Reigetsu Reception
TitleUnicode:零月レセプション
Artist:Genkaku Aria
ArtistUnicode:幻覚アリア
Creator:Hinsvar
Version:Insane
Source:
Tags:Hallucination Aria ゆっき yukki# yukki 花たん Hanatan YuRiCa Japanese Rock J-Rock JRock symphonic gothic Featured Artist FA Mappers' Guild MG MPG
BeatmapID:4158585
BeatmapSetID:1998353

[Difficulty]
HPDrainRate:5
CircleSize:3.7
OverallDifficulty:8
ApproachRate:9
SliderMultiplier:1.6
SliderTickRate:1

[Events]
//Background and Video events
0,0,"BG.jpg",0,0
//Break Periods
2,28426,34630
2,133775,158955
2,223265,238747
//Storyboard Layer 0 (Background)
//Storyboard Layer 1 (Fail)
//Storyboard Layer 2 (Pass)
//Storyboard Layer 3 (Foreground)
//Storyboard Layer 4 (Overlay)
//Storyboard Sound Samples

[TimingPoints]
13581,309.278350515464,4,2,1,60,1,0
23477,-250,4,2,1,50,0,0
25952,309.278350515464,4,2,1,50,1,0
35230,-250,4,2,1,50,0,0
35848,-100,4,2,1,70,0,0
37086,309.278350515464,4,2,1,70,1,0
66776,309.278350515464,3,2,1,70,1,0
85332,309.278350515464,4,2,1,70,1,0
95228,-83.3333333333333,4,2,1,80,0,1
115022,315.789473684211,3,2,1,30,1,0
115022,-166.666666666667,6,2,1,30,0,0
115969,307.692307692308,3,2,1,30,1,8
115969,-166.666666666667,3,2,1,30,0,0
116892,322.58064516129,3,2,1,30,1,8
116892,-166.666666666667,3,2,1,30,0,8
117859,342.857142857143,3,2,1,30,1,8
117859,-166.666666666667,3,2,1,30,0,8
118201,240,3,2,1,30,1,8
118201,-166.666666666667,3,2,1,30,0,8
118441,319.148936170213,3,2,1,30,1,8
118441,-166.666666666667,3,2,1,30,0,8
118760,309.278350515464,3,2,1,30,1,0
118760,-166.666666666667,3,2,1,30,0,8
119069,-166.666666666667,6,2,1,40,0,0
122471,315.789473684211,3,2,1,30,1,0
122471,-166.666666666667,6,2,1,30,0,0
123418,307.692307692308,3,2,1,30,1,8
123418,-166.666666666667,3,2,1,30,0,0
124341,309.278350515464,3,2,1,30,1,8
124341,-166.666666666667,3,2,1,30,0,8
125578,-166.666666666667,3,2,1,30,0,8
126196,309.278350515464,3,2,1,30,1,0
126196,-166.666666666667,3,2,1,30,0,8
126505,-166.666666666667,6,2,1,40,0,0
128051,303.030303030303,3,2,1,40,1,8
128051,-166.666666666667,3,2,1,40,0,8
129869,306.122448979592,3,2,1,40,1,0
129869,-166.666666666667,3,2,1,40,0,0
130175,309.278350515464,3,2,1,40,1,8
130175,-166.666666666667,3,2,1,40,0,0
130793,309.278350515464,3,2,1,40,1,8
130793,-166.666666666667,3,2,1,40,0,8
131720,309.278350515464,3,2,1,30,1,0
131720,-166.666666666667,3,2,1,30,0,0
161410,309.278350515464,4,2,1,60,1,0
166358,-100,4,2,1,70,0,0
215842,311.688311688312,4,2,1,70,1,0
215945,-100,4,2,1,50,0,0
223265,309.278350515464,4,2,1,70,1,0
240275,319.148936170213,4,2,1,70,1,8
240594,309.278350515464,4,2,1,80,1,1
240594,-83.3333333333333,4,2,1,80,0,1
260387,-125,4,2,1,70,0,0
270890,-125,4,2,1,40,0,0
271508,-125,4,2,1,60,0,0
272758,309.278350515464,3,2,1,80,1,1
272758,-83.3333333333333,3,2,1,80,0,1
283892,-83.3333333333333,3,2,1,70,0,0
285747,-83.3333333333333,3,2,1,80,0,1
286984,-83.3333333333333,3,2,1,30,0,0

[Colours]
Combo1 : 187,202,102
Combo2 : 92,165,224
Combo3 : 242,216,66
Combo4 : 123,210,180

[HitObjects]
12,70,13581,5,6,3:2:0:0:
250,33,13890,1,2,3:2:0:0:
500,314,16055,5,6,3:2:0:0:
262,351,16364,1,2,3:2:0:0:
73,357,18529,5,6,3:2:0:0:
36,119,18838,1,2,3:2:0:0:
439,27,21003,5,6,3:2:0:0:
476,265,21312,1,2,3:2:0:0:
200,220,23477,6,0,P|255:128|312:220,2,256,2|2|2,0:0|0:0|0:0,0:0:0:0:
399,33,35230,6,0,P|445:48|467:98,1,96,2|0,0:0|0:0,0:0:0:0:
343,195,35848,5,8,0:0:0:0:
341,215,35926,1,0,3:0:0:0:
340,234,36003,2,0,L|336:285,3,40,0|0|0|0,3:0|3:0|3:0|3:0,0:0:0:0:
229,294,36312,5,8,0:0:0:0:
220,275,36390,1,0,3:0:0:0:
212,258,36467,2,0,L|189:211,3,40,0|0|0|0,3:0|3:0|3:0|3:0,0:0:0:0:
76,315,36776,5,8,0:0:0:0:
93,327,36854,1,8,0:0:0:0:
110,339,36931,1,8,0:0:0:0:
127,351,37008,1,8,0:0:0:0:
144,363,37086,1,4,3:2:0:0:
333,366,37240,5,10,0:0:0:0:
426,290,37395,2,0,P|437:282|465:276,2,40,0|0|8,3:0|3:0|0:0,0:0:0:0:
313,247,37704,2,0,P|288:235|249:193,1,80,2|8,3:2|0:0,0:0:0:0:
217,19,38013,1,0,3:0:0:0:
217,19,38091,1,0,3:0:0:0:
217,19,38168,1,8,0:0:0:0:
91,108,38323,6,0,B|139:155|184:155|336:25|409:22|474:78|472:133|431:190|369:149,1,480,2|0,3:2|3:0,0:0:0:0:
251,197,39405,5,0,3:0:0:0:
251,197,39482,1,0,3:0:0:0:
251,197,39560,2,0,P|264:234|267:283,1,80,10|8,3:2|0:0,0:0:0:0:
188,365,39869,2,0,P|149:357|105:335,1,80,0|8,3:0|0:0,0:0:0:0:
74,226,40178,2,0,P|99:196|140:169,1,80,2|8,3:2|0:0,0:0:0:0:
112,69,40488,2,0,L|102:20,2,40,0|0|8,3:0|3:0|0:0,0:0:0:0:
292,31,40797,5,2,3:2:0:0:
272,165,40951,1,8,0:0:0:0:
414,193,41106,1,0,3:0:0:0:
414,193,41183,1,0,3:0:0:0:
414,193,41261,1,8,0:0:0:0:
442,51,41415,2,0,P|475:87|477:122,1,80,2|8,3:2|0:0,0:0:0:0:
334,232,41725,2,0,P|337:251|351:264,2,40,0|0|8,3:0|3:0|0:0,0:0:0:0:
354,104,42034,5,4,3:2:0:0:
168,85,42189,1,10,0:0:0:0:
266,51,42343,2,0,P|272:31|272:0,2,40,2|0|8,3:0|3:0|0:0,0:0:0:0:
70,119,42653,2,0,P|59:153|59:207,1,80,2|0,3:2|0:0,0:0:0:0:
112,371,42962,1,0,3:0:0:0:
112,371,43039,1,0,3:0:0:0:
112,371,43116,1,8,0:0:0:0:
2,277,43271,6,0,B|41:283|127:305|193:197|306:211|326:322|265:370|139:354|136:216|226:174,1,480,2|0,3:2|3:0,0:0:0:0:
313,101,44354,5,0,3:0:0:0:
313,101,44431,1,0,3:0:0:0:
313,101,44508,2,0,P|314:57|325:14,1,80,6|8,3:2|0:0,0:0:0:0:
443,85,44817,2,0,P|480:107|512:138,1,80,0|8,3:0|0:0,0:0:0:0:
391,205,45127,2,0,P|352:226|309:238,1,80,2|8,3:2|0:0,0:0:0:0:
131,163,45436,2,0,L|86:159,2,40,0|0|8,3:0|3:0|0:0,0:0:0:0:
252,172,45745,1,2,3:2:0:0:
121,81,45900,6,0,L|125:36,1,40,12|0,0:0|0:0,0:0:0:0:
101,241,46055,2,0,L|97:286,3,40,0|0|0|0,3:0|3:0|3:0|3:0,0:0:0:0:
89,355,46364,1,6,3:2:0:0:
247,344,46518,5,8,0:0:0:0:
266,343,46596,1,8,0:0:0:0:
286,341,46673,1,8,0:0:0:0:
306,339,46750,1,8,0:0:0:0:
326,337,46828,1,8,0:0:0:0:
346,336,46905,1,8,0:0:0:0:
366,334,46982,1,6,3:2:0:0:
256,192,47137,12,8,49147,0:0:0:0:
165,130,49457,6,0,P|145:115|106:115,2,53.3333333333333,14|0|0,0:0|3:0|3:0,0:0:0:0:
243,114,49766,2,0,P|251:90|239:53,2,53.3333333333333,10|0|0,0:0|3:0|3:0,0:0:0:0:
282,183,50075,2,0,P|306:183|338:160,2,53.3333333333333,10|0|0,0:0|3:0|3:0,0:0:0:0:
228,241,50384,2,0,P|235:264|266:287,2,53.3333333333333,10|0|0,0:0|3:0|3:0,0:0:0:0:
156,208,50694,2,0,P|135:222|123:259,2,53.3333333333333,10|0|0,0:0|3:0|3:0,0:0:0:0:
165,130,51003,5,10,0:0:0:0:
153,106,51106,2,0,L|160:48,1,53.3333333333333,0|0,3:0|3:0,0:0:0:0:
323,12,51312,1,10,0:0:0:0:
335,36,51415,2,0,L|328:94,1,53.3333333333333,0|0,3:0|3:0,0:0:0:0:
344,168,51622,2,0,L|228:154,1,106.666666666667,10|0,0:0|3:0,0:0:0:0:
92,157,51931,6,0,L|39:163,2,53.3333333333333,14|0|0,0:0|3:0|3:0,0:0:0:0:
85,236,52240,2,0,L|91:288,2,53.3333333333333,10|0|0,0:0|3:0|3:0,0:0:0:0:
164,243,52549,2,0,L|216:236,2,53.3333333333333,10|0|0,0:0|3:0|3:0,0:0:0:0:
171,164,52859,2,0,L|164:111,2,53.3333333333333,10|0|0,0:0|3:0|3:0,0:0:0:0:
288,199,53168,6,0,P|298:176|322:158,2,53.3333333333333,10|0|0,0:0|3:0|3:0,0:0:0:0:
325,271,53477,2,0,P|349:281|365:302,2,53.3333333333333,10|0|0,0:0|3:0|3:0,0:0:0:0:
253,308,53787,2,0,P|243:331|219:349,2,53.3333333333333,10|0|0,0:0|3:0|3:0,0:0:0:0:
215,235,54096,2,0,P|191:225|175:204,2,53.3333333333333,10|0|0,0:0|3:0|3:0,0:0:0:0:
383,209,54405,6,0,L|443:216,2,53.3333333333333,14|0|0,0:0|3:0|3:0,0:0:0:0:
396,130,54714,2,0,L|421:75,2,53.3333333333333,10|0|0,0:0|3:0|3:0,0:0:0:0:
324,93,55024,2,0,L|279:52,2,53.3333333333333,10|0|0,0:0|3:0|3:0,0:0:0:0:
267,149,55333,2,0,L|214:178,2,53.3333333333333,10|0|0,0:0|3:0|3:0,0:0:0:0:
303,221,55642,6,0,L|314:280,2,53.3333333333333,10|0|0,0:0|3:0|3:0,0:0:0:0:
407,345,55951,2,0,L|395:285,2,53.3333333333333,10|0|0,0:0|3:0|3:0,0:0:0:0:
257,367,56261,5,12,0:0:0:0:
150,337,56415,1,10,0:0:0:0:
150,337,56493,1,8,0:0:0:0:
150,337,56570,2,0,L|97:331,3,40,10|8|10|8,0:0|0:0|0:0|0:0,0:0:0:0:
70,328,56879,6,0,P|61:287|33:249,1,80,4|0,3:2|3:0,0:0:0:0:
83,89,57189,1,2,3:2:0:0:
83,89,57266,1,0,3:0:0:0:
83,89,57343,2,0,P|101:171|157:247,1,160,8|10,0:0|0:0,0:0:0:0:
256,317,57807,2,0,L|245:364,2,40,0|0|8,3:0|3:0|0:0,0:0:0:0:
397,304,58116,6,0,B|451:254|428:164|339:147|323:55|386:14,1,320,2|0,3:2|3:0,0:0:0:0:
478,125,58890,1,10,0:0:0:0:
304,204,59044,1,0,3:0:0:0:
304,204,59122,1,0,3:0:0:0:
304,204,59199,1,8,0:0:0:0:
195,122,59354,6,0,P|115:110|41:80,1,160,6|2,3:2|3:2,0:0:0:0:
41,80,59740,1,0,3:0:0:0:
41,80,59817,2,0,L|50:170,1,80,8|0,0:0|3:0,0:0:0:0:
19,292,60127,2,0,L|92:240,1,80,10|0,0:0|3:0,0:0:0:0:
140,170,60436,2,0,L|286:237,1,160,10|8,0:0|0:0,0:0:0:0:
455,312,60900,1,2,3:2:0:0:
455,312,60977,1,0,3:0:0:0:
455,312,61055,1,8,0:0:0:0:
294,334,61209,2,0,P|256:336|212:357,1,80,2|8,3:2|0:0,0:0:0:0:
446,214,61518,2,0,P|445:194|457:161,2,40,2|0|8,3:2|3:0|0:0,0:0:0:0:
346,84,61828,6,0,P|185:93|43:19,1,320,6|0,3:2|3:0,0:0:0:0:
3,152,62601,1,10,0:0:0:0:
110,190,62756,1,0,3:0:0:0:
110,190,62833,1,0,3:0:0:0:
110,190,62910,1,8,0:0:0:0:
166,300,63065,2,0,P|327:291|469:365,1,320,2|0,3:2|3:0,0:0:0:0:
509,232,63838,1,10,0:0:0:0:
402,194,63993,2,0,P|396:173|394:143,2,40,0|0|8,3:0|3:0|0:0,0:0:0:0:
249,316,64302,6,0,P|198:372|117:365,1,160,6|2,3:2|3:2,0:0:0:0:
119,366,64689,1,0,3:0:0:0:
119,366,64766,2,0,L|29:339,1,80,8|0,0:0|3:0,0:0:0:0:
131,196,65075,2,0,L|152:287,1,80,10|0,0:0|3:0,0:0:0:0:
148,273,65307,1,0,3:0:0:0:
148,273,65384,1,8,0:0:0:0:
345,350,65539,5,10,0:0:0:0:
397,357,65642,1,8,0:0:0:0:
445,337,65745,1,0,3:0:0:0:
477,295,65848,5,10,0:0:0:0:
483,243,65951,1,8,0:0:0:0:
462,194,66055,1,0,3:0:0:0:
420,163,66158,6,0,P|425:137|459:112,2,53.3333333333333,2|0|0,3:2|3:0|3:0,0:0:0:0:
344,137,66467,2,0,P|319:145|281:127,2,53.3333333333333,2|0|0,3:2|3:0|3:0,0:0:0:0:
360,216,66776,6,0,P|367:257|359:298,1,80,12|0,0:0|3:0,0:0:0:0:
222,362,67085,1,8,0:0:0:0:
118,341,67239,1,0,3:0:0:0:
35,213,67394,2,0,L|167:198,1,120,8|0,0:0|0:0,0:0:0:0:
154,199,67703,2,0,L|144:111,1,80,8|0,0:0|3:0,0:0:0:0:
319,22,68013,5,10,0:0:0:0:
240,90,68167,1,0,3:0:0:0:
336,123,68322,1,10,0:0:0:0:
423,63,68477,5,0,3:0:0:0:
423,63,68554,1,0,3:0:0:0:
423,63,68631,2,0,P|463:71|495:117,1,80,14|0,0:0|3:0,0:0:0:0:
463,232,68940,2,0,P|455:272|409:304,1,80,10|0,0:0|3:0,0:0:0:0:
294,272,69250,2,0,P|254:264|222:218,1,80,10|0,0:0|3:0,0:0:0:0:
254,103,69559,5,10,0:0:0:0:
187,22,69714,1,0,3:0:0:0:
84,37,69868,1,10,0:0:0:0:
46,135,70023,1,0,3:0:0:0:
114,215,70178,1,10,0:0:0:0:
224,210,70332,5,0,3:0:0:0:
224,210,70410,1,0,3:0:0:0:
224,210,70487,2,0,P|205:304|144:343,1,160,14|8,0:0|0:0,0:0:0:0:
472,205,71105,1,10,0:0:0:0:
334,168,71260,1,0,3:0:0:0:
373,29,71415,1,10,0:0:0:0:
512,68,71569,1,0,3:0:0:0:
283,81,71724,6,0,P|262:60|243:15,1,80,10|0,0:0|3:0,0:0:0:0:
224,210,72033,1,10,0:0:0:0:
33,83,72188,1,0,3:0:0:0:
33,83,72265,1,0,3:0:0:0:
33,83,72343,2,0,P|66:116|97:188,1,120,14|0,0:0|0:0,0:0:0:0:
95,182,72652,2,0,L|70:268,1,80,10|0,0:0|3:0,0:0:0:0:
270,382,72961,2,0,L|294:295,1,80,10|0,0:0|3:0,0:0:0:0:
323,208,73270,5,10,0:0:0:0:
323,208,73425,1,0,3:0:0:0:
253,26,73580,1,10,0:0:0:0:
222,142,73734,1,0,3:0:0:0:
416,132,73889,1,14,0:0:0:0:
373,20,74044,1,0,3:0:0:0:
137,57,74198,6,0,P|95:53|54:34,1,80,12|0,0:0|3:0,0:0:0:0:
26,222,74507,1,8,0:0:0:0:
129,206,74662,1,0,3:0:0:0:
191,349,74817,2,0,P|254:355|315:383,1,120,8|0,0:0|0:0,0:0:0:0:
305,377,75126,2,0,P|308:335|327:294,1,80,8|0,0:0|3:0,0:0:0:0:
479,169,75435,5,10,0:0:0:0:
359,123,75590,1,0,3:0:0:0:
242,175,75745,1,10,0:0:0:0:
362,221,75899,5,0,3:0:0:0:
362,221,75977,1,0,3:0:0:0:
362,221,76054,2,0,P|400:234|435:263,1,80,14|0,0:0|3:0,0:0:0:0:
226,272,76363,2,0,P|194:298|152:314,1,80,10|0,0:0|3:0,0:0:0:0:
249,128,76672,2,0,P|241:87|249:43,1,80,10|0,0:0|3:0,0:0:0:0:
410,24,76982,5,10,0:0:0:0:
475,91,77136,1,0,3:0:0:0:
383,114,77291,1,10,0:0:0:0:
273,206,77446,1,2,3:2:0:0:
326,339,77600,1,8,0:0:0:0:
468,329,77755,1,0,3:0:0:0:
468,329,77832,1,0,3:0:0:0:
468,329,77910,1,4,3:2:0:0:
505,191,78064,6,0,P|440:205|344:260,1,160,8|8,0:0|0:0,0:0:0:0:
233,374,78528,1,0,3:0:0:0:
233,374,78605,1,0,3:0:0:0:
233,374,78683,1,8,0:0:0:0:
122,320,78837,2,0,P|127:280|122:232,1,80,2|8,3:2|0:0,0:0:0:0:
102,51,79147,6,0,P|100:31|102:11,2,40,2|0|8,3:2|3:0|0:0,0:0:0:0:
9,127,79456,1,2,3:2:0:0:
124,159,79611,1,8,0:0:0:0:
217,83,79765,1,6,3:2:0:0:
363,22,79920,6,0,P|424:76|516:92,1,160,8|8,0:0|0:0,0:0:0:0:
487,202,80384,1,0,3:0:0:0:
487,202,80461,1,0,3:0:0:0:
487,202,80538,1,8,0:0:0:0:
367,148,80693,2,0,P|340:178|332:224,1,80,2|8,3:2|0:0,0:0:0:0:
347,371,81002,2,0,P|374:340|382:294,1,80,0|8,3:0|0:0,0:0:0:0:
238,265,81312,2,0,P|224:280|220:303,2,40,2|0|8,3:2|3:0|0:0,0:0:0:0:
225,108,81621,5,6,3:2:0:0:
308,22,81776,2,0,P|230:20|140:7,1,160,8|8,0:0|0:0,0:0:0:0:
53,49,82239,1,0,3:0:0:0:
53,49,82317,1,0,3:0:0:0:
53,49,82394,1,8,0:0:0:0:
3,140,82549,2,0,P|42:141|87:147,1,80,0|8,3:0|0:0,0:0:0:0:
211,220,82858,2,0,P|208:239|207:259,2,40,0|0|8,3:0|3:0|0:0,0:0:0:0:
311,190,83167,1,2,3:2:0:0:
236,119,83322,1,8,0:0:0:0:
114,228,83477,6,0,P|83:256|32:266,1,80,6|8,3:2|0:0,0:0:0:0:
148,373,83786,1,2,3:2:0:0:
148,373,83863,1,0,3:0:0:0:
148,373,83940,1,8,0:0:0:0:
256,327,84095,1,2,3:2:0:0:
256,327,84172,1,0,3:0:0:0:
256,327,84250,2,0,L|256:281,2,40,8|0|6,0:0|0:0|3:2,0:0:0:0:
364,373,84559,5,8,0:0:0:0:
381,362,84636,1,8,0:0:0:0:
396,349,84714,1,10,0:0:0:0:
409,334,84791,1,8,0:0:0:0:
419,317,84868,1,8,0:0:0:0:
427,299,84946,1,8,0:0:0:0:
431,279,85023,2,0,L|380:285,3,40,10|8|8|8,0:0|0:0|0:0|0:0,0:0:0:0:
336,230,85332,5,6,3:2:0:0:
478,215,85486,2,0,P|481:128|461:44,1,160,6|0,3:2|0:0,0:0:0:0:
465,57,87033,1,4,3:2:0:0:
256,192,87342,1,4,3:2:0:0:
47,57,87651,1,4,3:2:0:0:
194,51,87806,5,4,3:2:0:0:
113,169,87960,2,0,P|93:258|133:313,1,160,4|0,3:2|0:0,0:0:0:0:
129,310,89507,1,4,3:2:0:0:
97,59,89816,1,4,3:2:0:0:
348,27,90125,1,4,3:2:0:0:
368,157,90280,5,4,3:2:0:0:
368,157,90435,1,0,3:0:0:0:
434,236,90589,2,0,L|424:329,1,80,8|0,0:0|3:0,0:0:0:0:
277,301,90899,2,0,L|287:208,2,80,8|0|0,0:0|3:0|3:0,0:0:0:0:
139,360,91362,2,0,P|115:306|19:259,1,160,8|0,0:0|3:0,0:0:0:0:
24,131,91826,2,0,P|82:137|171:77,1,160,8|0,0:0|3:0,0:0:0:0:
279,145,92290,2,0,P|261:168|265:222,1,80,8|0,0:0|3:0,0:0:0:0:
310,376,92600,1,8,0:0:0:0:
431,341,92754,5,8,0:0:0:0:
431,341,92832,1,8,0:0:0:0:
431,341,92909,2,0,P|452:331|464:314,3,40,2|0|0|0,3:2|3:0|3:0|3:0,0:0:0:0:
472,242,93218,1,2,3:2:0:0:
452,236,93295,1,0,3:0:0:0:
435,226,93373,1,0,3:0:0:0:
420,212,93450,1,0,3:0:0:0:
409,196,93527,2,0,L|386:155,3,40,2|0|0|0,3:2|3:0|3:0|3:0,0:0:0:0:
404,76,93837,2,0,L|321:212,1,160,6|0,3:2|0:0,0:0:0:0:
320,212,95228,5,6,3:2:0:0:
189,82,95383,2,0,P|127:57|46:53,1,143.999995605469,8|0,0:0|0:0,0:0:0:0:
10,119,95692,2,0,P|30:127|57:128,2,47.9999985351563,10|0|0,0:0|0:0|3:0,0:0:0:0:
92,234,96002,1,10,0:0:0:0:
244,305,96156,1,0,3:0:0:0:
244,305,96234,1,0,3:0:0:0:
244,305,96311,1,8,0:0:0:0:
364,267,96466,6,0,P|352:306|340:381,1,95.9999970703126,2|8,3:2|0:0,0:0:0:0:
139,374,96775,1,0,3:0:0:0:
139,374,96852,1,0,3:0:0:0:
139,374,96929,2,0,P|125:279|98:186,1,191.999994140625,10|10,0:0|0:0,0:0:0:0:
15,27,97393,2,0,P|37:35|60:41,2,47.9999985351563,0|0|10,3:0|3:0|0:0,0:0:0:0:
204,81,97703,6,0,P|292:80|361:1,1,191.999994140625,6|0,3:2|3:0,0:0:0:0:
445,124,98167,2,0,P|423:162|440:211,1,95.9999970703126,10|0,0:0|3:0,0:0:0:0:
304,263,98476,2,0,P|281:225|230:215,1,95.9999970703126,10|0,0:0|3:0,0:0:0:0:
233,215,98708,1,0,3:0:0:0:
233,215,98785,1,10,0:0:0:0:
36,248,98940,6,0,L|134:257,1,95.9999970703126,0|8,3:0|0:0,0:0:0:0:
122,371,99249,2,0,L|24:362,1,95.9999970703126,0|8,3:0|0:0,0:0:0:0:
15,163,99558,1,0,3:0:0:0:
187,149,99713,1,8,0:0:0:0:
200,322,99868,1,2,3:2:0:0:
200,322,99945,1,0,3:0:0:0:
200,322,100022,1,8,0:0:0:0:
324,225,100177,6,0,P|327:166|348:80,1,143.999995605469,6|0,3:2|0:0,0:0:0:0:
419,57,100486,2,0,P|424:33|426:9,2,47.9999985351563,2|0|8,3:2|3:0|0:0,0:0:0:0:
210,74,100795,6,0,L|110:44,1,95.9999970703126,2|8,3:2|0:0,0:0:0:0:
50,14,101027,2,0,L|74:115,1,95.9999970703126,2|0,3:2|3:0,0:0:0:0:
79,183,101259,2,0,L|116:147,1,47.9999985351563,10|0,0:0|3:0,0:0:0:0:
245,150,101414,6,0,L|382:283,1,191.999994140625,2|0,3:2|3:0,0:0:0:0:
502,118,101878,1,10,0:0:0:0:
404,176,102033,2,0,P|383:131|395:77,1,95.9999970703126,0|8,3:0|0:0,0:0:0:0:
262,18,102342,1,2,3:2:0:0:
100,71,102496,5,8,0:0:0:0:
100,71,102574,1,0,3:0:0:0:
100,71,102651,2,0,P|142:161|118:269,1,191.999994140625,6|0,3:2|3:0,0:0:0:0:
297,364,103115,1,10,0:0:0:0:
183,312,103270,2,0,P|138:333|84:321,1,95.9999970703126,0|8,3:0|0:0,0:0:0:0:
350,251,103579,2,0,P|372:240|399:246,2,47.9999985351563,0|0|8,3:0|3:0|0:0,0:0:0:0:
237,198,103888,6,0,P|250:175|248:92,1,95.9999970703126,0|8,3:0|0:0,0:0:0:0:
57,189,104197,2,0,P|70:211|143:251,1,95.9999970703126,0|8,3:0|0:0,0:0:0:0:
154,37,104507,2,0,P|127:37|56:80,1,95.9999970703126,0|8,3:0|0:0,0:0:0:0:
152,143,104816,1,0,3:0:0:0:
152,143,104893,1,0,3:0:0:0:
152,143,104971,1,8,0:0:0:0:
360,143,105125,6,0,P|409:149|460:162,1,95.9999970703126,6|8,3:2|0:0,0:0:0:0:
491,330,105435,2,0,P|488:354|481:380,2,47.9999985351563,0|0|8,3:0|3:0|0:0,0:0:0:0:
346,349,105744,6,0,L|310:255,1,95.9999970703126,2|8,3:2|0:0,0:0:0:0:
188,278,105976,2,0,L|287:293,1,95.9999970703126,2|0,3:2|3:0,0:0:0:0:
328,176,106208,2,0,L|296:215,1,47.9999985351563,10|0,0:0|3:0,0:0:0:0:
161,196,106362,6,0,L|40:46,1,191.999994140625,2|0,3:2|3:0,0:0:0:0:
40,46,106749,1,0,3:0:0:0:
40,46,106826,1,8,0:0:0:0:
239,147,106981,2,0,L|216:4,2,143.999995605469,2|2|10,3:2|3:2|0:0,0:0:0:0:
296,380,107600,6,0,L|280:284,1,95.9999970703126,4|8,3:2|0:0,0:0:0:0:
120,225,107909,1,2,3:2:0:0:
120,225,107986,1,0,3:0:0:0:
120,225,108063,1,8,0:0:0:0:
82,317,108218,2,0,L|177:301,1,95.9999970703126,2|8,3:2|0:0,0:0:0:0:
125,131,108527,2,0,L|77:138,2,47.9999985351563,2|0|8,3:2|3:0|0:0,0:0:0:0:
282,20,108837,5,2,3:2:0:0:
419,62,108991,1,8,0:0:0:0:
377,199,109146,1,2,3:2:0:0:
239,156,109301,2,0,P|236:182|245:211,2,47.9999985351563,8|0|0,0:0|0:0|3:0,0:0:0:0:
105,227,109610,2,0,P|97:175|64:123,2,95.9999970703126,8|0|8,0:0|3:0|0:0,0:0:0:0:
261,356,110074,6,0,P|408:351|468:235,1,287.999991210938,6|8,3:2|0:0,0:0:0:0:
319,185,110692,6,0,L|333:85,1,95.9999970703126,2|8,3:2|0:0,0:0:0:0:
473,109,110924,2,0,L|379:146,1,95.9999970703126,2|0,3:2|3:0,0:0:0:0:
331,14,111156,2,0,L|370:45,1,47.9999985351563,10|0,0:0|3:0,0:0:0:0:
240,141,111311,6,0,L|80:16,1,191.999994140625,2|2,3:2|3:2,0:0:0:0:
88,22,111697,1,0,3:0:0:0:
88,22,111775,1,8,0:0:0:0:
155,192,111929,2,0,L|140:292,1,95.9999970703126,2|8,3:2|0:0,0:0:0:0:
37,360,112239,2,0,L|43:312,2,47.9999985351563,2|0|8,3:2|3:0|0:0,0:0:0:0:
232,349,112548,6,0,P|330:323|428:320,1,191.999994140625,6|0,3:2|3:0,0:0:0:0:
495,184,113012,2,0,P|446:197|397:198,1,95.9999970703126,10|0,0:0|3:0,0:0:0:0:
291,92,113321,1,8,0:0:0:0:
438,50,113476,2,0,P|442:34|441:1,2,47.9999985351563,0|0|8,3:0|3:0|0:0,0:0:0:0:
214,21,113785,5,4,3:2:0:0:
153,39,113888,1,0,3:0:0:0:
103,79,113991,1,0,3:0:0:0:
71,134,114094,5,4,3:2:0:0:
62,197,114197,1,0,3:0:0:0:
76,259,114301,1,0,3:0:0:0:
112,312,114404,6,0,P|94:335|53:338,2,63.9999980468751,0|0|0,3:0|3:0|3:0,0:0:0:0:
173,266,114713,2,0,P|162:238|180:201,2,63.9999980468751,0|0|0,3:0|3:0|3:0,0:0:0:0:
182,341,115022,6,0,P|226:358|300:361,2,95.9999970703126,2|0|0,0:0|0:0|0:0,0:0:0:0:
270,176,115969,2,0,P|365:182|455:215,1,191.999994140625,2|0,0:0|0:0,0:0:0:0:
417,300,116738,1,2,0:0:0:0:
335,345,116892,2,0,P|263:341|196:316,1,143.999995605469,2|0,0:0|0:0,0:0:0:0:
102,319,117537,2,0,P|104:296|112:273,1,47.9999985351563,2|0,0:0|0:0,0:0:0:0:
21,226,117859,2,0,P|17:272|1:318,1,95.9999970703126,2|0,0:0|0:0,0:0:0:0:
141,187,118441,1,2,0:0:0:0:
172,98,118600,1,2,0:0:0:0:
232,170,118760,1,2,0:0:0:0:
403,315,119069,6,0,P|432:316|504:339,1,95.9999970703126,2|0,0:0|0:0,0:0:0:0:
434,158,119687,2,0,P|420:132|404:58,2,95.9999970703126,2|0|0,0:0|0:0|0:0,0:0:0:0:
283,210,120615,2,0,P|252:259|140:360,1,191.999994140625,2|0,0:0|0:0,0:0:0:0:
89,175,121543,2,0,P|119:125|231:24,1,191.999994140625,2|0,0:0|0:0,0:0:0:0:
388,99,122471,6,0,P|434:101|487:93,2,95.9999970703126,2|0|0,0:0|0:0|0:0,0:0:0:0:
213,167,123418,2,0,P|216:258|201:364,1,191.999994140625,2|0,0:0|0:0,0:0:0:0:
295,347,124187,1,2,0:0:0:0:
385,370,124341,2,0,P|381:278|396:172,1,191.999994140625,2|0,0:0|0:0,0:0:0:0:
467,119,125114,1,2,0:0:0:0:
484,210,125268,1,2,0:0:0:0:
293,92,125578,2,0,B|247:65|202:84|199:110|159:123|104:104,1,191.999994140625,2|0,0:0|0:0,0:0:0:0:
39,240,126505,6,0,P|31:290|7:328,2,95.9999970703126,2|0|0,0:0|0:0|0:0,0:0:0:0:
220,283,127433,2,0,P|195:323|188:370,1,95.9999970703126,2|0,0:0|0:0,0:0:0:0:
410,372,128051,6,0,B|418:283|384:216|266:236|216:160|298:51|377:34|428:68|451:132|387:184|404:222|449:246|499:224|531:184|507:150,1,575.999982421876,2|0,0:0|0:0,0:0:0:0:
378,23,130175,6,0,P|332:22|284:46,2,95.9999970703126,2|0|0,0:0|0:0|0:0,0:0:0:0:
352,208,131102,2,0,P|348:255|324:296,1,95.9999970703126,2|0,0:0|0:0,0:0:0:0:
176,179,131720,6,0,B|95:140|99:24|220:13|287:37|301:181|291:237|262:291|181:313|108:269|80:216,1,575.999982421876,2|2,3:2|0:0,0:0:0:0:
256,192,159555,12,0,161256,0:0:0:0:
76,63,161410,5,6,3:2:0:0:
144,318,161719,1,6,3:2:0:0:
144,318,163111,5,6,3:2:0:0:
212,63,163420,1,6,3:2:0:0:
467,131,163729,1,6,3:2:0:0:
357,46,163884,5,6,3:2:0:0:
127,173,164193,1,6,3:2:0:0:
127,173,165585,5,6,3:2:0:0:
385,173,165894,1,6,3:2:0:0:
374,276,166049,5,8,0:0:0:0:
354,274,166126,1,8,0:0:0:0:
335,268,166203,1,8,0:0:0:0:
318,257,166281,1,8,0:0:0:0:
304,243,166358,1,6,3:2:0:0:
198,132,166513,6,0,P|184:71|213:17,1,120,8|0,0:0|0:0,0:0:0:0:
208,20,166822,2,0,P|167:28|131:9,1,80,8|0,0:0|3:0,0:0:0:0:
302,113,167131,1,8,0:0:0:0:
401,145,167286,2,0,P|416:131|437:130,2,40,0|0|8,3:0|3:0|0:0,0:0:0:0:
325,288,167595,6,0,L|342:385,1,80,2|8,3:2|0:0,0:0:0:0:
192,315,167904,1,2,3:2:0:0:
192,315,167982,1,0,3:0:0:0:
192,315,168059,1,8,0:0:0:0:
1,322,168214,2,0,L|63:271,1,80,2|8,3:2|0:0,0:0:0:0:
25,172,168523,2,0,L|18:132,2,40,2|0|8,3:2|3:0|0:0,0:0:0:0:
202,208,168832,6,0,P|162:207|128:188,1,80,6|8,3:2|0:0,0:0:0:0:
311,38,169141,1,2,3:2:0:0:
311,38,169219,1,0,3:0:0:0:
311,38,169296,2,0,P|351:39|385:58,2,80,8|2|8,0:0|3:2|0:0,0:0:0:0:
194,118,169760,2,0,L|187:71,2,40,2|0|8,3:2|3:0|0:0,0:0:0:0:
219,301,170069,5,2,3:2:0:0:
308,355,170224,2,0,L|357:363,2,40,8|0|2,0:0|3:0|3:2,0:0:0:0:
379,255,170533,2,0,L|425:237,2,40,8|0|2,0:0|3:0|3:2,0:0:0:0:
253,201,170842,1,8,0:0:0:0:
390,132,170997,1,2,3:2:0:0:
402,116,171074,1,0,3:0:0:0:
415,101,171152,1,8,0:0:0:0:
427,85,171229,1,0,3:0:0:0:
439,69,171306,6,0,P|399:54|369:10,1,80,6|8,3:2|0:0,0:0:0:0:
221,17,171616,1,0,3:0:0:0:
221,17,171693,1,0,3:0:0:0:
221,17,171770,2,0,P|191:97|103:157,1,160,10|8,0:0|0:0,0:0:0:0:
46,90,172234,2,0,P|24:93|0:84,2,40,2|0|8,3:2|3:0|0:0,0:0:0:0:
66,215,172544,6,0,L|53:376,1,160,2|0,3:2|3:0,0:0:0:0:
53,374,172930,1,0,3:0:0:0:
53,374,173007,1,8,0:0:0:0:
202,302,173162,2,0,L|195:222,1,80,2|8,3:2|0:0,0:0:0:0:
281,163,173471,2,0,L|320:159,2,40,0|0|8,3:0|3:0|0:0,0:0:0:0:
220,38,173781,6,0,P|240:64|302:69,1,80,6|0,3:2|3:0,0:0:0:0:
425,187,174090,1,2,3:2:0:0:
425,187,174167,1,0,3:0:0:0:
425,187,174245,2,0,P|359:195|289:298,1,160,8|8,0:0|0:0,0:0:0:0:
364,340,174708,2,0,P|359:361|352:400,2,40,2|0|8,3:2|3:0|0:0,0:0:0:0:
494,320,175018,6,0,P|500:292|509:240,1,80,2|8,3:2|0:0,0:0:0:0:
483,92,175327,1,0,3:0:0:0:
483,92,175404,1,0,3:0:0:0:
483,92,175482,1,8,0:0:0:0:
380,19,175636,2,0,P|352:27|302:45,1,80,0|8,3:0|0:0,0:0:0:0:
365,188,175946,2,0,P|378:183|403:174,2,40,0|0|8,3:0|3:0|0:0,0:0:0:0:
198,141,176255,5,6,3:2:0:0:
178,143,176332,1,0,3:0:0:0:
158,140,176410,1,8,0:0:0:0:
140,132,176487,1,0,3:0:0:0:
125,119,176564,2,0,L|133:73,3,40,2|0|8|0,3:2|3:0|0:0|3:0,0:0:0:0:
60,60,176873,1,2,3:2:0:0:
60,60,176951,1,0,3:0:0:0:
60,60,177028,2,0,L|53:99,2,40,8|0|2,0:0|3:0|3:2,0:0:0:0:
26,253,177337,6,0,P|117:235|219:227,1,160,10|8,0:0|0:0,0:0:0:0:
183,228,177724,1,0,3:0:0:0:
183,228,177801,1,2,3:2:0:0:
343,335,177956,2,0,P|368:340|394:352,1,40,8|0,0:0|3:0,0:0:0:0:
453,318,178111,2,0,P|458:293|470:267,3,40,2|0|8|0,3:2|3:0|0:0|3:0,0:0:0:0:
436,208,178420,1,2,3:2:0:0:
416,205,178497,1,0,3:0:0:0:
396,201,178574,1,8,0:0:0:0:
377,195,178652,1,0,3:0:0:0:
359,187,178729,2,0,P|334:114|364:33,1,160,6|0,3:2|3:0,0:0:0:0:
180,28,179193,5,10,0:0:0:0:
180,28,179270,1,0,3:0:0:0:
180,28,179348,2,0,P|199:59|208:105,1,80,0|8,3:0|0:0,0:0:0:0:
34,143,179657,2,0,P|14:111|5:65,1,80,2|8,3:2|0:0,0:0:0:0:
109,87,179966,5,2,3:2:0:0:
203,191,180121,2,0,L|302:212,1,80,8|0,0:0|3:0,0:0:0:0:
138,332,180430,1,10,0:0:0:0:
138,332,180507,1,0,3:0:0:0:
138,332,180585,2,0,L|-10:363,1,120,0|0,3:0|0:0,0:0:0:0:
26,280,180894,2,0,L|42:229,3,40,2|0|8|0,3:2|3:0|0:0|3:0,0:0:0:0:
7,171,181203,6,0,B|78:149|102:106|85:69|123:30|202:8,1,240,6|8,3:2|0:0,0:0:0:0:
304,51,181822,1,2,3:2:0:0:
323,56,181899,1,0,3:0:0:0:
342,59,181977,1,8,0:0:0:0:
362,60,182054,1,0,3:0:0:0:
382,59,182131,2,0,P|405:54|427:31,3,40,2|0|8|0,3:2|3:0|0:0|3:0,0:0:0:0:
492,28,182440,6,0,B|500:66|487:100|460:100|441:127|448:176,1,160,0|2,3:0|3:2,0:0:0:0:
321,259,182904,2,0,P|322:278|339:304,1,40,8|2,0:0|3:2,0:0:0:0:
403,325,183059,2,0,P|355:327|289:370,1,120,2|0,3:2|0:0,0:0:0:0:
218,361,183368,1,2,3:2:0:0:
218,361,183446,1,0,3:0:0:0:
218,361,183523,1,8,0:0:0:0:
7,312,183678,6,0,P|3:279|20:227,1,80,6|8,3:2|0:0,0:0:0:0:
177,249,183987,2,0,P|150:268|96:280,1,80,0|8,3:0|0:0,0:0:0:0:
148,85,184296,1,0,3:0:0:0:
38,134,184451,2,0,P|68:147|105:187,1,80,8|0,0:0|3:0,0:0:0:0:
237,168,184760,2,0,P|243:153|263:134,2,40,10|2|6,0:0|3:2|3:2,0:0:0:0:
362,272,185069,5,8,0:0:0:0:
381,269,185147,1,8,0:0:0:0:
401,267,185224,1,8,0:0:0:0:
421,265,185301,1,8,0:0:0:0:
441,263,185379,1,8,0:0:0:0:
461,261,185456,1,8,0:0:0:0:
481,258,185533,2,0,L|453:221,3,40,0|0|0|0,3:0|3:0|3:0|3:0,0:0:0:0:
455,149,185842,2,0,L|466:56,1,80,2|0,3:2|3:0,0:0:0:0:
318,30,186152,6,0,B|215:81|231:205|397:173|408:288|318:355,1,400,6|0,3:2|0:0,0:0:0:0:
318,354,187389,2,0,B|243:324|243:324|176:371,1,160,14|0,0:0|3:0,0:0:0:0:
144,114,187853,2,0,B|219:144|219:144|286:97,1,160,14|0,0:0|3:0,0:0:0:0:
271,238,188317,2,0,L|169:228,1,80,14|0,0:0|3:0,0:0:0:0:
49,106,188626,6,0,L|56:26,2,80,2|0|8,3:2|3:0|0:0,0:0:0:0:
34,254,189090,1,0,3:0:0:0:
142,324,189245,2,0,P|164:324|186:308,3,40,0|0|8|8,3:0|3:0|0:0|0:0,0:0:0:0:
224,210,189554,2,0,P|213:227|214:247,3,40,2|0|0|0,3:2|3:0|3:0|3:0,0:0:0:0:
255,310,189863,5,10,0:0:0:0:
272,318,189940,1,8,0:0:0:0:
288,331,190018,1,0,3:0:0:0:
299,347,190095,1,0,3:0:0:0:
307,366,190172,2,0,L|356:363,3,40,0|0|0|0,3:0|3:0|3:0|3:0,0:0:0:0:
406,314,190482,2,0,L|403:265,3,40,0|0|0|0,3:0|3:0|3:0|3:0,0:0:0:0:
354,215,190791,2,0,P|314:173|325:110,1,120,4|0,3:2|0:0,0:0:0:0:
370,56,191100,6,0,P|314:109|230:94,2,160,6|8|0,3:2|0:0|3:0,0:0:0:0:
175,22,191873,1,2,3:2:0:0:
86,103,192028,2,0,P|70:65|76:20,1,80,8|0,0:0|3:0,0:0:0:0:
161,210,192337,6,0,P|147:235|15:325,1,160,2|8,3:2|0:0,0:0:0:0:
211,345,192801,2,0,P|229:311|405:192,1,240,2|8,3:2|0:0,0:0:0:0:
111,121,193574,6,0,P|39:95|14:2,2,160,6|8|0,3:2|0:0|3:0,0:0:0:0:
262,106,194348,1,0,3:0:0:0:
237,8,194502,2,0,P|274:4|313:20,1,80,10|0,0:0|3:0,0:0:0:0:
505,120,194812,5,2,3:2:0:0:
428,143,194966,1,0,3:0:0:0:
405,66,195121,1,8,0:0:0:0:
490,51,195275,2,0,P|496:90|499:218,1,160,2|0,3:2|3:0,0:0:0:0:
499,210,195662,1,0,3:0:0:0:
499,210,195739,2,0,P|475:228|393:278,1,120,12|0,0:0|0:0,0:0:0:0:
325,301,196049,5,6,3:2:0:0:
196,375,196203,1,2,3:2:0:0:
187,83,196977,5,6,3:2:0:0:
316,9,197131,1,2,3:2:0:0:
330,192,197904,5,6,3:2:0:0:
182,194,198059,2,0,P|105:197|19:113,1,200,2|0,3:2|0:0,0:0:0:0:
20,116,198523,5,10,0:0:0:0:
148,97,198678,2,0,L|161:18,1,80,0|0,3:0|3:0,0:0:0:0:
352,18,198987,2,0,L|365:97,2,80,12|0|0,0:0|3:0|3:0,0:0:0:0:
491,116,199451,2,0,P|473:166|467:247,1,120,10|0,0:0|0:0,0:0:0:0:
397,266,199760,5,10,0:0:0:0:
399,286,199837,1,8,0:0:0:0:
404,305,199915,1,8,0:0:0:0:
412,324,199992,1,8,0:0:0:0:
421,341,200069,2,0,P|402:347|381:356,3,40,0|0|2|0,3:0|3:0|3:2|3:0,0:0:0:0:
309,330,200379,2,0,P|292:340|274:354,3,40,0|0|0|0,3:0|3:0|3:0|3:0,0:0:0:0:
215,315,200688,2,0,P|212:255|202:187,1,120,14|0,0:0|0:0,0:0:0:0:
204,195,200997,6,0,L|117:218,1,80,14|0,0:0|3:0,0:0:0:0:
26,244,201306,1,0,3:0:0:0:
158,374,201461,6,0,L|181:287,1,80,12|0,0:0|3:0,0:0:0:0:
204,195,201770,1,0,3:0:0:0:
51,142,201925,6,0,L|74:55,1,80,12|0,0:0|3:0,0:0:0:0:
233,27,202234,6,0,P|234:66|266:113,1,80,12|0,0:0|3:0,0:0:0:0:
331,168,202544,1,0,3:0:0:0:
504,154,202698,6,0,P|468:135|412:139,1,80,12|0,0:0|3:0,0:0:0:0:
331,168,203007,1,0,3:0:0:0:
257,325,203162,6,0,P|290:304|314:252,1,80,12|0,0:0|3:0,0:0:0:0:
322,45,203471,6,0,L|407:34,2,80,14|0|0,0:0|3:0|3:0,0:0:0:0:
190,192,203935,2,0,L|105:181,2,80,12|0|0,0:0|3:0|3:0,0:0:0:0:
322,339,204399,6,0,P|383:341|441:307,1,120,14|0,0:0|0:0,0:0:0:0:
454,241,204708,1,10,0:0:0:0:
434,237,204786,1,8,0:0:0:0:
414,239,204863,1,8,0:0:0:0:
395,246,204940,1,8,0:0:0:0:
379,257,205018,2,0,L|371:209,3,40,0|0|0|0,3:0|3:0|3:0|3:0,0:0:0:0:
327,155,205327,2,0,L|278:147,3,40,0|0|0|0,3:0|3:0|3:0|3:0,0:0:0:0:
213,172,205636,2,0,L|191:215,3,40,0|0|0|0,3:0|3:0|3:0|3:0,0:0:0:0:
193,285,205946,6,0,P|120:304|40:337,1,160,12|8,0:0|0:0,0:0:0:0:
91,208,206410,1,0,3:0:0:0:
23,129,206564,2,0,P|59:119|99:103,1,80,10|0,0:0|3:0,0:0:0:0:
257,151,206873,2,0,P|286:114|292:29,1,120,8|0,0:0|0:0,0:0:0:0:
295,43,207183,6,0,L|333:122,1,80,10|0,0:0|0:0,0:0:0:0:
491,161,207492,2,0,L|404:154,1,80,8|0,0:0|0:0,0:0:0:0:
291,271,207801,2,0,L|340:199,1,80,8|0,0:0|3:0,0:0:0:0:
418,243,208111,1,10,0:0:0:0:
498,356,208265,5,0,3:0:0:0:
498,356,208342,1,0,3:0:0:0:
498,356,208420,2,0,P|436:351|382:376,1,120,14|0,0:0|0:0,0:0:0:0:
384,375,208729,2,0,P|345:359|301:354,1,80,8|0,0:0|3:0,0:0:0:0:
164,366,209038,2,0,P|197:340|223:304,1,80,8|0,0:0|3:0,0:0:0:0:
282,179,209348,2,0,P|287:221|305:261,1,80,8|0,0:0|3:0,0:0:0:0:
465,265,209657,5,10,0:0:0:0:
502,167,209812,2,0,P|508:129|509:77,1,80,0|8,3:0|0:0,0:0:0:0:
326,1,210121,1,2,3:2:0:0:
289,99,210275,2,0,P|283:137|282:189,2,80,8|0|10,0:0|3:0|0:0,0:0:0:0:
143,22,210739,5,0,3:0:0:0:
143,22,210817,1,0,3:0:0:0:
143,22,210894,2,0,P|90:50|34:71,1,120,14|0,0:0|0:0,0:0:0:0:
34,71,211203,2,0,P|43:109|77:141,1,80,8|0,0:0|3:0,0:0:0:0:
256,105,211513,2,0,P|218:93|173:107,1,80,8|0,0:0|3:0,0:0:0:0:
115,280,211822,2,0,P|143:253|154:207,1,80,8|0,0:0|3:0,0:0:0:0:
338,268,212131,6,0,L|349:367,1,80,8|0,0:0|3:0,0:0:0:0:
399,164,212440,2,0,L|479:104,1,80,8|0,0:0|3:0,0:0:0:0:
279,164,212750,5,8,0:0:0:0:
147,106,212904,1,0,3:0:0:0:
147,106,212982,1,0,3:0:0:0:
147,106,213059,2,0,P|93:88|22:77,1,120,14|0,0:0|0:0,0:0:0:0:
14,152,213368,6,0,P|31:157|55:161,1,40,6|0,3:2|0:0,0:0:0:0:
222,181,213523,1,8,0:0:0:0:
224,161,213600,1,8,0:0:0:0:
227,141,213678,1,8,0:0:0:0:
229,121,213755,1,8,0:0:0:0:
232,101,213832,1,8,0:0:0:0:
234,81,213910,1,8,0:0:0:0:
237,61,213987,2,0,L|286:40,3,40,8|8|8|8,0:0|0:0|0:0|0:0,0:0:0:0:
350,41,214296,2,0,L|343:93,3,40,8|8|8|8,0:0|0:0|0:0|0:0,0:0:0:0:
310,148,214605,5,4,3:2:0:0:
333,195,214708,1,8,0:0:0:0:
378,222,214812,1,0,3:0:0:0:
430,220,214915,5,4,3:2:0:0:
473,189,215018,1,8,0:0:0:0:
492,140,215121,1,0,3:0:0:0:
482,89,215224,6,0,L|466:29,2,53.3333333333333,0|0|0,3:0|3:0|3:0,0:0:0:0:
405,104,215533,2,0,L|344:120,2,53.3333333333333,0|0|0,3:0|3:0|3:0,0:0:0:0:
419,181,215842,5,0,3:0:0:0:
256,192,215945,12,2,218335,0:0:0:0:
420,44,239347,6,0,P|451:106|447:185,1,120,6|0,3:2|0:0,0:0:0:0:
377,160,239656,5,0,3:0:0:0:
367,143,239734,1,0,3:0:0:0:
360,124,239811,1,0,3:0:0:0:
356,105,239888,1,0,3:0:0:0:
354,85,239966,2,0,L|311:75,3,40,0|0|0|0,3:0|3:0|3:0|3:0,0:0:0:0:
239,60,240275,1,8,0:0:0:0:
273,324,240594,5,6,3:2:0:0:
148,222,240748,2,0,P|94:269|16:298,1,143.999995605469,8|0,0:0|0:0,0:0:0:0:
9,220,241057,2,0,P|26:204|52:194,2,47.9999985351563,10|0|0,0:0|0:0|3:0,0:0:0:0:
22,27,241367,1,10,0:0:0:0:
215,40,241521,1,0,3:0:0:0:
215,40,241599,1,0,3:0:0:0:
215,40,241676,1,8,0:0:0:0:
62,108,241831,6,0,L|158:98,1,95.9999970703126,2|8,3:2|0:0,0:0:0:0:
354,98,242140,1,0,3:0:0:0:
354,98,242217,1,0,3:0:0:0:
354,98,242295,2,0,P|406:123|439:247,1,191.999994140625,10|10,0:0|0:0,0:0:0:0:
418,381,242758,2,0,P|405:374|396:343,2,47.9999985351563,0|0|10,3:0|3:0|0:0,0:0:0:0:
335,207,243068,6,0,L|182:351,1,191.999994140625,6|0,3:2|3:0,0:0:0:0:
101,166,243532,2,0,L|201:196,1,95.9999970703126,10|0,0:0|3:0,0:0:0:0:
91,362,243841,2,0,L|68:268,1,95.9999970703126,10|0,0:0|3:0,0:0:0:0:
68,268,244073,1,0,3:0:0:0:
68,268,244150,1,10,0:0:0:0:
38,75,244305,6,0,P|84:77|146:57,1,95.9999970703126,0|8,3:0|0:0,0:0:0:0:
284,10,244614,2,0,P|259:48|245:112,1,95.9999970703126,0|8,3:0|0:0,0:0:0:0:
217,255,244923,1,0,3:0:0:0:
364,375,245078,1,8,0:0:0:0:
484,228,245233,1,2,3:2:0:0:
484,228,245310,1,0,3:0:0:0:
484,228,245387,1,8,0:0:0:0:
357,290,245542,6,0,P|374:221|353:152,1,143.999995605469,6|0,3:2|0:0,0:0:0:0:
324,80,245851,2,0,P|317:57|322:34,2,47.9999985351563,2|0|8,3:2|3:0|0:0,0:0:0:0:
170,125,246161,6,0,L|72:92,1,95.9999970703126,2|8,3:2|0:0,0:0:0:0:
128,214,246392,2,0,L|205:145,1,95.9999970703126,2|0,3:2|3:0,0:0:0:0:
71,133,246624,2,0,L|81:183,1,47.9999985351563,10|0,0:0|3:0,0:0:0:0:
46,319,246779,6,0,L|248:278,1,191.999994140625,2|0,3:2|3:0,0:0:0:0:
412,221,247243,1,8,0:0:0:0:
412,221,247320,1,0,3:0:0:0:
412,221,247398,2,0,P|421:263|404:322,2,95.9999970703126,2|8|0,0:2|0:0|3:0,0:0:0:0:
296,24,247862,5,8,0:0:0:0:
296,24,247939,1,0,3:0:0:0:
296,24,248016,2,0,P|283:70|292:116,1,95.9999970703126,6|0,3:2|3:0,0:0:0:0:
413,96,248325,2,0,P|419:73|415:50,2,47.9999985351563,0|0|8,3:0|3:0|0:0,0:0:0:0:
312,214,248635,6,0,L|218:192,1,95.9999970703126,0|8,3:0|0:0,0:0:0:0:
12,201,248944,2,0,L|106:223,1,95.9999970703126,0|8,3:0|0:0,0:0:0:0:
168,57,249253,2,0,L|146:151,1,95.9999970703126,0|8,3:0|0:0,0:0:0:0:
301,301,249563,1,0,3:0:0:0:
301,301,249640,1,0,3:0:0:0:
301,301,249717,1,8,0:0:0:0:
155,357,249872,6,0,L|177:263,1,95.9999970703126,2|8,3:2|0:0,0:0:0:0:
42,294,250104,2,0,L|112:360,1,95.9999970703126,2|0,3:2|3:0,0:0:0:0:
153,227,250336,2,0,L|106:240,1,47.9999985351563,10|0,0:0|3:0,0:0:0:0:
16,139,250490,6,0,P|108:155|172:87,1,191.999994140625,6|0,3:2|3:0,0:0:0:0:
341,45,250954,2,0,P|357:28|379:32,2,47.9999985351563,10|0|2,0:0|0:0|3:2,0:0:0:0:
294,214,251264,2,0,P|285:260|290:324,1,95.9999970703126,8|0,0:0|3:0,0:0:0:0:
180,371,251573,1,8,0:0:0:0:
371,268,251728,6,0,P|417:277|481:272,1,95.9999970703126,0|8,3:0|0:0,0:0:0:0:
217,160,252037,1,0,3:0:0:0:
217,160,252114,1,0,3:0:0:0:
217,160,252191,1,8,0:0:0:0:
401,187,252346,6,0,L|435:82,1,95.9999970703126,2|8,3:2|0:0,0:0:0:0:
339,36,252578,2,0,L|412:117,1,95.9999970703126
500,57,252810,2,0,L|446:68,1,47.9999985351563,10|0,0:0|3:0,0:0:0:0:
323,143,252965,6,0,L|107:189,1,191.999994140625,6|0,3:2|3:0,0:0:0:0:
272,378,253429,1,10,0:0:0:0:
247,259,253583,2,0,L|201:43,1,191.999994140625,0|0,3:0|3:0,0:0:0:0:
207,71,253970,1,0,3:0:0:0:
207,71,254047,1,10,0:0:0:0:
396,25,254202,6,0,P|440:45|490:48,1,95.9999970703126,0|8,3:0|0:0,0:0:0:0:
457,171,254511,2,0,P|413:151|363:148,1,95.9999970703126,0|8,3:0|0:0,0:0:0:0:
291,208,254820,1,0,3:0:0:0:
305,371,254975,1,8,0:0:0:0:
468,357,255130,1,0,3:0:0:0:
468,357,255207,1,0,3:0:0:0:
468,357,255284,1,8,0:0:0:0:
234,292,255439,6,0,P|107:282|44:143,1,287.999991210938,6|10,3:2|0:0,0:0:0:0:
245,18,256057,6,0,L|215:121,1,95.9999970703126,2|8,3:2|0:0,0:0:0:0:
135,168,256289,2,0,L|239:142,1,95.9999970703126,2|0,3:2|3:0,0:0:0:0:
320,189,256521,2,0,L|282:150,1,47.9999985351563,10|0,0:0|3:0,0:0:0:0:
371,9,256676,6,0,L|523:165,1,191.999994140625,2|0,3:2|3:0,0:0:0:0:
504,146,257063,1,0,3:0:0:0:
504,146,257140,1,10,0:0:0:0:
479,278,257295,2,0,L|449:382,1,95.9999970703126,0|2,3:0|0:0,0:0:0:0:
318,301,257604,2,0,L|306:254,2,47.9999985351563,0|0|10,3:0|3:0|0:0,0:0:0:0:
184,372,257913,6,0,P|122:317|1:326,1,191.999994140625,6|0,3:2|3:0,0:0:0:0:
6,145,258377,2,0,P|37:172|97:168,1,95.9999970703126,10|0,0:0|3:0,0:0:0:0:
227,280,258686,1,8,0:0:0:0:
251,107,258841,2,0,P|262:86|284:78,2,47.9999985351563,0|0|8,3:0|3:0|0:0,0:0:0:0:
195,192,259150,5,4,3:2:0:0:
258,196,259253,1,0,3:0:0:0:
320,211,259356,1,0,3:0:0:0:
376,241,259459,5,4,3:2:0:0:
410,294,259563,1,0,3:0:0:0:
376,341,259666,1,0,3:0:0:0:
321,316,259769,6,0,P|311:348|261:358,2,63.9999980468751,2|0|0,3:2|3:0|3:0,0:0:0:0:
248,294,260078,2,0,P|225:268|242:220,2,63.9999980468751,0|0|0,3:0|3:0|3:0,0:0:0:0:
304,240,260387,6,0,P|337:233|441:108,1,192,6|0,3:2|3:0,0:0:0:0:
357,21,261006,2,0,P|312:29|174:196,1,256,10|0,0:0|3:0,0:0:0:0:
176,176,261779,1,0,3:0:0:0:
260,377,262088,1,0,3:0:0:0:
260,377,262243,1,10,0:0:0:0:
334,177,262552,1,2,0:0:0:0:
200,83,262862,6,0,P|127:101|31:36,1,192,6|0,3:2|3:0,0:0:0:0:
52,172,263480,2,0,P|87:207|81:284,1,128,10|0,0:0|0:0,0:0:0:0:
82,281,263944,1,2,0:0:0:0:
187,200,264099,6,0,P|193:175|228:159,1,64,0|0,3:0|3:0,0:0:0:0:
300,233,264408,2,0,P|293:257|258:273,1,64,0|0,3:0|3:0,0:0:0:0:
197,355,264717,1,8,0:0:0:0:
95,342,264872,1,0,3:0:0:0:
56,248,265026,2,0,P|49:214|49:173,1,64,0|0,3:0|3:0,0:0:0:0:
138,7,265336,6,0,P|155:94|156:201,1,192,6|0,3:2|3:0,0:0:0:0:
248,243,265954,2,0,P|281:213|327:186,2,96,10|0|2,0:0|0:0|3:2,0:0:0:0:
163,303,266573,1,2,3:2:0:0:
411,363,266882,6,0,P|442:363|472:336,1,64,2|0,0:0|3:0,0:0:0:0:
491,244,267191,2,0,P|491:182|437:122,2,128,8|0|6,0:0|0:0|3:2,0:0:0:0:
256,192,267965,12,0,270284,0:0:0:0:
256,192,270903,5,0,0:0:0:0:
256,192,270980,1,0,0:0:0:0:
256,192,271057,1,2,0:0:0:0:
377,335,271521,5,2,3:2:0:0:
399,71,271985,1,2,3:2:0:0:
135,49,272449,1,2,3:2:0:0:
36,255,272758,6,0,L|123:320,1,95.9999970703126,14|0,0:0|3:0,0:0:0:0:
268,369,273067,1,10,0:0:0:0:
230,280,273221,1,0,3:0:0:0:
381,339,273376,2,0,L|511:241,1,143.999995605469,10|0,0:0|0:0,0:0:0:0:
495,252,273685,2,0,P|484:209|498:159,1,95.9999970703126,8|0,0:0|3:0,0:0:0:0:
241,100,273995,5,10,0:0:0:0:
381,74,274149,1,0,3:0:0:0:
405,215,274304,1,10,0:0:0:0:
264,239,274459,5,0,3:0:0:0:
264,239,274536,1,0,3:0:0:0:
264,239,274613,2,0,P|170:204|55:190,1,191.999994140625,14|8,0:0|0:0,0:0:0:0:
49,69,275077,1,2,3:2:0:0:
193,129,275232,1,8,0:0:0:0:
228,10,275386,1,2,3:2:0:0:
323,134,275541,6,0,P|365:109|425:98,1,95.9999970703126,10|0,0:0|3:0,0:0:0:0:
377,284,275850,2,0,P|334:260|294:213,1,95.9999970703126,8|0,0:0|3:0,0:0:0:0:
488,171,276160,2,0,P|488:219|468:277,1,95.9999970703126,8|0,0:0|3:0,0:0:0:0:
474,264,276392,1,0,3:0:0:0:
474,264,276469,2,0,L|494:371,1,95.9999970703126,12|0,0:0|3:0,0:0:0:0:
313,236,276778,5,10,0:0:0:0:
334,358,276933,1,0,3:0:0:0:
155,211,277087,2,0,P|127:280|52:303,1,143.999995605469,10|0,0:0|0:0,0:0:0:0:
65,304,277397,2,0,P|113:323|129:376,1,95.9999970703126,8|0,0:0|3:1,0:0:0:0:
334,358,277706,5,10,0:0:0:0:
207,311,277861,1,0,3:0:0:0:
273,139,278015,1,10,0:0:0:0:
400,186,278170,5,0,3:0:0:0:
400,186,278247,1,0,3:0:0:0:
400,186,278325,2,0,P|381:143|412:-1,1,191.999994140625,14|8,0:0|0:0,0:0:0:0:
459,104,278788,1,2,3:2:0:0:
302,56,278943,1,8,0:0:0:0:
181,167,279098,1,2,3:2:0:0:
99,91,279252,6,0,P|145:85|188:57,1,95.9999970703126,10|0,0:0|3:0,0:0:0:0:
287,133,279562,2,0,P|269:175|271:227,1,95.9999970703126,10|0,0:0|3:0,0:0:0:0:
165,283,279871,2,0,P|136:246|91:222,1,95.9999970703126,12|0,0:0|3:0,0:0:0:0:
93,222,280103,1,0,3:0:0:0:
93,222,280180,2,0,L|45:307,1,95.9999970703126,12|0,0:0|3:0,0:0:0:0:
207,371,280489,5,10,0:0:0:0:
254,287,280644,1,0,3:0:0:0:
181,167,280799,2,0,L|109:42,1,143.999995605469,10|0,0:0|0:0,0:0:0:0:
109,42,281108,2,0,P|143:54|213:54,1,95.9999970703126,8|0,0:0|3:0,0:0:0:0:
343,13,281417,5,10,0:0:0:0:
476,76,281572,1,0,3:0:0:0:
335,118,281727,1,10,0:0:0:0:
468,181,281881,5,0,3:0:0:0:
468,181,281959,1,0,3:0:0:0:
468,181,282036,2,0,P|455:226|439:374,1,191.999994140625,14|8,0:0|0:0,0:0:0:0:
285,359,282500,1,2,3:2:0:0:
363,253,282654,1,8,0:0:0:0:
258,167,282809,1,2,3:2:0:0:
180,273,282964,6,0,P|133:274|83:262,1,95.9999970703126,10|0,0:0|3:0,0:0:0:0:
133,100,283273,2,0,P|157:140|171:189,1,95.9999970703126,8|0,0:0|3:0,0:0:0:0:
6,227,283582,2,0,P|28:185|64:148,1,95.9999970703126,8|0,0:0|3:0,0:0:0:0:
61,150,283814,1,0,3:0:0:0:
61,150,283892,1,6,3:2:0:0:
105,16,284046,1,6,3:2:0:0:
246,262,284819,5,6,3:2:0:0:
266,122,284974,1,6,3:2:0:0:
447,340,285747,5,14,0:0:0:0:
444,264,285902,1,0,3:0:0:0:
380,305,286056,1,0,3:0:0:0:
281,154,286211,5,14,0:0:0:0:
136,107,286366,1,2,3:2:0:0:
25,209,286520,1,2,3:2:0:0:
167,256,286675,2,0,B|162:307|109:322|97:310|39:320|25:380,1,191.999994140625,14|2,0:0|0:0,0:0:0:0:
