osu file format v14

[General]
AudioFilename: audio.mp3
AudioLeadIn: 0
PreviewTime: 94301
Countdown: 0
SampleSet: Soft
StackLeniency: 0.7
Mode: 0
LetterboxInBreaks: 0
WidescreenStoryboard: 1

[Editor]
Bookmarks: 13581,25952,37086,46982,56879,66776,85332,95228,105125,115022,133576,161410,176255,186152,196049,205946,215842,223265,240594,250490,260387,272758,286984
DistanceSpacing: 1.25
BeatDivisor: 4
GridSize: 32
TimelineZoom: 1.500004

[Metadata]
Title:Reigetsu Reception
TitleUnicode:零月レセプション
Artist:Genkaku Aria
ArtistUnicode:幻覚アリア
Creator:Hinsvar
Version:Hard
Source:
Tags:Hallucination Aria ゆっき yukki# yukki 花たん Hanatan YuRiCa Japanese Rock J-Rock JRock symphonic gothic Featured Artist FA Mappers' Guild MG MPG
BeatmapID:4162295
BeatmapSetID:1998353

[Difficulty]
HPDrainRate:4
CircleSize:3.5
OverallDifficulty:6.5
ApproachRate:8
SliderMultiplier:1.36
SliderTickRate:1

[Events]
//Background and Video events
0,0,"BG.jpg",0,0
//Break Periods
2,28426,34480
2,133775,160660
2,223265,238597
//Storyboard Layer 0 (Background)
//Storyboard Layer 1 (Fail)
//Storyboard Layer 2 (Pass)
//Storyboard Layer 3 (Foreground)
//Storyboard Layer 4 (Overlay)
//Storyboard Sound Samples

[TimingPoints]
13581,309.278350515464,4,2,1,60,1,0
23477,-166.666666666667,4,2,1,50,0,0
25952,309.278350515464,4,2,1,50,1,0
35230,-166.666666666667,4,2,1,50,0,0
35848,-100,4,2,1,70,0,0
37086,309.278350515464,4,2,1,70,1,0
66776,309.278350515464,3,2,1,70,1,0
85332,309.278350515464,4,2,1,70,1,0
95228,-90.9090909090909,4,2,1,80,0,1
115022,315.789473684211,3,2,1,30,1,0
115022,-125,6,2,1,30,0,0
115969,307.692307692308,3,2,1,30,1,8
115969,-125,3,2,1,30,0,0
116892,322.58064516129,3,2,1,30,1,8
116892,-125,3,2,1,30,0,8
117859,342.857142857143,3,2,1,30,1,8
117859,-125,3,2,1,30,0,8
118201,240,3,2,1,30,1,8
118201,-125,3,2,1,30,0,8
118441,319.148936170213,3,2,1,30,1,8
118441,-125,3,2,1,30,0,8
118760,309.278350515464,3,2,1,30,1,0
118760,-125,3,2,1,30,0,8
119069,-125,6,2,1,40,0,0
122471,315.789473684211,3,2,1,30,1,0
122471,-125,6,2,1,30,0,0
123418,307.692307692308,3,2,1,30,1,8
123418,-125,3,2,1,30,0,0
124341,309.278350515464,3,2,1,30,1,8
124341,-125,3,2,1,30,0,8
125578,-125,3,2,1,30,0,8
126196,309.278350515464,3,2,1,30,1,0
126196,-125,3,2,1,30,0,8
126505,-125,6,2,1,40,0,0
128051,303.030303030303,3,2,1,40,1,8
128051,-125,3,2,1,40,0,8
129869,306.122448979592,3,2,1,40,1,0
129869,-125,3,2,1,40,0,8
130175,309.278350515464,3,2,1,40,1,8
130175,-125,3,2,1,40,0,0
130793,309.278350515464,3,2,1,40,1,8
130793,-125,3,2,1,40,0,8
131102,-125,3,2,1,40,0,8
131720,309.278350515464,3,2,1,30,1,0
131720,-125,3,2,1,30,0,0
161410,309.278350515464,4,2,1,60,1,0
166358,-100,4,2,1,70,0,0
215842,311.688311688312,4,2,1,70,1,0
215945,-100,4,2,1,50,0,0
223265,309.278350515464,4,2,1,70,1,0
240275,319.148936170213,4,2,1,70,1,8
240594,309.278350515464,4,2,1,80,1,1
240594,-90.9090909090909,4,2,1,80,0,1
260387,-111.111111111111,4,2,1,70,0,0
270903,-111.111111111111,4,2,1,40,0,0
271521,-111.111111111111,4,2,1,60,0,0
272758,309.278350515464,3,2,1,80,1,1
272758,-90.9090909090909,3,2,1,80,0,1
283892,-90.9090909090909,3,2,1,70,0,0
285747,-90.9090909090909,3,2,1,80,0,1
286984,-90.9090909090909,3,2,1,30,0,0

[Colours]
Combo1 : 187,202,102
Combo2 : 92,165,224
Combo3 : 242,216,66
Combo4 : 123,210,180

[HitObjects]
39,74,13581,5,6,3:2:0:0:
213,44,13890,1,2,3:2:0:0:
473,310,16055,5,6,3:2:0:0:
299,340,16364,1,2,3:2:0:0:
66,366,18529,5,6,3:2:0:0:
36,192,18838,1,2,3:2:0:0:
446,18,21003,5,6,3:2:0:0:
476,192,21312,1,2,3:2:0:0:
254,32,23477,6,0,B|300:98|272:190|229:198|212:278|256:344,2,326.399990039063,2|2|2,0:0|0:0|0:0,0:0:0:0:
59,56,35230,6,0,P|114:50|173:96,1,122.399996264649,2|0,0:0|0:0,0:0:0:0:
153,180,35848,5,8,0:0:0:0:
153,180,35926,1,0,3:0:0:0:
153,180,36003,2,0,L|141:229,2,34,0|0|0,3:0|3:0|3:0,0:0:0:0:
247,194,36312,1,8,0:0:0:0:
247,194,36390,1,0,3:0:0:0:
247,194,36467,2,0,L|296:206,2,34,0|0|0,3:0|3:0|3:0,0:0:0:0:
261,100,36776,2,0,L|273:51,3,34,8|8|8|8,0:0|0:0|0:0|0:0,0:0:0:0:
279,33,37086,1,4,3:2:0:0:
365,49,37240,6,0,P|399:49|436:25,2,68,10|0|8,0:0|3:0|0:0,0:0:0:0:
354,136,37704,2,0,P|382:153|399:182,1,68,2|8,3:2|0:0,0:0:0:0:
480,149,38013,2,0,P|480:132|488:117,2,34,0|0|8,3:0|3:0|0:0,0:0:0:0:
509,233,38323,6,0,P|366:336|133:329,1,408,2|0,3:2|3:0,0:0:0:0:
71,283,39405,5,0,3:0:0:0:
71,283,39482,1,0,3:0:0:0:
71,283,39560,2,0,P|70:242|60:208,1,68,10|8,3:2|0:0,0:0:0:0:
49,128,39869,2,0,P|90:127|124:117,1,68,0|8,3:0|0:0,0:0:0:0:
204,106,40178,2,0,P|205:147|215:181,1,68,2|8,3:2|0:0,0:0:0:0:
226,261,40488,2,0,P|205:261|188:266,2,34,0|0|8,3:0|3:0|0:0,0:0:0:0:
287,324,40797,5,2,3:2:0:0:
368,356,40951,1,8,0:0:0:0:
427,290,41106,2,0,P|435:278|445:250,2,34,0|0|8,3:0|3:0|0:0,0:0:0:0:
346,258,41415,2,0,P|347:229|337:170,1,68,2|8,3:2|0:0,0:0:0:0:
338,101,41725,2,0,P|309:99|250:109,1,68,0|8,3:0|0:0,0:0:0:0:
181,109,42034,1,4,3:2:0:0:
97,79,42189,6,0,P|93:39|72:6,2,68,10|2|8,0:0|3:0|0:0,0:0:0:0:
28,135,42653,2,0,P|30:168|45:199,1,68,2|0,3:2|0:0,0:0:0:0:
131,217,42962,2,0,L|170:210,2,34,0|0|8,3:0|3:0|0:0,0:0:0:0:
69,280,43271,6,0,P|255:350|468:333,1,408,2|0,3:2|3:0,0:0:0:0:
499,259,44354,5,0,3:0:0:0:
499,259,44431,1,0,3:0:0:0:
499,259,44508,2,0,P|505:218|508:179,1,68,6|8,3:2|0:0,0:0:0:0:
492,104,44817,2,0,P|451:97|412:94,1,68,0|8,3:0|0:0,0:0:0:0:
336,111,45127,2,0,P|329:151|326:190,1,68,2|8,3:2|0:0,0:0:0:0:
344,266,45436,2,0,P|364:269|383:270,2,34,0|0|8,3:0|3:0|0:0,0:0:0:0:
288,335,45745,5,2,3:2:0:0:
203,360,45900,2,0,P|171:365|133:354,2,68,12|0|0,0:0|3:0|3:0,0:0:0:0:
178,275,46364,1,6,3:2:0:0:
267,250,46518,1,8,0:0:0:0:
267,250,46596,1,8,0:0:0:0:
267,250,46673,2,0,L|272:205,3,34,8|8|8|8,0:0|0:0|0:0|0:0,0:0:0:0:
281,183,46982,1,6,3:2:0:0:
256,192,47137,12,8,49147,0:0:0:0:
359,88,49457,6,0,P|348:69|350:28,2,45.3333333333333,14|0|0,0:0|3:0|3:0,0:0:0:0:
413,109,49766,2,0,P|427:93|467:82,2,45.3333333333333,10|0|0,0:0|3:0|3:0,0:0:0:0:
409,166,50075,2,0,P|428:174|450:209,2,45.3333333333333,10|0|0,0:0|3:0|3:0,0:0:0:0:
352,180,50384,2,0,P|349:200|323:233,2,45.3333333333333,10|0|0,0:0|3:0|3:0,0:0:0:0:
322,132,50694,1,10,0:0:0:0:
164,51,51003,6,0,L|66:71,1,90.6666666666667,10|0,0:0|3:0,0:0:0:0:
44,119,51312,2,0,L|110:193,1,90.6666666666667,10|0,0:0|3:0,0:0:0:0:
163,189,51622,1,10,0:0:0:0:
304,295,51931,6,0,P|309:324|324:355,2,45.3333333333333,14|0|0,0:0|3:0|3:0,0:0:0:0:
339,247,52240,2,0,P|368:242|399:227,2,45.3333333333333,10|0|0,0:0|3:0|3:0,0:0:0:0:
291,212,52549,2,0,P|286:183|271:152,2,45.3333333333333,10|0|0,0:0|3:0|3:0,0:0:0:0:
256,260,52859,1,10,0:0:0:0:
108,190,53168,6,0,L|66:229,2,45.3333333333333,10|0|0,0:0|3:0|3:0,0:0:0:0:
94,134,53477,2,0,L|54:92,2,45.3333333333333,10|0|0,0:0|3:0|3:0,0:0:0:0:
151,121,53787,2,0,L|192:81,2,45.3333333333333,10|0|0,0:0|3:0|3:0,0:0:0:0:
164,178,54096,1,10,0:0:0:0:
331,120,54405,6,0,P|342:101|334:68,2,45.3333333333333,14|0|0,0:0|3:0|3:0,0:0:0:0:
372,162,54714,2,0,P|393:162|418:138,2,45.3333333333333,10|0|0,0:0|3:0|3:0,0:0:0:0:
356,218,55024,2,0,P|366:237|399:246,2,45.3333333333333,10|0|0,0:0|3:0|3:0,0:0:0:0:
299,232,55333,2,0,P|288:251|296:284,2,45.3333333333333,10|0|0,0:0|3:0|3:0,0:0:0:0:
258,190,55642,2,0,P|236:189|211:213,2,45.3333333333333,10|0|0,0:0|3:0|3:0,0:0:0:0:
274,134,55951,1,10,0:0:0:0:
128,33,56261,5,12,0:0:0:0:
51,65,56415,1,10,0:0:0:0:
51,65,56493,1,8,0:0:0:0:
51,65,56570,2,0,L|42:114,3,34,10|8|10|8,0:0|0:0|0:0|0:0,0:0:0:0:
38,132,56879,6,0,L|136:150,1,68,4|0,3:2|3:0,0:0:0:0:
200,168,57189,1,2,3:2:0:0:
200,168,57266,1,0,3:0:0:0:
200,168,57343,2,0,P|241:218|248:301,1,136,8|10,0:0|0:0,0:0:0:0:
175,333,57807,2,0,L|182:383,2,34,0|0|8,3:0|3:0|0:0,0:0:0:0:
90,307,58116,2,0,P|68:179|139:28,1,272,2|0,3:2|3:0,0:0:0:0:
203,82,58890,1,10,0:0:0:0:
283,46,59044,2,0,L|287:-4,2,34,0|0|8,3:0|3:0|0:0,0:0:0:0:
354,99,59354,6,0,P|419:108|487:77,1,136,6|2,3:2|3:2,0:0:0:0:
505,165,59817,2,0,P|484:190|481:228,1,68,8|0,0:0|3:0,0:0:0:0:
392,239,60127,2,0,P|379:208|349:186,1,68,10|0,0:0|3:0,0:0:0:0:
263,185,60436,2,0,P|207:206|130:219,1,136,10|8,0:0|0:0,0:0:0:0:
67,164,60900,1,2,3:2:0:0:
67,164,60977,1,0,3:0:0:0:
67,164,61055,1,8,0:0:0:0:
149,132,61209,2,0,P|143:98|132:66,1,68,2|8,3:2|0:0,0:0:0:0:
217,41,61518,2,0,P|219:24|225:8,2,34,2|0|8,3:2|3:0|0:0,0:0:0:0:
306,38,61828,6,0,P|470:97|493:188,1,272,6|0,3:2|3:0,0:0:0:0:
490,265,62601,1,10,0:0:0:0:
416,219,62756,2,0,L|378:198,2,34,0|0|8,3:0|3:0|0:0,0:0:0:0:
414,307,63065,2,0,P|250:248|227:157,1,272,2|0,3:2|3:0,0:0:0:0:
228,79,63838,1,10,0:0:0:0:
145,47,63993,2,0,L|139:4,2,34,0|0|8,3:0|3:0|0:0,0:0:0:0:
64,83,64302,6,0,L|45:217,1,136,6|2,3:2|3:2,0:0:0:0:
74,301,64766,2,0,L|136:275,1,68,8|0,0:0|3:0,0:0:0:0:
195,209,65075,2,0,L|141:167,1,68,10|0,0:0|3:0,0:0:0:0:
190,93,65384,1,8,0:0:0:0:
271,58,65539,6,0,L|261:13,2,45.3333333333333,10|8|0,0:0|0:0|3:0,0:0:0:0:
327,73,65848,2,0,L|360:42,2,45.3333333333333,10|8|0,0:0|0:0|3:0,0:0:0:0:
342,128,66158,2,0,L|385:141,2,45.3333333333333,2|0|0,3:2|3:0|3:0,0:0:0:0:
301,168,66467,1,2,3:2:0:0:
433,284,66776,6,0,P|426:316|405:343,1,68,12|0,0:0|3:0,0:0:0:0:
322,374,67085,1,8,0:0:0:0:
267,305,67239,1,0,3:0:0:0:
315,231,67394,2,0,P|287:169|290:102,1,136,8|8,0:0|0:0,0:0:0:0:
239,29,67858,1,0,3:0:0:0:
155,59,68013,2,0,L|82:51,2,68,10|0|10,0:0|3:0|0:0,0:0:0:0:
183,152,68477,5,0,3:0:0:0:
183,152,68554,1,0,3:0:0:0:
183,152,68631,2,0,L|37:136,2,136,14|10|10,0:0|0:0|0:0,0:0:0:0:
216,233,69404,1,0,3:0:0:0:
303,245,69559,2,0,P|323:219|337:172,1,68,10|0,0:0|3:0,0:0:0:0:
418,156,69868,2,0,P|430:186|464:221,1,68,10|0,0:0|3:0,0:0:0:0:
437,300,70178,2,0,P|404:295|356:307,1,68,10|0,0:0|3:0,0:0:0:0:
296,350,70487,6,0,L|150:366,1,136,14|8,0:0|0:0,0:0:0:0:
77,334,70951,1,0,3:0:0:0:
41,253,71105,2,0,P|45:217|32:176,1,68,10|0,0:0|3:0,0:0:0:0:
83,110,71415,2,0,P|119:114|160:101,1,68,10|0,0:0|3:0,0:0:0:0:
226,152,71724,2,0,P|222:188|235:229,1,68,10|0,0:0|3:0,0:0:0:0:
306,262,72033,1,10,0:0:0:0:
390,225,72188,5,0,3:0:0:0:
390,225,72265,1,0,3:0:0:0:
390,225,72343,2,0,P|398:153|372:71,2,136,14|10|10,0:0|0:0|0:0,0:0:0:0:
454,285,73116,1,0,3:0:0:0:
405,358,73270,2,0,L|319:339,1,68,10|0,0:0|3:0,0:0:0:0:
250,358,73580,2,0,L|164:339,1,68,10|0,0:0|3:0,0:0:0:0:
95,358,73889,1,14,0:0:0:0:
30,297,74044,5,0,3:0:0:0:
30,297,74121,1,0,0:0:0:0:
30,297,74198,2,0,P|15:260|21:214,1,68,12|0,0:0|3:0,0:0:0:0:
81,173,74507,1,8,0:0:0:0:
168,162,74662,1,0,3:0:0:0:
233,102,74817,2,0,P|232:68|316:15,1,136,8|8,0:0|0:0,0:0:0:0:
396,17,75281,1,0,3:0:0:0:
413,103,75435,2,0,P|413:119|371:146,2,68,10|0|10,0:0|3:0|0:0,0:0:0:0:
486,51,75899,5,0,3:0:0:0:
486,51,75977,1,0,3:0:0:0:
486,51,76054,2,0,P|505:111|503:186,2,136,14|10|10,0:0|0:0|0:0,0:0:0:0:
396,17,76827,1,0,3:0:0:0:
314,52,76982,2,0,P|284:61|246:60,1,68,10|0,0:0|3:0,0:0:0:0:
182,120,77291,1,10,0:0:0:0:
98,150,77446,2,0,P|79:90|81:15,1,136,2|0,3:2|3:0,0:0:0:0:
167,31,77910,5,4,3:2:0:0:
254,21,78064,2,0,L|401:47,1,136,8|8,0:0|0:0,0:0:0:0:
469,79,78528,2,0,L|502:73,2,34,0|0|8,3:0|3:0|0:0,0:0:0:0:
441,162,78837,2,0,P|435:203|442:239,1,68,2|8,3:2|0:0,0:0:0:0:
477,309,79147,2,0,P|478:325|475:342,2,34,2|0|8,3:2|3:0|0:0,0:0:0:0:
388,306,79456,2,0,P|354:309|320:303,1,68,2|8,3:2|0:0,0:0:0:0:
250,250,79765,5,6,3:2:0:0:
174,202,79920,2,0,L|126:331,1,136,8|8,0:0|0:0,0:0:0:0:
40,350,80384,2,0,L|52:382,2,34,0|0|8,3:0|3:0|0:0,0:0:0:0:
7,267,80693,2,0,P|44:247|64:220,1,68,2|8,3:2|0:0,0:0:0:0:
66,138,81002,2,0,P|40:115|26:84,1,68,0|8,3:0|0:0,0:0:0:0:
109,51,81312,2,0,P|103:34|105:18,2,34,2|0|8,3:2|3:0|0:0,0:0:0:0:
194,28,81621,5,6,3:2:0:0:
230,108,81776,2,0,L|178:259,1,136,8|8,0:0|0:0,0:0:0:0:
224,315,82239,2,0,P|211:321|175:320,2,34,0|0|8,3:0|3:0|0:0,0:0:0:0:
307,282,82549,2,0,P|326:273|380:274,1,68,0|8,3:0|0:0,0:0:0:0:
441,327,82858,2,0,P|447:340|446:376,2,34,0|0|8,3:0|3:0|0:0,0:0:0:0:
497,258,83167,1,2,3:2:0:0:
428,202,83322,1,8,0:0:0:0:
387,123,83477,6,0,P|450:102|469:23,1,136,6|2,3:2|3:2,0:0:0:0:
388,13,83940,1,8,0:0:0:0:
303,39,84095,2,0,L|298:5,2,34,2|0|8,3:2|3:0|0:0,0:0:0:0:
249,109,84404,1,6,3:2:0:0:
169,130,84559,1,8,0:0:0:0:
169,130,84636,1,8,0:0:0:0:
169,130,84714,2,0,L|135:135,3,34,10|8|8|8,0:0|0:0|0:0|0:0,0:0:0:0:
102,143,85023,2,0,L|68:148,3,34,10|8|8|8,0:0|0:0|0:0|0:0,0:0:0:0:
35,156,85332,5,6,3:2:0:0:
79,232,85486,2,0,P|106:286|85:358,1,136,6|0,3:2|0:0,0:0:0:0:
86,355,87033,1,4,3:2:0:0:
256,307,87342,1,4,3:2:0:0:
426,355,87651,1,4,3:2:0:0:
478,283,87806,5,4,3:2:0:0:
390,274,87960,2,0,P|328:246|269:188,1,136,4|0,3:2|0:0,0:0:0:0:
278,200,89507,1,4,3:2:0:0:
322,29,89816,1,4,3:2:0:0:
493,73,90125,1,4,3:2:0:0:
435,140,90280,6,0,P|435:181|447:215,1,68,4|0,3:2|3:0,0:0:0:0:
376,265,90589,2,0,P|340:244|304:238,1,68,8|0,0:0|3:0,0:0:0:0:
297,151,90899,2,0,P|332:130|356:102,2,68,8|0|0,0:0|3:0|3:0,0:0:0:0:
214,119,91362,2,0,P|154:94|91:139,1,136,8|0,0:0|3:0,0:0:0:0:
66,211,91826,2,0,P|74:275|144:307,1,136,8|0,0:0|3:0,0:0:0:0:
206,260,92290,2,0,P|231:240|228:201,1,68,8|0,0:0|3:0,0:0:0:0:
214,119,92600,1,8,0:0:0:0:
151,47,92754,5,8,0:0:0:0:
158,56,92832,1,8,0:0:0:0:
158,56,92909,2,0,L|155:12,3,34,2|0|0|0,3:2|3:0|3:0|3:0,0:0:0:0:
121,23,93218,2,0,L|77:26,3,34,2|0|0|0,3:2|3:0|3:0|3:0,0:0:0:0:
88,60,93527,2,0,L|91:104,3,34,2|0|0|0,3:2|3:0|3:0|3:0,0:0:0:0:
94,128,93837,2,0,L|104:282,1,136,6|0,3:2|0:0,0:0:0:0:
102,263,95228,5,6,3:2:0:0:
195,234,95383,2,0,P|257:272|281:355,1,149.60000456543,8|10,0:0|0:0,0:0:0:0:
374,370,95847,2,0,P|386:335|417:316,1,74.8000022827149,0|10,3:0|0:0,0:0:0:0:
459,229,96156,2,0,L|515:221,2,37.4000011413575,0|0|8,3:0|3:0|0:0,0:0:0:0:
392,156,96466,2,0,L|291:141,1,74.8000022827149,2|8,3:2|0:0,0:0:0:0:
230,173,96775,1,0,3:0:0:0:
230,173,96852,1,0,3:0:0:0:
230,173,96929,2,0,P|214:112|208:-1,1,149.60000456543,10|10,0:0|0:0,0:0:0:0:
109,22,97393,2,0,P|93:49|55:91,1,74.8000022827149,0|10,3:0|0:0,0:0:0:0:
8,162,97703,6,0,P|47:226|129:248,1,149.60000456543,6|0,3:2|3:0,0:0:0:0:
205,285,98167,2,0,P|212:320|212:363,2,74.8000022827149,10|0|10,0:0|3:0|0:0,0:0:0:0:
251,196,98630,1,0,3:0:0:0:
251,196,98708,1,0,3:0:0:0:
251,196,98785,1,10,0:0:0:0:
307,116,98940,2,0,P|344:110|383:81,1,74.8000022827149,0|8,3:0|0:0,0:0:0:0:
471,99,99249,2,0,P|457:134|463:182,1,74.8000022827149,0|8,3:0|0:0,0:0:0:0:
403,249,99558,2,0,P|379:219|334:200,1,74.8000022827149,0|8,3:0|0:0,0:0:0:0:
251,196,99868,1,2,3:2:0:0:
251,196,99945,1,0,3:0:0:0:
251,196,100022,1,8,0:0:0:0:
165,261,100177,6,0,P|91:253|12:229,1,149.60000456543,6|2,3:2|3:2,0:0:0:0:
8,135,100641,1,8,0:0:0:0:
76,66,100795,2,0,P|131:71|190:89,2,112.200003424072,2|2|10,3:2|3:2|0:0,0:0:0:0:
100,160,101414,2,0,P|117:221|117:312,1,149.60000456543,2|0,3:2|3:0,0:0:0:0:
213,286,101878,1,10,0:0:0:0:
306,314,102033,2,0,P|298:344|275:384,2,74.8000022827149,0|8|2,3:0|0:0|3:2,0:0:0:0:
355,234,102496,5,8,0:0:0:0:
355,234,102574,1,0,3:0:0:0:
355,234,102651,2,0,L|518:226,1,149.60000456543,6|0,3:2|3:0,0:0:0:0:
489,130,103115,1,10,0:0:0:0:
397,96,103270,2,0,L|393:14,1,74.8000022827149,0|8,3:0|0:0,0:0:0:0:
297,41,103579,2,0,L|298:78,2,37.4000011413575,0|0|8,3:0|3:0|0:0,0:0:0:0:
201,19,103888,2,0,P|166:26|116:9,1,74.8000022827149,0|8,3:0|0:0,0:0:0:0:
51,77,104197,2,0,P|74:102|85:155,1,74.8000022827149,0|8,3:0|0:0,0:0:0:0:
176,178,104507,2,0,P|186:144|226:109,1,74.8000022827149,0|8,3:0|0:0,0:0:0:0:
318,136,104816,1,0,3:0:0:0:
318,136,104893,1,0,3:0:0:0:
318,136,104971,1,8,0:0:0:0:
401,185,105125,6,0,L|480:168,2,74.8000022827149,6|8|0,3:2|0:0|3:0,0:0:0:0:
342,263,105589,1,8,0:0:0:0:
283,341,105744,2,0,L|164:315,2,112.200003424072,2|2|10,3:2|3:2|0:0,0:0:0:0:
342,263,106362,2,0,P|354:202|330:113,1,149.60000456543,2|0,3:2|3:0,0:0:0:0:
256,57,106826,1,8,0:0:0:0:
179,118,106981,2,0,P|163:171|172:226,2,112.200003424072,2|2|10,3:2|3:2|0:0,0:0:0:0:
157,22,107600,1,4,3:2:0:0:
355,22,107909,5,2,3:2:0:0:
355,22,107986,1,0,3:0:0:0:
355,22,108063,1,8,0:0:0:0:
451,36,108218,2,0,P|489:59|488:163,1,149.60000456543,2|2,3:2|3:2,0:0:0:0:
456,244,108682,1,8,0:0:0:0:
379,304,108837,2,0,P|340:308|293:321,1,74.8000022827149,2|8,3:2|0:0,0:0:0:0:
225,371,109146,1,2,3:2:0:0:
215,274,109301,2,0,L|212:237,2,37.4000011413575,8|0|0,0:0|0:0|3:0,0:0:0:0:
134,329,109610,2,0,P|96:325|60:316,2,74.8000022827149,8|0|8,0:0|3:0|0:0,0:0:0:0:
116,233,110074,6,0,P|81:142|128:26,1,224.400006848145,6|8,3:2|0:0,0:0:0:0:
202,88,110692,2,0,P|221:139|270:163,2,112.200003424072,2|2|10,3:2|3:2|0:0,0:0:0:0:
269,16,111311,1,2,3:2:0:0:
450,85,111620,2,0,L|490:82,2,37.4000011413575,2|0|8,3:2|3:0|0:0,0:0:0:0:
481,177,111929,2,0,P|460:212|449:256,1,74.8000022827149,2|8,3:2|0:0,0:0:0:0:
370,300,112239,2,0,P|350:264|317:232,1,74.8000022827149,2|8,3:2|0:0,0:0:0:0:
373,154,112548,6,0,P|309:118|205:123,1,149.60000456543,6|0,3:2|3:0,0:0:0:0:
136,112,113012,2,0,P|133:74|126:34,1,74.8000022827149,10|0,0:0|3:0,0:0:0:0:
30,21,113321,1,8,0:0:0:0:
38,118,113476,2,0,P|41:156|48:196,1,74.8000022827149,0|8,3:0|0:0,0:0:0:0:
128,245,113785,6,0,P|115:267|89:280,2,49.8666681884766,4|0|0,3:2|3:0|3:0,0:0:0:0:
187,270,114094,2,0,P|193:294|184:322,2,49.8666681884766,4|0|0,3:2|3:0|3:0,0:0:0:0:
246,245,114404,2,0,P|268:258|281:284,2,49.8666681884766,0|0|0,3:0|3:0|3:0,0:0:0:0:
270,185,114713,1,0,3:0:0:0:
430,126,115022,6,0,P|432:68|460:12,2,108.8,2|0|0,0:0|0:0|0:0,0:0:0:0:
258,157,115969,2,0,P|254:273|198:385,1,217.6,2|0,0:0|0:0,0:0:0:0:
127,379,116738,1,2,0:0:0:0:
41,361,116892,2,0,P|44:274|86:189,1,163.2,2|0,0:0|0:0,0:0:0:0:
67,118,117537,2,0,P|38:117|10:103,1,54.4,2|0,0:0|0:0,0:0:0:0:
10,19,117859,2,0,P|67:20|123:48,1,108.8,2|0,0:0|0:0,0:0:0:0:
192,145,118441,1,2,0:0:0:0:
252,208,118600,1,2,0:0:0:0:
276,125,118760,1,2,0:0:0:0:
414,237,119069,6,0,P|457:236|498:170,1,108.8,2|0,0:0|0:0,0:0:0:0:
365,75,119687,2,0,P|342:38|264:35,2,108.8,2|0|0,0:0|0:0|0:0,0:0:0:0:
250,199,120615,2,0,P|163:201|82:333,1,217.6,2|0,0:0|0:0,0:0:0:0:
250,349,121543,2,0,P|336:346|418:214,1,217.6,2|0,0:0|0:0,0:0:0:0:
384,83,122471,6,0,P|437:100|495:98,2,108.8,2|0|0,0:0|0:0|0:0,0:0:0:0:
217,33,123418,2,0,P|108:56|9:118,1,217.6,2|0,0:0|0:0,0:0:0:0:
15,197,124187,1,2,0:0:0:0:
75,259,124341,2,0,P|183:235|282:173,1,217.6,2|0,0:0|0:0,0:0:0:0:
277,95,125114,1,2,0:0:0:0:
215,36,125268,1,2,0:0:0:0:
388,18,125578,2,0,P|466:91|469:201,1,217.6,2|0,0:0|0:0,0:0:0:0:
342,255,126505,6,0,P|334:308|340:369,2,108.8,2|0|0,0:0|0:0|0:0,0:0:0:0:
212,138,127433,2,0,P|219:84|214:24,1,108.8,2|0,0:0|0:0,0:0:0:0:
40,35,128051,6,0,P|48:222|444:306,1,652.8,2|0,0:0|0:0,0:0:0:0:
291,215,130175,6,0,P|239:210|183:243,2,108.8,2|0|0,0:0|0:0|0:0,0:0:0:0:
340,47,131102,2,0,P|393:51|440:26,1,108.8,2|0,0:0|0:0,0:0:0:0:
499,190,131720,6,0,P|377:345|15:193,1,652.8,2|2,3:2|0:0,0:0:0:0:
436,361,161410,5,6,3:2:0:0:
447,184,161719,1,6,3:2:0:0:
76,23,163111,5,6,3:2:0:0:
65,200,163420,1,6,3:2:0:0:
242,211,163729,1,6,3:2:0:0:
188,140,163884,5,6,3:2:0:0:
90,287,164193,1,6,3:2:0:0:
422,287,165585,5,6,3:2:0:0:
324,140,165894,1,6,3:2:0:0:
412,131,166049,2,0,L|462:128,3,34,8|8|8|8,0:0|0:0|0:0|0:0,0:0:0:0:
480,125,166358,1,6,3:2:0:0:
449,41,166513,6,0,P|377:29|318:49,1,136,8|8,0:0|0:0,0:0:0:0:
238,87,166977,2,0,L|223:19,1,68,0|8,3:0|0:0,0:0:0:0:
134,18,167286,2,0,L|100:25,2,34,0|0|8,3:0|3:0|0:0,0:0:0:0:
150,105,167595,2,0,P|115:118|101:153,1,68,2|8,3:2|0:0,0:0:0:0:
96,239,167904,1,2,3:2:0:0:
96,239,167982,1,0,3:0:0:0:
96,239,168059,1,8,0:0:0:0:
182,257,168214,2,0,P|217:244|231:209,1,68,2|8,3:2|0:0,0:0:0:0:
280,144,168523,2,0,P|267:109|232:95,1,68,2|8,3:2|0:0,0:0:0:0:
278,15,168832,6,0,L|346:26,1,68,6|8,3:2|0:0,0:0:0:0:
430,75,169141,1,2,3:2:0:0:
430,75,169219,1,0,3:0:0:0:
430,75,169296,2,0,L|498:64,2,68,8|2|8,0:0|3:2|0:0,0:0:0:0:
349,111,169760,2,0,L|281:100,1,68,2|8,3:2|0:0,0:0:0:0:
194,84,170069,1,2,3:2:0:0:
107,64,170224,2,0,L|93:15,2,34,8|0|2,0:0|3:0|3:2,0:0:0:0:
68,143,170533,2,0,L|18:130,2,34,8|0|2,0:0|3:0|3:2,0:0:0:0:
124,224,170842,1,8,0:0:0:0:
124,224,170920,1,0,0:0:0:0:
124,224,170997,2,0,L|88:260,2,34,2|0|8,3:2|3:0|0:0,0:0:0:0:
209,201,171306,6,0,P|244:193|296:197,1,68,6|8,3:2|0:0,0:0:0:0:
315,284,171616,1,0,3:0:0:0:
315,284,171693,1,0,3:0:0:0:
315,284,171770,2,0,P|252:298|158:291,1,136,10|8,0:0|0:0,0:0:0:0:
102,336,172234,2,0,P|105:351|103:375,2,34,2|0|8,3:2|3:0|0:0,0:0:0:0:
24,291,172544,2,0,P|0:243|32:168,1,136,2|0,3:2|3:0,0:0:0:0:
110,136,173007,1,8,0:0:0:0:
82,51,173162,2,0,P|106:39|143:55,1,68,2|8,3:2|0:0,0:0:0:0:
223,89,173471,2,0,P|238:95|253:87,2,34,0|0|8,3:0|3:0|0:0,0:0:0:0:
195,173,173781,6,0,L|204:257,1,68,6|0,3:2|3:0,0:0:0:0:
296,229,174090,1,2,3:2:0:0:
296,229,174167,1,0,3:0:0:0:
296,229,174245,2,0,L|278:397,1,136,8|8,0:0|0:0,0:0:0:0:
369,361,174708,2,0,L|411:365,2,34,2|0|8,3:2|3:0|0:0,0:0:0:0:
383,273,175018,2,0,P|416:269|453:240,1,68,2|8,3:2|0:0,0:0:0:0:
494,177,175327,2,0,P|492:160|477:142,2,34,0|0|8,3:0|3:0|0:0,0:0:0:0:
405,178,175636,2,0,P|386:149|383:116,1,68,0|8,3:0|0:0,0:0:0:0:
307,68,175946,2,0,P|291:98|264:117,1,68,0|8,3:0|0:0,0:0:0:0:
261,208,176255,6,0,P|277:206|293:213,3,34,6|0|8|0,3:2|3:0|0:0|3:0,0:0:0:0:
324,227,176564,2,0,P|326:243|319:259,3,34,2|0|8|0,3:2|3:0|0:0|3:0,0:0:0:0:
305,290,176873,2,0,P|289:292|273:285,3,34,2|0|8|0,3:2|3:0|0:0|3:0,0:0:0:0:
242,271,177183,1,2,3:2:0:0:
161,234,177337,2,0,P|96:237|16:268,1,136,10|8,0:0|0:0,0:0:0:0:
27,348,177801,1,2,3:2:0:0:
121,374,177956,1,8,0:0:0:0:
121,374,178033,1,0,3:0:0:0:
121,374,178111,2,0,P|121:353|129:322,3,34,2|0|8|0,3:2|3:0|0:0|3:0,0:0:0:0:
150,318,178420,2,0,P|170:318|202:326,3,34,2|0|8|0,3:2|3:0|0:0|3:0,0:0:0:0:
206,347,178729,2,0,P|272:354|329:317,1,136,6|0,3:2|3:0,0:0:0:0:
374,241,179193,5,10,0:0:0:0:
374,241,179270,1,0,3:0:0:0:
374,241,179348,2,0,L|457:249,1,68,0|8,3:0|0:0,0:0:0:0:
489,172,179657,2,0,L|497:89,1,68,2|8,3:2|0:0,0:0:0:0:
498,15,179966,1,2,3:2:0:0:
420,57,180121,2,0,L|337:49,1,68,8|0,0:0|3:0,0:0:0:0:
305,126,180430,2,0,L|301:162,2,34,10|0|0,0:0|3:0|3:0,0:0:0:0:
140,60,180894,2,0,L|136:26,3,34,2|0|8|0,3:2|3:0|0:0|3:0,0:0:0:0:
102,27,181203,2,0,P|38:56|55:181,1,204,6|8,3:2|0:0,0:0:0:0:
119,211,181822,6,0,L|119:258,3,34,2|0|8|0,3:2|3:0|0:0|3:0,0:0:0:0:
136,274,182131,2,0,L|136:321,3,34,2|0|8|0,3:2|3:0|0:0|3:0,0:0:0:0:
153,337,182440,2,0,L|294:337,1,136,0|2,3:0|3:2,0:0:0:0:
367,296,182904,1,8,0:0:0:0:
340,211,183059,2,0,L|199:211,1,136,2|2,3:2|3:2,0:0:0:0:
67,98,183678,2,0,P|93:74|111:37,1,68,6|8,3:2|0:0,0:0:0:0:
193,19,183987,2,0,P|226:29|267:26,1,68,0|8,3:0|0:0,0:0:0:0:
324,88,184296,2,0,P|331:122|354:156,2,68,0|8|0,3:0|0:0|3:0,0:0:0:0:
396,37,184760,2,0,P|392:20|381:3,2,34,10|2|6,0:0|3:2|3:2,0:0:0:0:
477,93,185069,5,8,0:0:0:0:
477,93,185147,1,8,0:0:0:0:
477,93,185224,2,0,L|471:141,3,34,8|8|8|8,0:0|0:0|0:0|0:0,0:0:0:0:
467,160,185533,2,0,L|422:178,3,34,0|0|0|0,3:0|3:0|3:0|3:0,0:0:0:0:
403,184,185842,2,0,L|335:133,1,68,2|0,3:2|3:0,0:0:0:0:
278,87,186152,6,0,B|228:58|134:152|172:217|94:304|34:280,1,340,6|0,3:2|0:0,0:0:0:0:
285,364,187389,2,0,B|325:313|325:313|324:224,1,136,14|0,0:0|3:0,0:0:0:0:
267,174,187853,2,0,B|226:224|226:224|227:313,1,136,14|0,0:0|3:0,0:0:0:0:
157,350,188317,2,0,L|97:314,1,68,14|0,0:0|3:0,0:0:0:0:
24,266,188626,5,2,3:2:0:0:
39,89,188935,2,0,P|48:53|77:20,1,68,8|0,0:0|3:0,0:0:0:0:
155,26,189245,2,0,P|173:30|189:45,3,34,0|0|8|8,3:0|3:0|0:0|0:0,0:0:0:0:
201,70,189554,2,0,P|211:105|202:148,1,68,2|0,3:2|3:0,0:0:0:0:
292,161,189863,2,0,L|330:138,3,34,10|8|0|0,0:0|0:0|3:0|3:0,0:0:0:0:
355,144,190172,2,0,L|378:182,3,34,0|0|0|0,3:0|3:0|3:0|3:0,0:0:0:0:
372,207,190482,2,0,L|334:230,3,34,0|0|0|0,3:0|3:0|3:0|3:0,0:0:0:0:
309,224,190791,1,4,3:2:0:0:
426,356,191100,6,0,P|473:313|476:236,2,136,6|8|0,3:2|0:0|3:0,0:0:0:0:
344,321,191873,1,2,3:2:0:0:
261,354,192028,2,0,P|227:351|204:327,1,68,8|0,0:0|3:0,0:0:0:0:
191,239,192337,2,0,P|204:176|204:99,1,136,2|8,3:2|0:0,0:0:0:0:
126,63,192801,2,0,P|106:157|106:273,1,204,2|8,3:2|0:0,0:0:0:0:
271,326,193574,6,0,L|406:309,2,136,6|8|0,3:2|0:0|3:0,0:0:0:0:
289,238,194348,1,0,3:0:0:0:
357,182,194502,2,0,L|348:114,1,68,10|0,0:0|3:0,0:0:0:0:
260,98,194812,1,2,3:2:0:0:
175,122,194966,1,0,3:0:0:0:
109,63,195121,1,8,0:0:0:0:
194,39,195275,2,0,P|257:12|325:41,1,136,2|0,3:2|3:0,0:0:0:0:
404,48,195739,1,12,0:0:0:0:
482,206,196049,5,6,3:2:0:0:
468,293,196203,1,2,3:2:0:0:
30,178,196977,5,6,3:2:0:0:
44,91,197131,1,2,3:2:0:0:
393,361,197904,5,6,3:2:0:0:
306,347,198059,2,0,P|280:293|274:195,1,136,2|0,3:2|0:0,0:0:0:0:
225,141,198523,6,0,L|154:129,2,68,10|0|0,0:0|3:0|3:0,0:0:0:0:
302,95,198987,2,0,L|314:24,2,68,12|0|0,0:0|3:0|3:0,0:0:0:0:
348,172,199451,1,10,0:0:0:0:
383,345,199760,2,0,P|390:356|411:366,3,34,10|8|8|8,0:0|0:0|0:0|0:0,0:0:0:0:
440,352,200069,2,0,P|453:354|475:347,3,34,0|0|2|0,3:0|3:0|3:2|3:0,0:0:0:0:
485,315,200379,2,0,P|496:307|506:286,3,34,0|0|0|0,3:0|3:0|3:0|3:0,0:0:0:0:
490,257,200688,1,14,0:0:0:0:
491,80,200997,6,0,L|420:51,1,68,14|0,0:0|3:0,0:0:0:0:
344,24,201306,1,0,3:0:0:0:
257,45,201461,2,0,L|228:116,1,68,12|0,0:0|3:0,0:0:0:0:
201,192,201770,1,0,3:0:0:0:
222,279,201925,2,0,L|293:308,1,68,12|0,0:0|3:0,0:0:0:0:
366,339,202234,6,0,P|377:305|361:264,1,68,12|0,0:0|3:0,0:0:0:0:
344,188,202544,1,0,3:0:0:0:
296,113,202698,2,0,P|262:102|221:118,1,68,12|0,0:0|3:0,0:0:0:0:
145,135,203007,1,0,3:0:0:0:
70,183,203162,1,12,0:0:0:0:
187,314,203471,6,0,L|148:371,2,68,14|0|0,0:0|3:0|3:0,0:0:0:0:
274,300,203935,2,0,L|342:306,2,68,12|0|0,0:0|3:0|3:0,0:0:0:0:
219,232,204399,2,0,L|189:169,1,68,14|0,0:0|0:0,0:0:0:0:
183,82,204708,2,0,P|188:57|192:22,3,34,10|8|8|8,0:0|0:0|0:0|0:0,0:0:0:0:
218,30,205018,2,0,P|242:21|274:7,3,34,0|0|0|0,3:0|3:0|3:0|3:0,0:0:0:0:
280,34,205327,2,0,P|299:50|327:71,3,34,0|0|0|0,3:0|3:0|3:0|3:0,0:0:0:0:
307,89,205636,2,0,P|301:114|298:148,3,34,0|0|0|0,3:0|3:0|3:0|3:0,0:0:0:0:
330,140,205946,6,0,P|398:125|470:131,1,136,12|8,0:0|0:0,0:0:0:0:
438,214,206410,1,0,3:0:0:0:
433,301,206564,2,0,P|430:334|438:367,2,68,10|0|8,0:0|3:0|0:0,0:0:0:0:
260,260,207183,2,0,L|176:284,1,68,10|0,0:0|0:0,0:0:0:0:
106,280,207492,2,0,L|127:195,1,68,8|0,0:0|0:0,0:0:0:0:
165,136,207801,2,0,L|227:196,1,68,8|0,0:0|3:0,0:0:0:0:
303,181,208111,1,10,0:0:0:0:
395,211,208265,5,0,3:0:0:0:
395,211,208342,1,0,3:0:0:0:
395,211,208420,2,0,P|442:187|476:111,1,136,14|8,0:0|0:0,0:0:0:0:
435,36,208884,1,0,3:0:0:0:
347,39,209038,2,0,P|339:70|349:103,2,68,8|0|8,0:0|3:0|0:0,0:0:0:0:
165,39,209657,2,0,P|173:70|163:103,2,68,10|0|8,0:0|3:0|0:0,0:0:0:0:
83,72,210121,1,2,3:2:0:0:
1,105,210275,2,0,P|-7:74|3:41,2,68,8|0|10,0:0|3:0|0:0,0:0:0:0:
30,198,210739,5,0,3:0:0:0:
30,198,210817,1,0,3:0:0:0:
30,198,210894,2,0,P|89:226|139:299,1,136,14|8,0:0|0:0,0:0:0:0:
176,357,211358,1,0,3:0:0:0:
243,299,211513,2,0,L|243:227,1,68,8|0,0:0|3:0,0:0:0:0:
281,151,211822,2,0,L|353:151,1,68,8|0,0:0|3:0,0:0:0:0:
429,189,212131,2,0,L|429:261,1,68,8|0,0:0|3:0,0:0:0:0:
391,337,212440,2,0,L|319:337,2,68,8|0|8,0:0|3:0|0:0,0:0:0:0:
487,341,212904,1,0,3:0:0:0:
487,341,212982,1,0,3:0:0:0:
487,341,213059,1,14,0:0:0:0:
512,166,213368,5,6,3:2:0:0:
494,88,213523,1,8,0:0:0:0:
494,88,213600,1,8,0:0:0:0:
494,88,213678,2,0,L|482:34,3,34,8|8|8|8,0:0|0:0|0:0|0:0,0:0:0:0:
459,33,213987,2,0,L|405:45,3,34,8|8|8|8,0:0|0:0|0:0|0:0,0:0:0:0:
404,68,214296,1,8,0:0:0:0:
275,189,214605,6,0,P|281:213|276:241,2,45.3333333333333,4|8|0,3:2|0:0|3:0,0:0:0:0:
217,178,214915,2,0,P|204:199|180:215,2,45.3333333333333,4|8|0,3:2|0:0|3:0,0:0:0:0:
184,130,215224,2,0,P|160:136|132:131,2,45.3333333333333,0|0|0,3:0|3:0|3:0,0:0:0:0:
195,72,215533,2,0,P|173:59|157:35,2,45.3333333333333,0|0|0,3:0|3:0|3:0,0:0:0:0:
243,39,215842,1,0,3:0:0:0:
256,192,215945,12,2,218335,0:0:0:0:
262,24,239347,5,6,3:2:0:0:
235,198,239656,2,0,L|270:233,3,34,0|0|0|0,3:0|3:0|3:0|3:0,0:0:0:0:
286,243,239966,2,0,L|251:278,3,34,0|0|0|0,3:0|3:0|3:0|3:0,0:0:0:0:
256,300,240275,1,8,0:0:0:0:
443,352,240594,5,6,3:2:0:0:
476,261,240748,2,0,P|479:178|457:94,1,149.60000456543,8|10,0:0|0:0,0:0:0:0:
498,22,241212,2,0,P|456:20|414:31,1,74.8000022827149,0|10,3:0|0:0,0:0:0:0:
329,51,241521,2,0,L|331:11,2,37.4000011413575,0|0|8,3:0|3:0|0:0,0:0:0:0:
241,96,241831,2,0,L|244:170,1,74.8000022827149,2|8,3:2|0:0,0:0:0:0:
259,275,242140,1,0,3:0:0:0:
259,275,242217,1,0,3:0:0:0:
259,275,242295,2,0,P|222:336|137:362,1,149.60000456543,10|10,0:0|0:0,0:0:0:0:
58,333,242758,2,0,P|40:301|50:258,1,74.8000022827149,0|10,3:0|0:0,0:0:0:0:
35,166,243068,6,0,P|104:166|191:190,1,149.60000456543,6|0,3:2|3:0,0:0:0:0:
228,100,243532,2,0,P|210:69|199:26,2,74.8000022827149,10|0|10,0:0|3:0|0:0,0:0:0:0:
299,181,243996,1,0,3:0:0:0:
299,181,244073,1,0,3:0:0:0:
299,181,244150,1,10,0:0:0:0:
345,266,244305,2,0,L|433:259,1,74.8000022827149,0|8,3:0|0:0,0:0:0:0:
504,214,244614,2,0,L|497:126,1,74.8000022827149,0|8,3:0|0:0,0:0:0:0:
452,55,244923,2,0,L|364:62,1,74.8000022827149,0|8,3:0|0:0,0:0:0:0:
293,107,245233,1,2,3:2:0:0:
293,107,245310,1,0,3:0:0:0:
293,107,245387,1,8,0:0:0:0:
221,39,245542,6,0,P|148:23|99:93,1,149.60000456543,6|2,3:2|3:2,0:0:0:0:
61,161,246006,1,8,0:0:0:0:
143,212,246161,2,0,P|197:200|234:252,2,112.200003424072,2|2|10,3:2|3:2|0:0,0:0:0:0:
79,285,246779,2,0,P|139:333|212:357,1,149.60000456543,2|0,3:2|3:0,0:0:0:0:
313,364,247243,1,8,0:0:0:0:
313,364,247320,1,0,3:0:0:0:
313,364,247398,2,0,L|324:282,2,74.8000022827149,2|8|0,0:2|0:0|3:0,0:0:0:0:
417,363,247862,5,8,0:0:0:0:
417,363,247939,1,0,3:0:0:0:
417,363,248016,2,0,L|499:374,1,74.8000022827149,6|0,3:2|3:0,0:0:0:0:
508,277,248325,2,0,L|476:200,1,74.8000022827149,0|8,3:0|0:0,0:0:0:0:
389,242,248635,2,0,L|338:307,1,74.8000022827149,0|8,3:0|0:0,0:0:0:0:
245,298,248944,2,0,L|180:247,1,74.8000022827149,0|8,3:0|0:0,0:0:0:0:
189,154,249253,2,0,L|240:89,1,74.8000022827149,0|8,3:0|0:0,0:0:0:0:
333,98,249563,1,0,3:0:0:0:
333,98,249640,1,0,3:0:0:0:
333,98,249717,1,8,0:0:0:0:
414,152,249872,2,0,P|437:106|444:29,2,112.200003424072,2|2|10,3:2|3:2|0:0,0:0:0:0:
446,243,250490,6,0,P|384:273|309:233,1,149.60000456543,6|0,3:2|3:0,0:0:0:0:
253,165,250954,2,0,P|260:148|253:132,2,37.4000011413575,10|0|2,0:0|0:0|3:2,0:0:0:0:
156,145,251264,2,0,P|123:129|90:144,1,74.8000022827149,8|0,0:0|3:0,0:0:0:0:
22,213,251573,1,8,0:0:0:0:
94,278,251728,2,0,L|109:366,1,74.8000022827149,0|8,3:0|0:0,0:0:0:0:
210,375,252037,1,0,3:0:0:0:
210,375,252114,1,0,3:0:0:0:
210,375,252191,1,8,0:0:0:0:
300,339,252346,2,0,L|277:207,2,112.200003424072,2|2|10,3:2|3:2|0:0,0:0:0:0:
394,364,252965,6,0,P|432:311|509:275,1,149.60000456543,6|0,3:2|3:0,0:0:0:0:
444,200,253429,1,10,0:0:0:0:
504,124,253583,2,0,P|451:86|415:9,1,149.60000456543,0|0,3:0|3:0,0:0:0:0:
340,74,254047,1,10,0:0:0:0:
253,28,254202,2,0,L|172:16,1,74.8000022827149,0|8,3:0|0:0,0:0:0:0:
92,62,254511,2,0,L|122:138,1,74.8000022827149,0|8,3:0|0:0,0:0:0:0:
202,185,254820,2,0,L|252:120,1,74.8000022827149,0|8,3:0|0:0,0:0:0:0:
343,178,255130,1,0,3:0:0:0:
343,178,255207,1,0,3:0:0:0:
343,178,255284,1,8,0:0:0:0:
409,248,255439,6,0,P|361:299|217:279,1,224.400006848145,6|10,3:2|0:0,0:0:0:0:
144,218,256057,2,0,P|92:202|49:234,2,112.200003424072,2|2|10,3:2|3:2|0:0,0:0:0:0:
235,183,256676,2,0,P|243:116|247:23,1,149.60000456543,2|0,3:2|3:0,0:0:0:0:
152,11,257140,1,10,0:0:0:0:
60,45,257295,2,0,P|56:78|54:125,1,74.8000022827149,0|2,3:0|0:0,0:0:0:0:
65,216,257604,2,0,P|49:222|28:233,2,37.4000011413575,0|0|10,3:0|3:0|0:0,0:0:0:0:
146,162,257913,6,0,P|212:204|299:201,1,149.60000456543,6|0,3:2|3:0,0:0:0:0:
343,130,258377,2,0,L|424:148,1,74.8000022827149,10|0,0:0|3:0,0:0:0:0:
436,241,258686,1,8,0:0:0:0:
456,336,258841,2,0,L|496:345,2,37.4000011413575,0|0|8,3:0|3:0|0:0,0:0:0:0:
359,319,259150,6,0,P|355:341|355:374,2,49.8666681884766,4|0|0,3:2|3:0|3:0,0:0:0:0:
304,283,259459,2,0,P|282:290|254:307,2,49.8666681884766,4|0|0,3:2|3:0|3:0,0:0:0:0:
307,217,259769,2,0,P|289:202|261:186,2,49.8666681884766,2|0|0,3:2|3:0|3:0,0:0:0:0:
365,186,260078,1,0,3:0:0:0:
503,85,260387,6,0,P|427:83|319:56,1,183.599994396973,6|0,3:2|3:0,0:0:0:0:
243,22,261006,2,0,P|154:70|11:110,1,244.799992529297,10|0,0:0|3:0,0:0:0:0:
16,110,261779,1,0,3:0:0:0:
55,281,262088,1,0,3:0:0:0:
55,281,262243,1,10,0:0:0:0:
222,332,262552,1,2,0:0:0:0:
349,212,262862,6,0,P|325:136|371:20,1,183.599994396973,6|0,3:2|3:0,0:0:0:0:
435,66,263480,2,0,P|450:116|420:193,1,122.399996264649,10|0,0:0|0:0,0:0:0:0:
416,265,263944,1,2,0:0:0:0:
339,300,264099,2,0,L|270:271,1,61.1999981323243,0|0,3:0|3:0,0:0:0:0:
212,224,264408,2,0,L|270:178,1,61.1999981323243,0|0,3:0|3:0,0:0:0:0:
340,151,264717,2,0,L|349:224,2,61.1999981323243,8|0|0,0:0|3:0|3:0,0:0:0:0:
222,26,265336,6,0,P|127:29|34:45,1,183.599994396973,6|0,3:2|3:0,0:0:0:0:
25,128,265954,2,0,P|72:126|119:118,2,91.7999971984864,10|0|2,0:0|0:0|3:2,0:0:0:0:
39,213,266573,1,2,3:2:0:0:
179,311,266882,2,0,P|209:313|236:326,1,61.1999981323243,2|0,0:0|3:0,0:0:0:0:
292,260,267191,2,0,P|265:205|260:144,2,122.399996264649,8|0|6,0:0|0:0|3:2,0:0:0:0:
256,192,267965,12,0,270284,0:0:0:0:
256,192,270903,6,0,L|256:151,2,30.5999990661621,0|0|2,0:0|0:0|0:0,0:0:0:0:
16,286,271521,5,2,3:2:0:0:
117,49,271985,1,2,3:2:0:0:
388,93,272449,1,2,3:2:0:0:
357,303,272758,6,0,L|287:329,1,74.8000022827149,14|0,0:0|3:0,0:0:0:0:
208,271,273067,2,0,L|220:197,1,74.8000022827149,10|0,0:0|3:0,0:0:0:0:
291,130,273376,2,0,P|334:183|406:219,1,149.60000456543,10|8,0:0|0:0,0:0:0:0:
496,254,273840,1,0,3:0:0:0:
417,312,273995,2,0,P|419:349|407:383,2,74.8000022827149,10|0|10,0:0|3:0|0:0,0:0:0:0:
326,276,274459,5,0,3:0:0:0:
326,276,274536,1,0,3:0:0:0:
326,276,274613,2,0,P|253:299|223:381,1,149.60000456543,14|8,0:0|0:0,0:0:0:0:
127,382,275077,2,0,P|115:345|74:330,1,74.8000022827149,2|8,3:2|0:0,0:0:0:0:
20,256,275386,1,2,3:2:0:0:
51,163,275541,2,0,L|93:97,1,74.8000022827149,10|0,0:0|3:0,0:0:0:0:
183,67,275850,2,0,L|218:136,1,74.8000022827149,8|0,0:0|3:0,0:0:0:0:
200,229,276160,1,8,0:0:0:0:
277,303,276314,5,0,3:0:0:0:
277,303,276392,1,0,3:0:0:0:
277,303,276469,2,0,P|353:309|432:281,1,149.60000456543,12|10,0:0|0:0,0:0:0:0:
468,200,276933,1,0,3:0:0:0:
414,119,277087,2,0,P|338:113|259:141,1,149.60000456543,10|8,0:0|0:0,0:0:0:0:
223,222,277551,1,0,3:1:0:0:
145,281,277706,2,0,P|138:320|137:365,2,74.8000022827149,10|0|10,0:0|3:0|0:0,0:0:0:0:
48,280,278170,5,0,3:0:0:0:
48,280,278247,1,0,3:0:0:0:
48,280,278325,2,0,P|62:202|64:112,1,149.60000456543,14|8,0:0|0:0,0:0:0:0:
61,35,278788,2,0,P|100:42|145:43,1,74.8000022827149,2|8,3:2|0:0,0:0:0:0:
229,15,279098,1,2,3:2:0:0:
241,110,279252,2,0,L|255:201,1,74.8000022827149,10|0,0:0|3:0,0:0:0:0:
325,249,279562,2,0,L|396:191,1,74.8000022827149,10|0,0:0|3:0,0:0:0:0:
404,107,279871,1,12,0:0:0:0:
480,184,280026,5,0,3:0:0:0:
480,184,280103,1,0,3:0:0:0:
480,184,280180,2,0,P|506:263|451:313,1,149.60000456543,12|10,0:0|0:0,0:0:0:0:
391,368,280644,1,0,3:0:0:0:
316,304,280799,2,0,P|289:224|344:174,1,149.60000456543,10|8,0:0|0:0,0:0:0:0:
404,119,281263,1,0,3:0:0:0:
419,23,281417,2,0,P|461:25|509:13,2,74.8000022827149,10|0|10,0:0|3:0|0:0,0:0:0:0:
329,59,281881,5,0,3:0:0:0:
329,59,281959,1,0,3:0:0:0:
329,59,282036,2,0,P|245:55|149:79,1,149.60000456543,14|8,0:0|0:0,0:0:0:0:
87,40,282500,2,0,P|85:82|97:130,1,74.8000022827149,2|8,3:2|0:0,0:0:0:0:
175,162,282809,1,2,3:2:0:0:
213,251,282964,2,0,L|161:324,1,74.8000022827149,10|0,0:0|3:0,0:0:0:0:
84,358,283273,2,0,L|46:276,1,74.8000022827149,8|0,0:0|3:0,0:0:0:0:
55,192,283582,1,8,0:0:0:0:
157,175,283737,5,0,3:0:0:0:
157,175,283814,1,0,3:0:0:0:
157,175,283892,1,6,3:2:0:0:
92,96,284046,1,6,3:2:0:0:
355,209,284819,5,6,3:2:0:0:
420,288,284974,1,6,3:2:0:0:
492,115,285747,5,14,0:0:0:0:
462,24,285902,1,0,3:0:0:0:
397,94,286056,1,0,3:0:0:0:
304,123,286211,5,14,0:0:0:0:
239,50,286366,1,2,3:2:0:0:
152,94,286520,1,2,3:2:0:0:
218,166,286675,2,0,B|187:176|175:219|183:229|174:277|139:287,1,149.60000456543,14|2,0:0|0:0,0:0:0:0:
