osu file format v14

[General]
AudioFilename: General Levy - We Progressiv (BetaBass - ePeak RMX).mp3
AudioLeadIn: 0
PreviewTime: 117280
Countdown: 0
SampleSet: Soft
StackLeniency: 0.7
Mode: 0
LetterboxInBreaks: 1
WidescreenStoryboard: 1

[Editor]
Bookmarks: 118302,167393,168757,170121
DistanceSpacing: 1
BeatDivisor: 8
GridSize: 16
TimelineZoom: 4.299998

[Metadata]
Title:We Progressive (BetaBass - ePeak RMX)
TitleUnicode:We Progressive (BetaBass - ePeak RMX)
Artist:General Levy
ArtistUnicode:General Levy
Creator:TheLeviathan
Version:BOOYAKA
Source:
Tags:Dubplate Medley Reggi Rasta Rastaman Gangsta Rap God Covict Sound
BeatmapID:1090545
BeatmapSetID:513214

[Difficulty]
HPDrainRate:6
CircleSize:3.5
OverallDifficulty:8.1
ApproachRate:9.3
SliderMultiplier:2
SliderTickRate:1

[Events]
//Background and Video events
0,0,"453604_rasta.jpg",0,0
//Break Periods
2,308047,313088
//Storyboard Layer 0 (Background)
//Storyboard Layer 1 (Fail)
//Storyboard Layer 2 (Pass)
//Storyboard Layer 3 (Foreground)
//Storyboard Sound Samples

[TimingPoints]
18417,681.818181818182,4,2,1,45,1,0
19610,-100,4,2,1,5,0,0
19780,-100,4,2,1,45,0,0
20973,-100,4,2,1,5,0,0
21144,-100,4,2,1,45,0,0
22337,-100,4,2,1,5,0,0
22507,-100,4,2,1,45,0,0
25064,-100,4,2,1,5,0,0
25235,-100,4,2,1,45,0,0
26428,-100,4,2,1,5,0,0
26598,-100,4,2,1,45,0,0
27792,-100,4,2,1,5,0,0
27962,-100,4,2,1,45,0,0
29837,-100,4,2,1,5,0,0
30007,-100,4,2,1,45,0,0
31201,-100,4,2,1,5,0,0
31371,-100,4,2,1,45,0,0
33587,-100,4,2,1,5,0,0
33757,-100,4,2,1,45,0,0
33928,-100,4,2,1,5,0,0
34098,-100,4,2,1,45,0,0
34269,-100,4,2,1,5,0,0
34439,-100,4,2,1,45,0,0
34951,-100,4,2,1,5,0,0
35121,-100,4,2,1,45,0,0
35292,-100,4,2,1,5,0,0
35462,-100,4,2,1,45,0,0
36314,-100,4,2,1,5,0,0
36485,-100,4,2,1,45,0,0
36655,-100,4,2,1,5,0,0
36826,-100,4,2,1,45,0,0
38530,-100,4,2,1,5,0,0
38701,-100,4,2,1,45,0,0
39042,-100,4,2,1,5,0,0
39212,-100,4,2,1,45,0,0
52081,-100,4,2,1,5,0,0
52167,-100,4,2,1,45,0,0
52252,-100,4,2,1,5,0,0
52337,-100,4,2,1,45,0,0
52422,-100,4,2,1,5,0,0
52507,-100,4,2,1,45,0,0
52593,-100,4,2,1,5,0,0
52678,-100,4,2,1,45,0,0
52763,-100,4,2,1,5,0,0
52848,-100,4,2,1,45,0,0
53104,-100,4,2,1,5,0,0
53189,-100,4,2,1,45,0,0
53274,-100,4,2,1,5,0,0
53360,-100,4,2,1,45,0,0
53445,-100,4,2,1,5,0,0
53530,-100,4,2,1,45,0,0
53615,-100,4,2,1,5,0,0
53701,-100,4,2,1,45,0,0
53786,-100,4,2,1,5,0,0
53871,-100,4,2,1,45,0,0
53956,-100,4,2,1,5,0,0
54042,-100,4,2,1,45,0,0
54127,-100,4,2,1,5,0,0
54212,-100,4,2,1,45,0,0
54468,-100,4,2,1,5,0,0
54553,-100,4,2,1,45,0,0
54894,-100,4,2,1,5,0,0
55064,-100,4,2,1,45,0,0
55149,-100,4,2,1,5,0,0
55235,-100,4,2,1,45,0,0
55320,-100,4,2,1,5,0,0
55405,-100,4,2,1,45,0,0
55490,-100,4,2,1,5,0,0
55576,-100,4,2,1,45,0,0
55831,-100,4,2,1,5,0,0
55917,-100,4,2,1,45,0,0
57877,-100,4,2,1,5,0,0
57962,-100,4,2,1,45,0,0
59240,-100,4,2,1,5,0,0
59326,-100,4,2,1,45,0,0
60604,-100,4,2,1,5,0,0
60689,-100,4,2,1,45,0,0
61968,-100,4,2,1,5,0,0
62053,-100,4,2,1,45,0,0
63331,-100,4,2,1,5,0,0
63417,-100,4,2,1,45,0,0
64695,-100,4,2,1,5,0,0
64780,-100,4,2,1,45,0,0
66059,-100,4,2,1,5,0,0
66144,-100,4,2,1,45,0,0
68786,-100,4,2,1,5,0,0
68871,-100,4,2,1,45,0,0
73303,-100,4,2,1,11,0,0
73473,-100,4,2,1,45,0,0
105604,-100,4,2,1,5,0,0
105689,-100,4,2,1,45,0,0
106371,340.909090909091,4,2,1,75,1,0
106371,-80,4,2,1,75,0,0
106626,-80,4,2,1,5,0,0
106711,-80,4,2,1,75,0,0
127677,-80,4,2,1,19,0,0
128189,-80,4,2,1,75,0,0
160490,-80,4,2,1,5,0,0
160575,-80,4,2,1,75,0,0
193643,681.818181818182,4,2,1,50,1,0
194154,-100,4,2,1,5,0,0
194324,-100,4,2,1,50,0,0
195518,-100,4,2,1,5,0,0
195688,-100,4,2,1,50,0,0
210091,-100,4,2,1,5,0,0
210432,-100,4,2,1,5,0,0
210688,-100,4,2,1,50,0,0
226029,-100,4,2,1,5,0,0
226370,-100,4,2,1,50,0,0
226966,-100,4,2,1,5,0,0
227052,-100,4,2,1,50,0,0
228330,-100,4,2,1,5,0,0
228415,-100,4,2,1,50,0,0
229694,-100,4,2,1,5,0,0
229779,-100,4,2,1,50,0,0
232421,-100,4,2,1,5,0,0
232506,-100,4,2,1,50,0,0
253813,-100,4,2,1,5,0,0
253983,-100,4,2,1,50,0,0
280915,340.909090909091,4,2,1,75,1,0
280915,-80,4,2,1,75,0,0
287562,-80,4,2,1,18,0,0
287733,-80,4,2,1,75,0,0
299835,-80,4,2,1,18,0,0
300005,-80,4,2,1,75,0,0
334949,-80,4,2,1,17,0,0
335119,-80,4,2,1,75,0,0
368187,681.818181818182,4,2,1,45,1,0
380289,-100,4,2,1,5,0,0
380459,-100,4,2,1,45,0,0
381567,-100,4,2,1,5,0,0
381823,-100,4,2,1,45,0,0
388471,-100,4,2,1,11,0,0
390005,-100,4,2,1,45,0,0
391198,-100,4,2,1,5,0,0
391368,-100,4,2,1,45,0,0
399721,-100,4,2,1,5,0,0
399891,-100,4,2,1,45,0,0
400062,-100,4,2,1,5,0,0
400232,-100,4,2,1,45,0,0
400573,-100,4,2,1,5,0,0
400914,-100,4,2,1,45,0,0
401425,-100,4,2,1,5,0,0
401596,-100,4,2,1,45,0,0
404152,-100,4,2,1,5,0,0
404323,-100,4,2,1,45,0,0
406880,-100,4,2,1,5,0,0
407050,-100,4,2,1,45,0,0
408243,-100,4,2,1,5,0,0
408414,-100,4,2,1,45,0,0
409607,-100,4,2,1,5,0,0
409777,-100,4,2,1,45,0,0
410971,-100,4,2,1,5,0,0
411141,-100,4,2,1,45,0,0

[Colours]
Combo1 : 255,0,0
Combo2 : 255,255,0
Combo3 : 0,255,0

[HitObjects]
256,192,18416,5,0,0:0:0:0:
129,41,19098,6,0,P|94:101|115:194,1,150
161,261,19780,1,0,0:0:0:0:
468,125,20462,6,0,P|422:72|328:61,1,150
249,83,21144,2,0,P|195:122|145:129,1,100
24,285,21826,6,0,P|83:250|176:270,1,150
243,316,22508,1,0,0:0:0:0:
243,316,22848,1,0,0:0:0:0:
411,208,23189,6,0,P|446:272|446:318,1,100
243,316,23871,2,0,P|281:298|341:298,1,100
153,375,24553,6,0,P|92:353|44:274,1,150
53,184,25235,1,0,0:0:0:0:
53,184,25576,1,0,0:0:0:0:
238,195,25916,6,0,P|205:136|115:123,1,150
145,217,26598,2,0,P|174:268|228:292,1,100
318,119,27280,6,0,P|376:102|462:133,1,150
380,193,27962,2,0,P|325:212|264:198,1,100
130,78,28644,5,0,0:0:0:0:
323,28,28985,1,0,0:0:0:0:
171,158,29326,2,0,P|87:151|47:94,1,150
59,0,30007,1,0,0:0:0:0:
257,26,30348,5,0,0:0:0:0:
257,26,30434,1,0,0:0:0:0:
257,26,30519,1,0,0:0:0:0:
367,123,30689,1,0,0:0:0:0:
236,125,30860,1,0,0:0:0:0:
384,40,31030,2,0,P|418:53|438:69,1,50
473,187,31371,5,0,0:0:0:0:
467,224,31456,1,0,0:0:0:0:
453,259,31542,1,0,0:0:0:0:
431,289,31627,1,0,0:0:0:0:
398,308,31712,1,0,0:0:0:0:
281,314,31882,1,0,0:0:0:0:
373,212,32053,1,0,0:0:0:0:
465,355,32223,1,0,0:0:0:0:
284,221,32394,2,0,P|297:164|333:125,1,100
188,20,33076,5,0,0:0:0:0:
188,20,33161,1,0,0:0:0:0:
188,20,33246,1,0,0:0:0:0:
116,89,33417,2,0,L|94:152,1,50
22,199,33757,2,0,L|30:256,1,50
108,340,34098,2,0,L|113:286,1,50
125,190,34439,1,0,0:0:0:0:
125,190,34610,1,0,0:0:0:0:
26,287,34780,6,0,L|86:320,1,50
153,365,35121,2,0,L|203:368,1,50
303,367,35462,5,0,0:0:0:0:
258,171,35803,5,0,0:0:0:0:
258,171,35888,1,0,0:0:0:0:
258,171,35973,1,0,0:0:0:0:
362,239,36144,2,0,L|326:191,1,50
373,107,36485,2,0,L|311:96,1,50
229,25,36826,5,0,0:0:0:0:
191,26,36911,1,0,0:0:0:0:
154,34,36996,1,0,0:0:0:0:
120,49,37081,1,0,0:0:0:0:
91,74,37167,1,0,0:0:0:0:
76,172,37337,1,0,0:0:0:0:
219,139,37507,1,0,0:0:0:0:
48,43,37678,1,0,0:0:0:0:
193,222,37848,2,0,P|242:223|298:180,1,100
308,99,38360,6,0,L|347:55,2,50
403,129,38871,2,0,L|391:187,2,50
471,220,39382,1,0,0:0:0:0:
475,350,39553,2,0,L|472:235,1,100
469,47,40235,1,0,0:0:0:0:
314,83,40576,2,0,P|358:103|375:119,1,50
220,154,40917,6,0,L|160:154,1,50
49,158,41257,1,0,0:0:0:0:
58,121,41343,1,0,0:0:0:0:
79,90,41428,1,0,0:0:0:0:
107,66,41513,1,0,0:0:0:0:
143,55,41598,5,0,0:0:0:0:
243,54,41769,1,0,0:0:0:0:
171,155,41939,1,0,0:0:0:0:
45,24,42110,1,0,0:0:0:0:
265,42,42280,5,0,0:0:0:0:
302,44,42365,1,0,0:0:0:0:
337,55,42451,1,0,0:0:0:0:
367,76,42536,1,0,0:0:0:0:
392,103,42621,1,0,0:0:0:0:
402,202,42792,1,0,0:0:0:0:
289,140,42962,1,0,0:0:0:0:
482,105,43132,1,0,0:0:0:0:
312,221,43303,2,0,L|293:244,1,25
314,286,43473,2,0,L|302:327,1,25
319,358,43644,6,0,P|358:368|384:366,1,50
464,342,43985,1,0,0:0:0:0:
490,316,44070,1,0,0:0:0:0:
502,280,44155,1,0,0:0:0:0:
502,242,44240,1,0,0:0:0:0:
489,206,44326,2,0,P|465:166|456:151,1,50
371,163,44667,2,0,L|345:118,1,50
260,23,45007,5,0,0:0:0:0:
260,23,45093,1,0,0:0:0:0:
260,23,45178,1,0,0:0:0:0:
371,163,45348,1,0,0:0:0:0:
222,190,45519,1,0,0:0:0:0:
184,190,45604,1,0,0:0:0:0:
147,181,45689,2,0,P|105:164|92:149,1,50
64,77,46030,1,0,0:0:0:0:
100,86,46115,1,0,0:0:0:0:
127,111,46201,1,0,0:0:0:0:
142,144,46286,1,0,0:0:0:0:
147,181,46371,6,0,P|143:222|137:241,1,50
83,310,46712,1,0,0:0:0:0:
83,310,46797,1,0,0:0:0:0:
83,310,46882,1,0,0:0:0:0:
62,192,47053,6,0,L|115:217,1,50
140,230,47309,1,0,0:0:0:0:
175,242,47394,1,0,0:0:0:0:
306,299,47564,1,0,0:0:0:0:
339,282,47649,1,0,0:0:0:0:
363,252,47735,1,0,0:0:0:0:
378,217,47820,1,0,0:0:0:0:
386,180,47905,1,0,0:0:0:0:
315,91,48076,1,0,0:0:0:0:
317,128,48161,1,0,0:0:0:0:
331,162,48246,1,0,0:0:0:0:
349,194,48331,1,0,0:0:0:0:
378,217,48417,6,0,L|423:239,2,50
257,167,48928,1,0,0:0:0:0:
63,126,49098,6,0,P|79:169|86:187,1,50
27,263,49439,2,0,L|81:271,1,50
108,368,49780,2,0,L|163:336,1,50
259,368,50121,2,0,L|255:299,1,50
309,233,50462,2,0,P|243:221|196:233,1,100
176,332,50973,1,0,0:0:0:0:
326,328,51144,2,0,L|383:328,1,50
426,370,51485,2,0,L|474:332,1,50
501,212,51826,5,0,0:0:0:0:
279,90,51996,6,0,L|306:98,1,25
444,82,52167,2,0,L|405:85,1,25
265,131,52337,2,0,L|292:139,1,25
430,123,52508,2,0,L|391:126,1,25
251,170,52678,2,0,L|278:178,1,25
416,162,52848,2,0,B|418:165|419:184|401:209|371:231,1,75
340,244,53189,6,0,L|347:273,1,25
190,253,53360,2,0,L|163:227,1,25
294,253,53530,2,0,L|301:282,1,25
144,262,53701,2,0,L|117:236,1,25
245,260,53871,2,0,L|252:289,1,25
95,269,54042,2,0,L|68:243,1,25
198,265,54212,2,0,P|179:307|143:330,1,75
63,346,54553,5,0,0:0:0:0:
67,175,54723,6,0,P|95:158|133:147,1,50
201,72,55064,2,0,L|161:57,1,25
260,172,55235,2,0,L|289:172,1,25
219,100,55405,2,0,L|179:85,1,25
278,200,55576,2,0,L|385:213,1,100
475,317,56087,5,0,0:0:0:0:
475,317,56172,1,0,0:0:0:0:
475,317,56257,2,0,L|410:313,1,50
324,309,56598,1,0,0:0:0:0:
119,117,57280,6,0,P|202:112|306:135,1,175
373,208,57962,1,0,0:0:0:0:
185,236,58644,6,0,P|111:196|35:121,1,175,0|0,0:3|0:3,0:3:0:0:
17,24,59326,1,0,0:3:0:0:
331,32,60007,6,0,P|379:60|413:190,1,175
342,254,60689,1,0,0:0:0:0:
87,128,61371,6,0,P|119:83|252:62,1,175
308,140,62053,1,0,0:0:0:0:
171,316,62735,6,0,P|114:317|121:221,1,175
214,180,63417,1,0,0:0:0:0:
365,50,63757,5,0,0:0:0:0:
365,50,64098,2,0,P|398:48|416:164,1,175
348,243,64780,1,0,0:0:0:0:
136,53,65462,6,0,P|77:83|86:200,1,175
173,147,66144,1,0,0:0:0:0:
390,157,66485,6,0,P|372:130|345:107,1,50
446,285,66826,2,0,P|463:244|463:222,2,50
354,338,67337,1,0,0:0:0:0:
261,253,67507,2,0,P|294:243|362:255,1,100
458,35,68189,6,0,P|416:52|461:156,1,175
443,154,68871,1,0,0:0:0:0:
230,126,69553,6,0,P|277:139|321:91,1,100
293,0,70064,1,0,0:0:0:0:
334,134,70235,1,0,0:0:0:0:
94,221,70917,6,0,L|76:115,1,100
49,12,71428,1,0,0:0:0:0:
219,138,71598,1,0,0:0:0:0:
51,247,71939,6,0,L|104:213,1,50
251,257,72280,2,0,L|188:262,2,50
346,351,72792,1,0,0:0:0:0:
346,351,72962,1,0,0:0:0:0:
491,236,73303,6,0,P|464:227|428:227,1,50
340,267,73644,1,0,0:0:0:0:
500,219,73985,2,0,P|507:186|505:153,1,50
478,55,74326,1,0,0:0:0:0:
265,30,74667,5,0,0:0:0:0:
227,26,74752,1,0,0:0:0:0:
190,34,74837,1,0,0:0:0:0:
106,109,75007,2,0,P|136:123|167:131,1,50
191,216,75348,2,0,P|237:208|261:198,1,50
331,141,75689,1,0,0:0:0:0:
417,15,76030,5,0,0:0:0:0:
417,15,76201,1,0,0:0:0:0:
480,107,76371,2,0,L|463:164,1,50
475,267,76712,2,0,L|418:283,1,50
365,375,77053,1,0,0:0:0:0:
227,242,77394,5,0,0:0:0:0:
227,242,77564,1,0,0:0:0:0:
77,276,77735,2,0,P|113:315|165:315,1,100
72,254,78246,1,0,0:0:0:0:
238,321,78417,1,0,0:0:0:0:
279,79,78928,5,0,0:0:0:0:
147,89,79098,1,0,0:0:0:0:
336,174,79439,1,0,0:0:0:0:
372,182,79524,1,0,0:0:0:0:
408,191,79610,1,0,0:0:0:0:
492,264,79780,1,0,0:0:0:0:
325,306,80121,5,0,0:0:0:0:
288,315,80206,1,0,0:0:0:0:
251,325,80292,1,0,0:0:0:0:
151,375,80462,1,0,0:0:0:0:
290,383,80632,1,0,0:0:0:0:
176,278,80803,2,0,L|132:244,1,50
13,229,81144,1,0,0:0:0:0:
218,142,81485,5,0,0:0:0:0:
218,142,81655,1,0,0:0:0:0:
327,220,81826,2,0,P|375:221|396:217,1,50
487,137,82167,2,0,P|440:137|414:142,1,50
509,223,82507,1,0,0:0:0:0:
504,37,82848,5,0,0:0:0:0:
504,37,83019,1,0,0:0:0:0:
356,81,83189,2,0,L|240:62,1,100
218,57,83701,1,0,0:0:0:0:
408,146,83871,1,0,0:0:0:0:
393,267,84553,6,0,P|310:272|278:268,1,100
181,200,85064,1,0,0:0:0:0:
389,221,85235,1,0,0:0:0:0:
327,148,85917,6,0,P|400:187|426:211,1,100,0|0,0:3|0:3,0:3:0:0:
469,306,86428,1,0,0:0:0:0:
317,181,86598,1,0,0:3:0:0:
181,352,87280,6,0,P|133:324|134:268,1,100
208,188,87792,1,0,0:0:0:0:
214,354,87962,1,0,0:0:0:0:
425,256,88644,6,0,P|392:300|380:307,1,50
299,369,88985,2,0,L|263:320,1,50
333,216,89326,1,0,0:0:0:0:
119,117,90007,6,0,P|202:112|234:116,1,100
331,184,90518,1,0,0:0:0:0:
124,84,90689,1,0,0:0:0:0:
185,236,91371,6,0,P|111:196|86:173,1,100,0|0,0:3|0:3,0:3:0:0:
43,78,91882,1,0,0:0:0:0:
189,263,92053,1,0,0:3:0:0:
331,32,92735,6,0,P|379:60|378:116,1,100
304,196,93246,1,0,0:0:0:0:
356,8,93416,1,0,0:0:0:0:
87,128,94098,6,0,P|119:83|132:77,1,50
213,15,94439,2,0,L|249:64,1,50
179,168,94780,1,0,0:0:0:0:
30,365,95462,6,0,L|77:341,1,50
200,364,95803,2,0,L|262:359,1,50
381,373,96144,2,0,L|440:376,2,50
469,236,96826,6,0,L|463:301,1,50
371,119,97167,2,0,L|392:186,1,50
227,74,97507,2,0,L|271:118,2,50
474,40,98189,6,0,L|427:85,1,50
385,166,98530,2,0,L|364:219,1,50
414,324,98871,2,0,L|405:377,2,50
246,363,99553,6,0,L|186:337,1,50
78,355,99894,2,0,L|60:296,1,50
18,192,100235,2,0,L|38:127,2,50
124,25,100917,6,0,L|57:41,1,50
194,89,101257,2,0,L|253:104,1,50
316,25,101598,2,0,L|375:18,1,50
495,83,101939,2,0,L|428:73,1,50
322,120,102280,6,0,L|306:181,1,50
417,135,102621,2,0,L|433:192,1,50
292,263,102962,2,0,L|279:323,1,50
467,303,103303,1,0,0:0:0:0:
211,265,103644,5,0,0:0:0:0:
345,351,103814,1,0,0:0:0:0:
282,202,103985,1,0,0:0:0:0:
415,289,104155,1,0,0:0:0:0:
356,139,104326,1,0,0:0:0:0:
490,224,104496,1,0,0:0:0:0:
422,78,104667,1,0,0:0:0:0:
390,57,104752,1,0,0:0:0:0:
352,52,104837,1,0,0:0:0:0:
219,140,105007,6,0,P|228:179|347:169,1,175
351,162,105689,1,0,0:0:0:0:
45,59,106371,6,0,P|123:41|213:113,1,187.5
219,141,106711,1,0,0:0:0:0:
59,300,107052,6,0,B|94:242|94:242|150:220,1,125
316,290,107393,2,0,B|321:224|321:224|296:154,1,125
234,6,107734,5,0,0:0:0:0:
403,51,107905,1,0,0:0:0:0:
240,114,108075,1,0,0:0:0:0:
381,10,108246,1,0,0:0:0:0:
422,179,108416,2,0,B|430:254|430:254|421:317,1,125
272,211,108757,1,0,0:0:0:0:
23,100,109098,6,0,B|48:171|48:171|106:197,1,125
117,320,109439,2,0,B|186:349|186:349|247:344,1,125
387,256,109780,2,0,P|316:246|266:273,1,125
423,354,110121,2,0,P|479:316|492:261,1,125
448,94,110461,1,0,0:0:0:0:
313,206,110632,1,0,0:0:0:0:
484,238,110802,2,0,L|381:153,1,125
226,89,111143,2,0,P|296:55|359:70,1,125
382,231,111484,1,0,0:0:0:0:
173,343,111825,6,0,L|157:212,1,125
178,368,112166,1,0,0:0:0:0:
158,194,112336,1,0,0:0:0:0:
246,42,112507,2,0,L|255:174,1,125
378,291,112848,6,0,P|422:233|418:162,1,125
390,10,113189,2,0,P|365:100|376:144,1,125
505,79,113530,1,0,0:0:0:0:
358,174,113700,1,0,0:0:0:0:
319,2,113871,2,0,L|419:109,1,125
496,241,114211,1,0,0:0:0:0:
150,298,114552,5,0,0:0:0:0:
322,331,114723,1,0,0:0:0:0:
229,182,114893,1,0,0:0:0:0:
240,363,115064,1,0,0:0:0:0:
326,186,115234,2,0,P|303:119|247:84,1,125
97,151,115575,5,0,0:0:0:0:
207,287,115746,1,0,0:0:0:0:
39,239,115916,1,0,0:0:0:0:
156,76,116086,1,0,0:0:0:0:
281,198,116257,2,0,P|220:189|166:141,1,125
47,25,116598,2,0,P|124:22|178:35,2,125
398,26,117280,6,0,B|396:77|395:127|395:127|370:161,1,125
277,239,117621,1,0,0:0:0:0:
245,258,117706,1,0,0:0:0:0:
209,270,117791,1,0,0:0:0:0:
172,276,117876,1,0,0:0:0:0:
134,276,117961,5,0,0:0:0:0:
37,144,118132,1,0,0:0:0:0:
194,180,118302,1,0,0:0:0:0:
40,235,118473,1,0,0:0:0:0:
160,74,118643,5,0,0:0:0:0:
192,55,118728,1,0,0:0:0:0:
229,54,118814,1,0,0:0:0:0:
265,60,118899,1,0,0:0:0:0:
299,74,118984,5,0,0:0:0:0:
332,233,119155,1,0,0:0:0:0:
415,94,119325,1,0,0:0:0:0:
465,278,119496,1,0,0:0:0:0:
314,109,119666,5,0,0:0:0:0:
299,74,119751,1,0,0:0:0:0:
295,36,119836,1,0,0:0:0:0:
443,136,120007,5,0,0:0:0:0:
288,257,120177,5,0,0:0:0:0:
98,166,120348,5,0,0:0:0:0:
106,129,120433,1,0,0:0:0:0:
123,95,120518,1,0,0:0:0:0:
148,66,120603,1,0,0:0:0:0:
176,40,120689,5,0,0:0:0:0:
240,176,120859,1,0,0:0:0:0:
349,302,121030,1,0,0:0:0:0:
374,98,121200,1,0,0:0:0:0:
231,280,121371,6,0,L|217:345,2,62.5
217,242,121626,2,0,L|196:165,1,62.5
143,50,121882,1,0,0:0:0:0:
70,209,122052,5,0,0:0:0:0:
272,137,122223,1,0,0:0:0:0:
33,75,122393,2,0,B|37:150|37:150|72:215,1,125
16,373,122734,6,0,B|81:350|81:350|124:310,2,125
219,353,123246,1,0,0:0:0:0:
363,279,123416,2,0,P|291:268|222:284,1,125
377,365,123757,2,0,P|435:333|441:261,1,125
369,135,124098,5,0,0:0:0:0:
501,228,124268,1,0,0:0:0:0:
493,73,124439,1,0,0:0:0:0:
396,229,124609,1,0,0:0:0:0:
331,39,124780,2,0,P|412:42|460:69,1,125
262,104,125121,1,0,0:0:0:0:
56,33,125461,6,0,P|136:45|189:71,1,125
289,179,125802,1,0,0:0:0:0:
289,179,125888,1,0,0:0:0:0:
289,179,125973,1,0,0:0:0:0:
118,215,126143,2,0,B|67:164|67:164|50:98,1,125
199,184,126484,2,0,P|198:253|145:301,1,125
9,347,126825,5,0,0:0:0:0:
171,365,126996,1,0,0:0:0:0:
50,250,127166,1,0,0:0:0:0:
181,378,127336,1,0,0:0:0:0:
123,197,127507,2,0,P|63:166|-3:175,1,125
457,228,128189,6,0,P|391:245|376:299,1,125
503,370,128530,1,0,0:0:0:0:
450,216,128700,1,0,0:0:0:0:
296,330,128871,1,0,0:0:0:0:
495,291,129041,1,0,0:0:0:0:
332,172,129211,1,0,0:0:0:0:
409,338,129382,1,0,0:0:0:0:
246,183,129552,6,0,P|253:129|310:89,1,125
470,91,129893,1,0,0:0:0:0:
351,203,130064,1,0,0:0:0:0:
369,32,130234,1,0,0:0:0:0:
456,198,130405,1,0,0:0:0:0:
257,53,130575,1,0,0:0:0:0:
193,308,130916,6,0,P|164:340|76:326,1,125
13,191,131257,1,0,0:0:0:0:
169,232,131427,1,0,0:0:0:0:
30,351,131598,1,0,0:0:0:0:
102,172,131768,1,0,0:0:0:0:
256,342,131939,6,0,B|271:274|271:274|252:212,1,125
417,209,132280,2,0,B|376:152|376:152|317:124,2,125
339,322,132791,1,0,0:0:0:0:
213,147,132961,2,0,B|264:100|264:100|327:85,1,125
476,134,133302,1,0,0:0:0:0:
55,156,133643,6,0,P|121:139|136:85,1,125
9,14,133984,1,0,0:0:0:0:
62,168,134154,1,0,0:0:0:0:
216,54,134325,1,0,0:0:0:0:
17,93,134495,1,0,0:0:0:0:
180,212,134665,1,0,0:0:0:0:
103,46,134836,1,0,0:0:0:0:
266,201,135006,6,0,P|259:255|202:295,1,125
42,293,135347,1,0,0:0:0:0:
161,181,135518,1,0,0:0:0:0:
143,352,135688,1,0,0:0:0:0:
56,186,135859,1,0,0:0:0:0:
255,331,136029,1,0,0:0:0:0:
289,47,136371,6,0,L|275:180,1,125
255,331,136711,1,0,0:0:0:0:
356,203,136882,1,0,0:0:0:0:
200,124,137052,1,0,0:0:0:0:
332,294,137223,1,0,0:0:0:0:
132,300,137393,1,0,0:0:0:0:
418,147,137734,6,0,B|443:217|443:217|442:284,2,125
342,31,138246,5,0,0:0:0:0:
342,31,138331,1,0,0:0:0:0:
342,31,138416,1,0,0:0:0:0:
494,86,138586,5,0,0:0:0:0:
494,86,138672,1,0,0:0:0:0:
494,86,138757,2,0,L|408:-4,2,125
338,134,139268,1,0,0:0:0:0:
447,13,139439,1,0,0:0:0:0:
449,275,139780,6,0,P|408:294|325:278,1,125
174,150,140121,2,0,P|114:208|107:253,1,125
305,136,140461,2,0,P|274:80|199:39,1,125
197,235,140802,1,0,0:0:0:0:
311,352,141143,6,0,B|389:327|389:327|413:277,1,125
366,130,141484,2,0,B|335:192|335:192|333:257,1,125
464,151,141825,2,0,P|450:82|408:40,1,125
258,94,142166,6,0,B|172:106|172:106|115:93,1,125
3,1,142507,2,0,L|22:131,1,125
73,278,142848,2,0,P|111:222|99:142,1,125
19,302,143189,2,0,P|54:359|113:388,1,125
263,354,143530,1,0,0:0:0:0:
263,354,143700,1,0,0:0:0:0:
257,191,143871,6,0,L|257:58,2,125
223,350,144382,1,0,0:0:0:0:
155,186,144552,2,0,P|183:123|237:94,1,125
390,70,144893,2,0,P|348:129|280:149,1,125
401,19,145234,2,0,P|475:58|502:106,1,125
489,253,145575,6,0,L|481:381,2,125
506,90,146086,1,0,0:0:0:0:
506,90,146257,1,0,0:0:0:0:
203,287,146598,6,0,P|273:303|331:266,1,125
169,193,146939,2,0,P|114:238|100:298,1,125
211,169,147280,2,0,L|142:54,2,125
345,242,147791,1,0,0:0:0:0:
345,242,147961,2,0,L|462:303,2,125
238,117,148473,1,0,0:0:0:0:
400,113,148643,2,0,B|478:85|478:85|511:38,2,125
171,305,149325,5,0,0:0:0:0:
162,312,149666,5,0,0:0:0:0:
152,322,150007,6,0,B|76:358|76:358|23:360,2,125
252,193,150518,1,0,0:0:0:0:
301,348,150689,1,0,0:0:0:0:
152,225,150859,1,0,0:0:0:0:
346,247,151030,1,0,0:0:0:0:
217,345,151200,1,0,0:0:0:0:
315,150,151371,6,0,P|377:154|437:192,1,125
483,338,151711,1,0,0:0:0:0:
478,175,151882,1,0,0:0:0:0:
375,300,152052,1,0,0:0:0:0:
375,300,152138,1,0,0:0:0:0:
375,300,152223,1,0,0:0:0:0:
468,147,152393,1,0,0:0:0:0:
487,322,152564,1,0,0:0:0:0:
299,165,152734,2,0,P|218:146|192:112,1,125
376,134,153075,5,0,0:0:0:0:
182,37,153246,1,0,0:0:0:0:
362,41,153416,1,0,0:0:0:0:
237,188,153586,1,0,0:0:0:0:
127,31,153757,1,0,0:0:0:0:
49,219,153927,1,0,0:0:0:0:
256,154,154098,2,0,P|308:182|355:247,2,125
182,300,154609,1,0,0:0:0:0:
359,323,154780,6,0,P|423:284|436:233,1,125
335,54,155121,2,0,P|330:123|363:187,1,125
463,48,155461,1,0,0:0:0:0:
246,38,155632,1,0,0:0:0:0:
246,38,155717,1,0,0:0:0:0:
246,38,155802,1,0,0:0:0:0:
412,122,155973,1,0,0:0:0:0:
225,47,156143,1,0,0:0:0:0:
446,80,156314,1,0,0:0:0:0:
215,141,156484,6,0,B|148:142|148:142|95:119,1,125
225,47,156825,2,0,B|286:78|286:78|306:134,1,125
339,290,157166,2,0,P|394:334|471:347,1,125
367,204,157507,2,0,P|295:222|250:262,2,125
481,320,158018,1,0,0:0:0:0:
279,338,158189,6,0,P|215:319|171:271,1,125
13,259,158530,2,0,P|64:202|115:178,1,125
269,187,158871,2,0,P|231:218|144:236,1,125
200,80,159211,2,0,P|277:59|346:76,1,125
430,185,159552,6,0,B|367:217|367:217|301:220,1,125
167,292,159893,2,0,B|248:283|248:283|309:302,1,125
433,372,160234,2,0,B|385:331|376:261|376:261|421:221,1,187.5
439,208,160575,1,0,0:0:0:0:
146,339,160916,5,0,0:0:0:0:
112,321,161001,1,0,0:0:0:0:
89,291,161086,1,0,0:0:0:0:
75,255,161172,1,0,0:0:0:0:
71,217,161257,1,0,0:0:0:0:
74,179,161342,1,0,0:0:0:0:
92,146,161427,1,0,0:0:0:0:
243,84,161598,6,0,L|185:122,2,62.5
169,205,161939,1,0,0:0:0:0:
330,216,162109,5,0,0:0:0:0:
330,216,162194,1,0,0:0:0:0:
330,216,162280,1,0,0:0:0:0:
446,328,162450,1,0,0:0:0:0:
434,165,162621,5,0,0:0:0:0:
409,136,162706,1,0,0:0:0:0:
376,117,162791,1,0,0:0:0:0:
339,107,162876,1,0,0:0:0:0:
301,110,162961,1,0,0:0:0:0:
227,235,163132,1,0,0:0:0:0:
357,278,163302,5,0,0:0:0:0:
364,240,163388,1,0,0:0:0:0:
362,202,163473,1,0,0:0:0:0:
350,166,163558,1,0,0:0:0:0:
329,134,163643,1,0,0:0:0:0:
53,38,163984,5,0,0:0:0:0:
246,76,164155,1,0,0:0:0:0:
84,167,164325,1,0,0:0:0:0:
208,28,164496,1,0,0:0:0:0:
220,242,164666,6,0,L|212:109,1,125
351,215,165007,2,0,L|359:348,2,125
434,84,165518,1,0,0:0:0:0:
286,232,165689,1,0,0:0:0:0:
469,211,165859,1,0,0:0:0:0:
364,64,166030,1,0,0:0:0:0:
180,212,166371,5,0,0:0:0:0:
142,217,166456,1,0,0:0:0:0:
105,209,166541,1,0,0:0:0:0:
74,187,166626,1,0,0:0:0:0:
55,154,166711,1,0,0:0:0:0:
53,116,166797,1,0,0:0:0:0:
67,81,166882,1,0,0:0:0:0:
97,59,166967,1,0,0:0:0:0:
133,49,167052,1,0,0:0:0:0:
170,50,167138,1,0,0:0:0:0:
206,59,167223,1,0,0:0:0:0:
239,75,167308,1,0,0:0:0:0:
267,98,167393,2,0,L|332:68,3,62.5
300,173,167734,5,0,0:0:0:0:
324,201,167819,1,0,0:0:0:0:
357,218,167905,1,0,0:0:0:0:
393,224,167990,1,0,0:0:0:0:
430,221,168075,1,0,0:0:0:0:
462,202,168160,1,0,0:0:0:0:
484,171,168246,1,0,0:0:0:0:
491,134,168331,1,0,0:0:0:0:
490,96,168416,1,0,0:0:0:0:
470,64,168501,1,0,0:0:0:0:
438,43,168586,1,0,0:0:0:0:
401,34,168672,1,0,0:0:0:0:
363,39,168757,2,0,L|272:37,3,62.5
332,117,169098,5,0,0:0:0:0:
368,122,169183,1,0,0:0:0:0:
402,137,169268,1,0,0:0:0:0:
430,160,169353,1,0,0:0:0:0:
447,193,169439,1,0,0:0:0:0:
450,230,169524,1,0,0:0:0:0:
443,266,169609,1,0,0:0:0:0:
425,299,169694,1,0,0:0:0:0:
395,323,169780,1,0,0:0:0:0:
361,339,169865,1,0,0:0:0:0:
323,341,169950,1,0,0:0:0:0:
286,335,170035,1,0,0:0:0:0:
249,345,170121,2,0,L|194:387,3,62.5
203,279,170461,5,0,0:0:0:0:
224,247,170547,1,0,0:0:0:0:
227,209,170632,1,0,0:0:0:0:
217,172,170717,1,0,0:0:0:0:
194,142,170802,1,0,0:0:0:0:
165,117,170888,1,0,0:0:0:0:
129,103,170973,1,0,0:0:0:0:
91,104,171058,1,0,0:0:0:0:
54,112,171143,6,0,B|28:178|28:178|39:234,2,125
311,30,171825,5,0,0:0:0:0:
347,23,171910,1,0,0:0:0:0:
384,26,171996,1,0,0:0:0:0:
419,37,172081,1,0,0:0:0:0:
448,60,172166,1,0,0:0:0:0:
465,93,172251,1,0,0:0:0:0:
469,130,172336,1,0,0:0:0:0:
457,166,172422,1,0,0:0:0:0:
427,188,172507,1,0,0:0:0:0:
389,192,172592,1,0,0:0:0:0:
353,179,172677,1,0,0:0:0:0:
330,148,172763,1,0,0:0:0:0:
327,110,172848,5,0,0:0:0:0:
352,83,172933,1,0,0:0:0:0:
387,71,173018,1,0,0:0:0:0:
422,82,173103,1,0,0:0:0:0:
448,109,173189,1,0,0:0:0:0:
460,144,173274,1,0,0:0:0:0:
455,181,173359,1,0,0:0:0:0:
432,210,173444,1,0,0:0:0:0:
400,230,173530,1,0,0:0:0:0:
363,239,173615,1,0,0:0:0:0:
325,236,173700,1,0,0:0:0:0:
288,226,173785,1,0,0:0:0:0:
253,211,173871,5,0,0:0:0:0:
218,196,173956,1,0,0:0:0:0:
182,185,174041,1,0,0:0:0:0:
144,181,174126,1,0,0:0:0:0:
107,189,174211,1,0,0:0:0:0:
79,215,174297,1,0,0:0:0:0:
64,249,174382,1,0,0:0:0:0:
62,286,174467,1,0,0:0:0:0:
75,320,174552,1,0,0:0:0:0:
104,343,174638,1,0,0:0:0:0:
139,355,174723,1,0,0:0:0:0:
176,360,174808,1,0,0:0:0:0:
211,347,174893,5,0,0:0:0:0:
236,319,174978,1,0,0:0:0:0:
241,281,175064,1,0,0:0:0:0:
231,244,175149,1,0,0:0:0:0:
203,219,175234,1,0,0:0:0:0:
168,203,175319,1,0,0:0:0:0:
130,205,175405,1,0,0:0:0:0:
96,221,175490,1,0,0:0:0:0:
79,254,175575,1,0,0:0:0:0:
80,291,175660,1,0,0:0:0:0:
94,326,175746,1,0,0:0:0:0:
125,345,175831,1,0,0:0:0:0:
161,354,175916,5,0,0:0:0:0:
198,357,176001,1,0,0:0:0:0:
233,345,176086,1,0,0:0:0:0:
263,322,176172,1,0,0:0:0:0:
286,292,176257,1,0,0:0:0:0:
316,270,176342,1,0,0:0:0:0:
350,256,176427,1,0,0:0:0:0:
387,252,176513,1,0,0:0:0:0:
421,266,176598,1,0,0:0:0:0:
450,288,176683,1,0,0:0:0:0:
472,318,176768,1,0,0:0:0:0:
480,354,176853,1,0,0:0:0:0:
477,380,176939,1,0,0:0:0:0:
464,116,177280,5,0,0:0:0:0:
464,116,177365,1,0,0:0:0:0:
464,116,177450,1,0,0:0:0:0:
267,194,177621,5,0,0:0:0:0:
267,194,177706,1,0,0:0:0:0:
267,194,177791,1,0,0:0:0:0:
463,310,177961,5,0,0:0:0:0:
478,275,178047,1,0,0:0:0:0:
480,237,178132,1,0,0:0:0:0:
460,204,178217,1,0,0:0:0:0:
426,188,178302,1,0,0:0:0:0:
388,185,178388,1,0,0:0:0:0:
353,198,178473,1,0,0:0:0:0:
332,229,178558,1,0,0:0:0:0:
318,263,178643,6,0,L|250:241,2,62.5
353,276,178899,1,0,0:0:0:0:
374,306,178984,1,0,0:0:0:0:
370,343,179069,1,0,0:0:0:0:
342,368,179155,1,0,0:0:0:0:
306,378,179240,1,0,0:0:0:0:
268,373,179325,1,0,0:0:0:0:
238,350,179410,1,0,0:0:0:0:
220,316,179496,1,0,0:0:0:0:
224,278,179581,1,0,0:0:0:0:
233,241,179666,6,0,L|296:216,2,62.5
218,205,179922,1,0,0:0:0:0:
197,173,180007,1,0,0:0:0:0:
167,149,180092,1,0,0:0:0:0:
130,141,180177,1,0,0:0:0:0:
95,155,180263,1,0,0:0:0:0:
68,181,180348,1,0,0:0:0:0:
61,217,180433,1,0,0:0:0:0:
70,253,180518,1,0,0:0:0:0:
93,281,180603,1,0,0:0:0:0:
117,309,180689,2,0,L|179:325,2,62.5
96,340,180944,5,0,0:0:0:0:
63,358,181030,1,0,0:0:0:0:
429,363,181371,5,0,0:0:0:0:
393,352,181456,1,0,0:0:0:0:
356,341,181541,1,0,0:0:0:0:
319,348,181626,1,0,0:0:0:0:
283,360,181711,1,0,0:0:0:0:
246,370,181797,1,0,0:0:0:0:
209,360,181882,1,0,0:0:0:0:
174,344,181967,1,0,0:0:0:0:
136,346,182052,2,0,B|91:317|91:317|62:245,1,125
91,90,182393,1,0,0:0:0:0:
251,62,182564,6,0,L|292:119,2,62.5
412,83,182905,2,0,L|475:92,2,62.5
290,192,183246,1,0,0:0:0:0:
447,154,183416,1,0,0:0:0:0:
463,315,183586,1,0,0:0:0:0:
352,136,183757,2,0,L|318:77,2,62.5
352,299,184098,5,0,0:0:0:0:
326,326,184183,1,0,0:0:0:0:
291,340,184268,1,0,0:0:0:0:
125,284,184439,1,0,0:0:0:0:
286,231,184609,1,0,0:0:0:0:
97,195,184780,2,0,P|163:208|222:263,1,125
88,353,185121,1,0,0:0:0:0:
398,259,185461,5,0,0:0:0:0:
398,259,185632,1,0,0:0:0:0:
494,128,185802,2,0,B|423:115|423:115|362:117,1,125
237,21,186143,2,0,B|174:56|174:56|121:110,1,125
134,256,186484,1,0,0:0:0:0:
225,120,186655,1,0,0:0:0:0:
39,78,186825,1,0,0:0:0:0:
236,157,186996,1,0,0:0:0:0:
41,217,187166,1,0,0:0:0:0:
195,54,187336,1,0,0:0:0:0:
228,251,187507,2,0,P|296:229|326:183,1,125
178,49,187848,1,0,0:0:0:0:
282,141,188018,5,0,0:0:0:0:
430,42,188189,6,0,L|390:98,1,62.5
448,147,188359,2,0,L|449:215,1,62.5
498,273,188530,2,0,L|503:341,3,62.5
414,300,188871,6,0,L|340:290,1,62.5
299,349,189041,2,0,L|230:345,1,62.5
155,352,189211,2,0,L|89:357,3,62.5
130,268,189552,6,0,L|60:251,1,62.5
49,220,189723,2,0,L|106:173,1,62.5
111,145,189893,2,0,L|58:103,1,62.5
46,71,190064,2,0,L|102:25,1,62.5
131,27,190234,6,0,L|169:87,1,62.5
200,91,190405,2,0,L|196:156,1,62.5
218,183,190575,2,0,L|267:237,1,62.5
274,264,190746,2,0,L|340:278,1,62.5
383,338,190916,6,0,L|450:325,3,62.5
304,357,191257,2,0,L|240:350,3,62.5
210,329,191598,6,0,L|167:280,1,62.5
131,286,191768,2,0,L|135:217,1,62.5
113,192,191939,2,0,L|166:152,1,62.5
168,117,192109,2,0,L|243:121,1,62.5
307,129,192280,1,0,0:0:0:0:
456,301,192621,5,0,0:0:0:0:
225,250,192791,1,0,0:0:0:0:
470,194,192961,1,0,0:0:0:0:
47,317,193302,5,0,0:0:0:0:
375,62,193643,6,0,P|387:119|331:211,1,150
233,216,194324,2,0,P|196:223|172:231,2,50
41,350,195006,6,0,P|118:358|143:345,1,100
85,273,195518,1,0,0:0:0:0:
168,216,195688,2,0,L|151:180,2,25
186,314,196029,1,0,0:0:0:0:
53,105,196370,6,0,L|56:171,1,50
154,89,196711,2,0,L|165:30,1,50
231,160,197052,2,0,L|255:214,2,50
386,37,197733,5,0,0:0:0:0:
483,140,197904,1,0,0:0:0:0:
437,272,198074,1,0,0:0:0:0:
424,299,198415,6,0,L|452:236,1,50
488,125,198756,1,0,0:0:0:0:
227,51,199097,5,0,0:0:0:0:
110,133,199268,1,0,0:0:0:0:
156,280,199438,1,0,0:0:0:0:
295,166,199779,5,0,0:0:0:0:
441,212,199949,1,0,0:0:0:0:
497,345,200120,1,0,0:0:0:0:
257,344,200461,6,0,P|210:345|193:341,1,50
94,287,200802,1,0,0:0:0:0:
76,253,200887,1,0,0:0:0:0:
73,215,200972,1,0,0:0:0:0:
194,127,201143,6,0,L|169:182,2,50
383,53,201654,1,0,0:0:0:0:
464,268,201824,5,0,0:0:0:0:
389,62,201995,1,0,0:0:0:0:
375,286,202165,5,0,0:0:0:0:
401,66,202336,1,0,0:0:0:0:
281,283,202506,5,0,0:0:0:0:
415,65,202677,1,0,0:0:0:0:
213,224,202847,5,0,0:0:0:0:
424,74,203018,1,0,0:0:0:0:
184,143,203188,5,0,0:0:0:0:
429,87,203358,1,0,0:0:0:0:
168,123,203529,1,0,0:0:0:0:
455,252,203870,5,0,0:0:0:0:
411,88,204040,1,0,0:0:0:0:
227,140,204211,1,0,0:0:0:0:
348,354,204552,5,0,0:0:0:0:
310,348,204637,1,0,0:0:0:0:
277,329,204722,1,0,0:0:0:0:
250,302,204807,1,0,0:0:0:0:
234,267,204893,1,0,0:0:0:0:
294,122,205233,6,0,P|330:106|356:104,2,50
81,153,205915,5,0,0:0:0:0:
46,137,206000,1,0,0:0:0:0:
33,101,206086,1,0,0:0:0:0:
36,63,206171,1,0,0:0:0:0:
68,44,206256,1,0,0:0:0:0:
105,40,206341,1,0,0:0:0:0:
140,52,206427,1,0,0:0:0:0:
174,66,206512,1,0,0:0:0:0:
210,71,206597,5,0,0:0:0:0:
321,50,206768,1,0,0:0:0:0:
321,50,206853,1,0,0:0:0:0:
321,50,206938,1,0,0:0:0:0:
435,64,207108,1,0,0:0:0:0:
435,64,207194,1,0,0:0:0:0:
435,64,207279,6,0,P|453:100|455:119,1,50
389,201,207620,2,0,P|405:234|428:259,1,50
490,330,207961,1,0,0:0:0:0:
457,348,208046,1,0,0:0:0:0:
421,358,208131,1,0,0:0:0:0:
383,362,208216,1,0,0:0:0:0:
345,360,208302,1,0,0:0:0:0:
245,240,208643,6,0,P|206:222|176:215,1,50
63,244,208983,2,0,P|88:249|123:249,1,50
206,125,209324,2,0,L|188:154,2,25
132,269,209665,1,0,0:0:0:0:
394,44,210006,6,0,L|424:62,1,25
161,50,210347,6,0,L|122:68,1,25
465,281,210688,5,0,0:0:0:0:
436,303,210773,1,0,0:0:0:0:
401,315,210858,1,0,0:0:0:0:
295,312,211029,1,0,0:0:0:0:
74,177,211370,5,0,0:0:0:0:
68,139,211455,1,0,0:0:0:0:
82,103,211540,1,0,0:0:0:0:
166,27,211711,1,0,0:0:0:0:
183,211,212052,5,0,0:0:0:0:
188,249,212137,1,0,0:0:0:0:
174,285,212222,1,0,0:0:0:0:
91,360,212393,1,0,0:0:0:0:
45,227,212563,5,0,0:0:0:0:
45,227,212648,1,0,0:0:0:0:
45,227,212733,1,0,0:0:0:0:
386,83,213415,5,0,0:0:0:0:
320,281,214097,6,0,L|252:191,1,100
41,344,214779,2,0,L|146:302,1,100
234,51,215461,5,0,0:0:0:0:
132,131,215631,2,0,L|106:148,2,25
438,127,216143,6,0,P|461:137|479:152,2,50
159,139,216824,5,0,0:0:0:0:
364,186,216995,1,0,0:0:0:0:
149,159,217165,1,0,0:0:0:0:
383,167,217336,1,0,0:0:0:0:
223,325,217506,5,0,0:0:0:0:
260,156,217677,1,0,0:0:0:0:
330,340,217847,1,0,0:0:0:0:
420,140,218188,5,0,0:0:0:0:
407,104,218273,1,0,0:0:0:0:
381,77,218358,1,0,0:0:0:0:
350,54,218444,1,0,0:0:0:0:
314,42,218529,1,0,0:0:0:0:
277,48,218614,1,0,0:0:0:0:
242,62,218699,1,0,0:0:0:0:
204,61,218785,1,0,0:0:0:0:
167,52,218870,6,0,L|95:44,2,50
389,144,219552,5,0,0:0:0:0:
418,167,219637,1,0,0:0:0:0:
439,197,219722,1,0,0:0:0:0:
455,230,219807,1,0,0:0:0:0:
461,267,219893,1,0,0:0:0:0:
450,302,219978,1,0,0:0:0:0:
423,328,220063,1,0,0:0:0:0:
408,362,220148,1,0,0:0:0:0:
373,376,220233,6,0,L|311:377,2,50
166,225,220915,6,0,L|211:257,1,50
343,242,221256,2,0,L|289:233,1,50
272,134,221597,2,0,L|216:149,1,50
174,66,221938,2,0,L|133:104,1,50
29,178,222279,6,0,L|31:241,2,50
74,244,222790,1,0,0:0:0:0:
115,326,222961,2,0,L|109:261,2,50
218,137,223643,5,0,0:0:0:0:
218,137,223728,1,0,0:0:0:0:
218,137,223813,1,0,0:0:0:0:
337,73,223983,2,0,L|289:100,1,50
379,156,224324,1,0,0:0:0:0:
414,170,224410,1,0,0:0:0:0:
443,192,224495,1,0,0:0:0:0:
317,217,224665,1,0,0:0:0:0:
470,49,225006,6,0,L|447:101,1,50
325,48,225347,2,0,L|383:41,1,50
476,145,225688,1,0,0:0:0:0:
221,254,225858,2,0,L|277:258,1,50
341,68,226370,6,0,P|398:67|391:163,1,175
298,204,227052,1,0,0:0:0:0:
147,334,227392,5,0,0:0:0:0:
147,334,227733,2,0,P|114:336|96:220,1,175
190,171,228415,1,0,0:0:0:0:
376,331,229097,6,0,P|435:301|426:184,1,175
339,237,229779,1,0,0:0:0:0:
122,227,230120,6,0,P|140:254|167:277,1,50
66,99,230461,2,0,P|49:140|49:162,2,50
158,46,230972,1,0,0:0:0:0:
251,131,231142,2,0,P|218:141|150:129,1,100
54,349,231824,6,0,P|96:332|51:228,1,175
49,230,232506,1,0,0:0:0:0:
282,258,233188,6,0,P|235:245|191:293,1,100
219,384,233699,1,0,0:0:0:0:
178,250,233870,1,0,0:0:0:0:
418,163,234552,6,0,L|436:269,1,100
463,372,235063,1,0,0:0:0:0:
293,246,235233,1,0,0:0:0:0:
461,137,235574,6,0,L|408:171,1,50
261,127,235915,2,0,L|324:122,2,50
166,33,236427,1,0,0:0:0:0:
166,33,236597,1,0,0:0:0:0:
21,148,236938,6,0,P|48:157|84:157,1,50
172,117,237279,1,0,0:0:0:0:
12,165,237620,2,0,P|5:198|7:231,1,50
34,329,237961,1,0,0:0:0:0:
247,354,238302,5,0,0:0:0:0:
285,358,238387,1,0,0:0:0:0:
322,350,238472,1,0,0:0:0:0:
406,275,238642,2,0,P|376:261|345:253,1,50
321,168,238983,2,0,P|275:176|251:186,1,50
181,243,239324,1,0,0:0:0:0:
95,369,239665,5,0,0:0:0:0:
95,369,239836,1,0,0:0:0:0:
32,277,240006,2,0,L|49:220,1,50
37,117,240347,2,0,L|94:101,1,50
147,9,240688,1,0,0:0:0:0:
285,142,241029,5,0,0:0:0:0:
285,142,241199,1,0,0:0:0:0:
435,108,241370,2,0,P|399:69|347:69,1,100
440,130,241881,1,0,0:0:0:0:
274,63,242052,1,0,0:0:0:0:
233,305,242563,5,0,0:0:0:0:
365,295,242733,1,0,0:0:0:0:
176,210,243074,1,0,0:0:0:0:
140,202,243159,1,0,0:0:0:0:
104,193,243245,1,0,0:0:0:0:
20,120,243415,1,0,0:0:0:0:
187,78,243756,5,0,0:0:0:0:
224,69,243841,1,0,0:0:0:0:
261,59,243927,1,0,0:0:0:0:
361,9,244097,1,0,0:0:0:0:
222,1,244267,1,0,0:0:0:0:
336,106,244438,2,0,L|380:140,1,50
499,155,244779,1,0,0:0:0:0:
218,142,245120,5,0,0:0:0:0:
218,142,245290,1,0,0:0:0:0:
327,220,245461,2,0,P|375:221|396:217,1,50
487,137,245802,2,0,P|440:137|414:142,1,50
509,223,246142,1,0,0:0:0:0:
504,37,246483,5,0,0:0:0:0:
504,37,246654,1,0,0:0:0:0:
356,81,246824,2,0,L|240:62,1,100
218,57,247336,1,0,0:0:0:0:
408,146,247506,1,0,0:0:0:0:
106,201,247847,6,0,L|168:195,1,50
331,176,248188,2,0,P|306:224|248:257,1,100
35,237,248870,6,0,L|75:190,1,50
31,75,249211,2,0,L|82:78,1,50
213,27,249552,2,0,P|243:81|256:131,1,100
313,326,250233,6,0,L|244:316,1,50
442,250,250574,2,0,L|374:257,1,50
219,141,250915,2,0,P|234:209|273:242,1,100
277,238,251427,1,0,0:0:0:0:
144,259,251597,6,0,L|120:306,1,50
38,215,251938,2,0,L|48:268,1,50
143,173,252279,2,0,P|195:149|221:99,1,100
207,79,252790,1,0,0:0:0:0:
288,216,252961,5,0,0:0:0:0:
423,22,253302,2,0,P|456:52|472:76,1,50
462,222,253643,2,0,L|460:159,1,50
456,29,253983,1,0,0:0:0:0:
439,185,254154,1,0,0:0:0:0:
295,35,254324,5,0,0:0:0:0:
488,168,254665,2,0,L|431:187,1,50
285,270,255006,2,0,P|285:207|319:162,1,100
166,351,255688,6,0,P|138:314|130:294,1,50
18,252,256029,2,0,L|44:197,1,50
68,47,256370,2,0,L|84:107,1,50
209,30,256711,2,0,L|197:97,2,50
211,199,257222,2,0,L|214:134,1,50
231,296,257563,1,0,0:0:0:0:
231,296,257733,1,0,0:0:0:0:
359,82,258074,6,0,L|369:148,1,50
413,279,258415,2,0,P|455:228|471:183,1,100
471,165,258927,1,0,0:0:0:0:
262,221,259097,1,0,0:0:0:0:
480,350,259608,1,0,0:0:0:0:
480,350,259779,6,0,L|461:292,1,50
345,269,260120,2,0,L|383:308,1,50
433,212,260461,2,0,B|479:191|479:191|511:147,1,100
399,38,260972,1,0,0:0:0:0:
399,38,261057,1,0,0:0:0:0:
399,38,261143,6,0,L|418:88,1,50
274,68,261483,2,0,L|315:26,1,50
353,167,261824,1,0,0:0:0:0:
134,54,262336,5,0,0:0:0:0:
192,201,262506,1,0,0:0:0:0:
34,85,262677,1,0,0:0:0:0:
226,194,262847,1,0,0:0:0:0:
21,122,263018,1,0,0:0:0:0:
250,106,263188,2,0,P|193:114|148:148,1,100
73,252,263699,1,0,0:0:0:0:
166,345,263870,6,0,L|110:330,1,50
212,278,264211,2,0,L|266:276,1,50
188,381,264552,1,0,0:0:0:0:
388,299,264893,6,0,L|376:355,1,50
287,217,265233,2,0,L|323:275,1,50
185,194,265574,2,0,L|231:157,1,50
91,173,265915,2,0,P|99:230|135:274,1,100
241,304,266427,1,0,0:0:0:0:
219,137,266597,6,0,L|206:69,2,50
317,225,267108,1,0,0:0:0:0:
292,50,267279,2,0,L|235:23,2,50
426,58,267790,1,0,0:0:0:0:
487,179,267961,2,0,L|432:180,1,50
276,175,268302,1,0,0:0:0:0:
101,312,268643,6,0,L|157:315,1,50
401,291,268983,2,0,L|346:300,1,50
85,227,269324,2,0,P|117:202|197:188,1,100
458,349,270006,6,0,P|416:332|461:228,1,175
463,230,270688,1,0,0:0:0:0:
230,258,271370,6,0,P|277:245|321:293,1,100
293,384,271881,1,0,0:0:0:0:
349,245,272052,1,0,0:0:0:0:
94,163,272734,6,0,L|76:269,1,100
49,372,273245,1,0,0:0:0:0:
219,246,273415,1,0,0:0:0:0:
51,137,273756,6,0,L|104:171,1,50
251,127,274097,2,0,P|190:129|136:147,1,100
349,243,274779,1,0,0:0:0:0:
342,259,275461,5,0,0:0:0:0:
419,76,275802,6,0,L|426:134,1,50
487,245,276143,2,0,L|483:187,1,50
376,59,276483,1,0,0:0:0:0:
376,59,276569,1,0,0:0:0:0:
376,59,276654,1,0,0:0:0:0:
501,156,276824,5,0,0:0:0:0:
236,51,277165,1,0,0:0:0:0:
199,59,277250,1,0,0:0:0:0:
165,76,277336,1,0,0:0:0:0:
140,103,277421,1,0,0:0:0:0:
125,137,277506,1,0,0:0:0:0:
199,308,277847,5,0,0:0:0:0:
212,273,277932,1,0,0:0:0:0:
211,235,278018,1,0,0:0:0:0:
196,200,278103,1,0,0:0:0:0:
168,174,278188,1,0,0:0:0:0:
305,335,278529,6,0,L|359:293,1,50
450,312,278870,2,0,L|450:249,1,50
488,137,279211,1,0,0:0:0:0:
482,100,279296,1,0,0:0:0:0:
469,64,279381,1,0,0:0:0:0:
445,35,279466,1,0,0:0:0:0:
412,14,279552,1,0,0:0:0:0:
311,36,279722,5,0,0:0:0:0:
311,36,279893,1,0,0:0:0:0:
311,36,280063,1,0,0:0:0:0:
311,36,280233,1,0,0:0:0:0:
488,239,280574,1,0,0:0:0:0:
160,295,280915,5,0,0:0:0:0:
135,275,281000,1,0,0:0:0:0:
116,249,281085,1,0,0:0:0:0:
106,219,281170,1,0,0:0:0:0:
105,187,281255,1,0,0:0:0:0:
111,156,281341,1,0,0:0:0:0:
125,128,281426,1,0,0:0:0:0:
249,57,281596,5,0,0:0:0:0:
250,88,281682,1,0,0:0:0:0:
244,118,281767,1,0,0:0:0:0:
231,146,281852,1,0,0:0:0:0:
211,169,281937,2,0,B|181:189|148:211|148:211|80:219,1,125
40,94,282278,5,0,0:0:0:0:
40,94,282363,1,0,0:0:0:0:
40,94,282449,1,0,0:0:0:0:
223,23,282619,5,0,0:0:0:0:
253,16,282704,1,0,0:0:0:0:
284,16,282790,1,0,0:0:0:0:
314,19,282875,1,0,0:0:0:0:
344,26,282960,1,0,0:0:0:0:
373,36,283045,1,0,0:0:0:0:
400,50,283130,1,0,0:0:0:0:
424,69,283216,1,0,0:0:0:0:
443,93,283301,1,0,0:0:0:0:
271,251,283642,5,0,0:0:0:0:
424,136,283812,1,0,0:0:0:0:
400,306,283983,1,0,0:0:0:0:
351,114,284153,1,0,0:0:0:0:
449,316,284324,2,0,L|396:198,1,125
284,66,284665,1,0,0:0:0:0:
327,280,284835,1,0,0:0:0:0:
96,136,285005,6,0,P|67:174|64:268,1,125
256,138,285346,2,0,P|223:77|156:52,1,125
244,281,285687,2,0,P|321:269|399:117,1,250
219,39,286369,5,0,0:0:0:0:
230,67,286454,1,0,0:0:0:0:
251,89,286540,1,0,0:0:0:0:
413,153,286710,2,0,B|370:100|370:100|308:89,1,125
328,240,287051,1,0,0:0:0:0:
356,253,287136,1,0,0:0:0:0:
386,257,287221,1,0,0:0:0:0:
417,257,287307,1,0,0:0:0:0:
446,248,287392,2,0,B|498:209|498:209|506:138,1,125
422,31,287733,5,0,0:0:0:0:
394,16,287818,1,0,0:0:0:0:
362,15,287903,1,0,0:0:0:0:
236,88,288074,2,0,B|201:103|201:103|166:108,2,62.5
356,132,288415,2,0,B|391:147|391:147|426:152,2,62.5
204,218,288755,1,0,0:0:0:0:
204,218,288841,1,0,0:0:0:0:
204,218,288926,1,0,0:0:0:0:
376,290,289096,6,0,B|320:317|320:317|249:314,1,125
226,308,289352,1,0,0:0:0:0:
195,299,289437,1,0,0:0:0:0:
165,287,289522,1,0,0:0:0:0:
140,267,289608,1,0,0:0:0:0:
120,242,289693,1,0,0:0:0:0:
109,212,289778,1,0,0:0:0:0:
177,44,290119,5,0,0:0:0:0:
176,75,290204,1,0,0:0:0:0:
170,106,290290,1,0,0:0:0:0:
159,135,290375,1,0,0:0:0:0:
141,160,290460,2,0,B|91:224|91:224|30:238,1,125
23,155,290801,5,0,0:0:0:0:
52,164,290886,1,0,0:0:0:0:
79,178,290971,1,0,0:0:0:0:
103,198,291057,1,0,0:0:0:0:
124,220,291142,2,0,B|145:254|145:254|152:293,2,62.5
211,182,291483,2,0,B|232:148|232:148|239:109,2,62.5
35,344,291824,5,0,0:0:0:0:
316,342,292165,6,0,L|451:359,2,125
151,292,292676,1,0,0:0:0:0:
373,270,292846,1,0,0:0:0:0:
403,264,292932,1,0,0:0:0:0:
433,259,293017,1,0,0:0:0:0:
316,202,293187,2,0,L|252:190,2,62.5
460,254,293528,1,0,0:0:0:0:
233,259,293699,5,0,0:0:0:0:
193,86,293869,1,0,0:0:0:0:
200,116,293954,1,0,0:0:0:0:
207,146,294040,1,0,0:0:0:0:
135,82,294210,1,0,0:0:0:0:
142,112,294295,1,0,0:0:0:0:
149,142,294381,1,0,0:0:0:0:
57,250,294551,6,0,L|52:324,2,62.5
64,84,294892,1,0,0:0:0:0:
185,225,295062,1,0,0:0:0:0:
4,149,295233,1,0,0:0:0:0:
4,149,295318,1,0,0:0:0:0:
4,149,295403,1,0,0:0:0:0:
216,141,295574,2,0,L|281:137,2,62.5
41,226,295915,5,0,0:0:0:0:
66,244,296000,1,0,0:0:0:0:
95,253,296085,1,0,0:0:0:0:
125,259,296170,1,0,0:0:0:0:
156,259,296255,5,0,0:0:0:0:
179,238,296341,1,0,0:0:0:0:
207,225,296426,1,0,0:0:0:0:
237,218,296511,1,0,0:0:0:0:
268,214,296596,2,0,B|333:220|333:220|386:261,1,125
270,308,296937,2,0,P|199:278|176:215,1,125
268,107,297278,1,0,0:0:0:0:
464,255,297619,5,0,0:0:0:0:
472,225,297704,1,0,0:0:0:0:
481,195,297790,1,0,0:0:0:0:
415,269,297960,1,0,0:0:0:0:
423,239,298045,1,0,0:0:0:0:
432,209,298131,1,0,0:0:0:0:
458,92,298301,1,0,0:0:0:0:
458,92,298471,1,0,0:0:0:0:
254,156,298642,6,0,B|317:194|317:194|347:256,1,125
157,188,298983,2,0,P|159:117|198:72,1,125
227,249,299324,6,0,B|167:284|167:284|94:266,1,125
254,156,299665,2,0,P|312:205|327:266,1,125
161,364,300005,5,0,0:0:0:0:
369,288,300176,1,0,0:0:0:0:
157,200,300346,1,0,0:0:0:0:
321,340,300517,2,0,L|365:383,2,62.5
293,124,300858,1,0,0:0:0:0:
246,363,301028,1,0,0:0:0:0:
184,75,301369,6,0,B|221:130|221:130|298:151,1,125
465,181,301710,1,0,0:0:0:0:
261,218,301880,1,0,0:0:0:0:
350,22,302051,1,0,0:0:0:0:
404,264,302221,1,0,0:0:0:0:
431,28,302392,1,0,0:0:0:0:
195,157,302733,6,0,L|59:100,1,125
339,207,303074,2,0,L|465:168,1,125
136,221,303415,6,0,P|71:257|36:310,1,125
380,277,303755,2,0,P|453:314|491:367,1,125
316,196,304096,6,0,P|273:225|198:230,1,125
178,212,304352,1,0,0:0:0:0:
136,223,304437,2,0,P|71:217|14:233,1,125
197,360,304778,6,0,P|209:293|176:220,1,125
178,212,305034,1,0,0:0:0:0:
177,180,305119,2,0,P|187:93|210:59,1,125
398,82,305460,6,0,P|333:97|273:87,1,125
475,33,305801,2,0,P|479:108|450:157,1,125
355,224,306142,1,0,0:0:0:0:
504,338,306312,1,0,0:0:0:0:
440,152,306483,1,0,0:0:0:0:
262,294,306824,6,0,P|327:279|387:289,1,125
185,343,307165,2,0,P|181:268|210:219,1,125
305,152,307506,1,0,0:0:0:0:
156,38,307676,1,0,0:0:0:0:
220,224,307847,1,0,0:0:0:0:
128,79,313642,6,0,L|108:225,2,125
380,234,314153,6,0,L|350:88,2,125
384,238,314665,1,0,0:0:0:0:
272,202,314835,1,0,0:0:0:0:
195,293,315005,6,0,P|122:273|166:138,1,250
272,202,315517,1,0,0:0:0:0:
376,316,315687,2,0,P|328:263|262:251,2,125
136,194,316369,6,0,L|94:70,2,125
384,70,316880,6,0,L|356:196,2,125
439,212,317392,5,0,0:0:0:0:
273,88,317562,1,0,0:0:0:0:
486,136,317733,1,0,0:0:0:0:
266,133,317903,1,0,0:0:0:0:
315,303,318074,1,0,0:0:0:0:
477,157,318244,1,0,0:0:0:0:
181,95,318415,2,0,B|191:172|191:172|239:220,1,125
224,205,318755,1,0,0:0:0:0:
33,29,319096,6,0,L|61:157,1,125
92,297,319437,1,0,0:0:0:0:
106,40,319608,2,0,L|113:170,1,125
122,313,319949,1,0,0:0:0:0:
171,71,320119,2,0,L|158:201,1,125
144,343,320460,5,0,0:0:0:0:
144,343,320545,1,0,0:0:0:0:
144,343,320630,1,0,0:0:0:0:
258,235,320801,1,0,0:0:0:0:
48,233,320971,1,0,0:0:0:0:
313,311,321142,2,0,P|346:237|330:180,2,125
455,124,321824,5,0,0:0:0:0:
455,124,321909,1,0,0:0:0:0:
315,61,322079,1,0,0:0:0:0:
315,61,322165,1,0,0:0:0:0:
376,226,322335,1,0,0:0:0:0:
371,236,322676,5,0,0:0:0:0:
433,42,322846,1,0,0:0:0:0:
483,213,323017,1,0,0:0:0:0:
289,145,323187,2,0,B|230:104|230:104|214:39,1,125
479,113,323528,1,0,0:0:0:0:
294,28,323699,1,0,0:0:0:0:
325,218,323869,2,0,B|266:257|266:257|188:252,1,125
205,253,324210,1,0,0:0:0:0:
459,351,324551,5,0,0:0:0:0:
157,327,324721,1,0,0:0:0:0:
412,284,324892,1,0,0:0:0:0:
87,285,325062,5,0,0:0:0:0:
366,217,325233,1,0,0:0:0:0:
47,210,325403,1,0,0:0:0:0:
348,325,325574,1,0,0:0:0:0:
89,133,325744,1,0,0:0:0:0:
241,364,325915,5,0,0:0:0:0:
313,96,326085,1,0,0:0:0:0:
155,340,326255,1,0,0:0:0:0:
464,303,326426,1,0,0:0:0:0:
94,220,326596,2,0,P|66:147|211:73,1,250
330,296,327278,6,0,P|259:302|213:251,1,125
212,87,327619,1,0,0:0:0:0:
355,181,327790,1,0,0:0:0:0:
153,187,327960,2,0,B|220:200|220:200|282:190,1,125
387,63,328301,1,0,0:0:0:0:
387,63,328471,1,0,0:0:0:0:
437,222,328642,6,0,L|479:344,2,125
462,354,329153,1,0,0:0:0:0:
293,224,329324,6,0,L|309:81,2,125
35,351,330005,6,0,P|104:334|126:264,1,125
33,106,330346,2,0,P|73:170|140:177,1,125
297,126,330687,1,0,0:0:0:0:
123,48,330858,1,0,0:0:0:0:
279,219,331028,1,0,0:0:0:0:
286,17,331199,1,0,0:0:0:0:
127,184,331369,6,0,B|91:241|91:241|105:310,1,125
281,368,331710,1,0,0:0:0:0:
66,317,331880,1,0,0:0:0:0:
283,262,332051,2,0,B|327:205|327:205|329:137,1,125
274,28,332392,1,0,0:0:0:0:
185,208,332562,1,0,0:0:0:0:
104,48,332733,6,0,L|220:132,1,125
379,166,333074,1,0,0:0:0:0:
175,138,333244,1,0,0:0:0:0:
426,87,333415,2,0,P|469:145|464:207,1,125
288,288,333755,2,0,P|329:231|389:223,1,125
478,349,334096,5,0,0:0:0:0:
287,307,334267,1,0,0:0:0:0:
477,196,334437,1,0,0:0:0:0:
384,374,334608,1,0,0:0:0:0:
375,128,334778,2,0,L|379:264,1,125
360,379,335119,1,0,0:0:0:0:
151,95,335460,6,0,P|103:140|95:208,1,125
183,331,335801,1,0,0:0:0:0:
214,331,335886,1,0,0:0:0:0:
242,317,335971,1,0,0:0:0:0:
45,205,336142,6,0,P|57:269|111:312,1,125
262,303,336483,1,0,0:0:0:0:
279,277,336568,1,0,0:0:0:0:
282,246,336653,1,0,0:0:0:0:
103,369,336824,6,0,P|167:382|227:350,1,125
277,207,337165,1,0,0:0:0:0:
260,181,337250,1,0,0:0:0:0:
233,166,337335,1,0,0:0:0:0:
89,126,337505,2,0,P|28:105|109:2,1,250
341,220,338187,5,0,0:0:0:0:
244,62,338358,1,0,0:0:0:0:
464,134,338528,2,0,B|399:137|399:137|321:113,1,125
161,44,338869,5,0,0:0:0:0:
370,40,339040,1,0,0:0:0:0:
205,202,339210,2,0,B|278:177|278:177|322:118,1,125
417,28,339551,5,0,0:0:0:0:
397,228,339721,1,0,0:0:0:0:
485,55,339892,2,0,L|434:171,2,125
431,254,340403,1,0,0:0:0:0:
345,75,340574,1,0,0:0:0:0:
255,249,340744,5,0,0:0:0:0:
255,249,340829,1,0,0:0:0:0:
255,249,340915,2,0,B|314:310|314:310|378:310,2,125
157,102,341426,1,0,0:0:0:0:
146,289,341596,1,0,0:0:0:0:
262,166,341767,1,0,0:0:0:0:
58,249,341937,2,0,P|111:201|180:198,1,125
254,353,342278,6,0,P|334:376|390:353,1,125
391,340,342534,1,0,0:0:0:0:
421,334,342619,2,0,P|461:306|477:222,1,125
366,102,342960,2,0,P|387:173|431:211,1,125
445,222,343301,1,0,0:0:0:0:
485,62,343471,5,0,0:0:0:0:
323,32,343642,2,0,P|282:103|294:145,1,125
354,279,343983,2,0,P|281:253|215:267,1,125
131,347,344324,1,0,0:0:0:0:
101,335,344409,1,0,0:0:0:0:
76,316,344494,1,0,0:0:0:0:
85,151,344665,2,0,B|121:217|121:217|103:271,1,125
13,107,345005,6,0,P|77:70|137:84,1,125
217,228,345346,2,0,L|155:106,1,125
304,194,345687,2,0,P|306:260|153:293,1,250
476,25,346369,6,0,L|466:162,1,125
436,343,346710,1,0,0:0:0:0:
270,66,346880,6,0,L|334:201,1,125
421,362,347221,1,0,0:0:0:0:
217,252,347392,5,0,0:0:0:0:
407,256,347562,1,0,0:0:0:0:
253,357,347733,1,0,0:0:0:0:
392,169,347903,1,0,0:0:0:0:
473,353,348074,1,0,0:0:0:0:
237,184,348244,1,0,0:0:0:0:
489,172,348415,2,0,B|468:106|412:75|412:75|373:98|290:89,1,250
38,336,349096,6,0,L|162:308,1,125
332,264,349437,1,0,0:0:0:0:
71,197,349608,6,0,L|208:212,1,125
360,278,349949,1,0,0:0:0:0:
196,354,350119,5,0,0:0:0:0:
411,354,350290,1,0,0:0:0:0:
274,201,350460,1,0,0:0:0:0:
455,277,350630,1,0,0:0:0:0:
274,366,350801,1,0,0:0:0:0:
355,177,350971,1,0,0:0:0:0:
490,348,351142,2,0,B|421:337|376:265|376:265|325:265|283:216,1,250
76,293,351824,6,0,L|156:170,1,125
226,50,352165,1,0,0:0:0:0:
253,304,352335,6,0,L|260:172,1,125
264,18,352676,1,0,0:0:0:0:
364,185,352846,5,0,0:0:0:0:
183,37,353017,1,0,0:0:0:0:
398,37,353187,1,0,0:0:0:0:
196,123,353358,1,0,0:0:0:0:
439,114,353528,1,0,0:0:0:0:
325,263,353699,1,0,0:0:0:0:
301,24,353869,2,0,P|305:93|459:152,1,250
108,319,354551,6,0,L|231:292,1,125
389,267,354892,1,0,0:0:0:0:
505,147,355062,6,0,L|363:125,1,125
224,106,355403,1,0,0:0:0:0:
38,63,355574,6,0,L|176:37,1,125
339,19,355915,1,0,0:0:0:0:
256,192,356085,12,0,357278,0:0:0:0:
395,322,357619,6,0,P|328:296|306:225,1,125
425,149,357960,1,0,0:0:0:0:
284,339,358301,5,0,0:0:0:0:
253,342,358386,1,0,0:0:0:0:
222,347,358471,1,0,0:0:0:0:
78,370,358642,1,0,0:0:0:0:
71,75,358983,6,0,L|158:181,1,125
309,331,359324,1,0,0:0:0:0:
327,166,359494,5,0,0:0:0:0:
437,318,359665,1,0,0:0:0:0:
233,258,359835,1,0,0:0:0:0:
468,232,360005,1,0,0:0:0:0:
202,169,360346,6,0,L|341:165,2,125
72,42,361028,5,0,0:0:0:0:
102,47,361113,1,0,0:0:0:0:
132,54,361199,1,0,0:0:0:0:
288,84,361369,1,0,0:0:0:0:
474,32,361710,6,0,L|439:157,1,125
420,340,362051,1,0,0:0:0:0:
331,161,362221,5,0,0:0:0:0:
478,254,362392,1,0,0:0:0:0:
275,286,362562,1,0,0:0:0:0:
491,160,362733,1,0,0:0:0:0:
336,357,363074,5,0,0:0:0:0:
325,327,363159,1,0,0:0:0:0:
313,298,363244,1,0,0:0:0:0:
259,144,363415,1,0,0:0:0:0:
259,144,363585,1,0,0:0:0:0:
482,318,363755,5,0,0:0:0:0:
458,297,363841,1,0,0:0:0:0:
433,277,363926,1,0,0:0:0:0:
294,161,364096,1,0,0:0:0:0:
294,161,364267,1,0,0:0:0:0:
507,161,364437,6,0,L|381:166,1,125
199,171,364778,1,0,0:0:0:0:
199,171,364949,1,0,0:0:0:0:
419,20,365119,6,0,L|295:107,1,125
456,50,365460,2,0,L|342:132,2,125
263,15,365971,5,0,0:0:0:0:
263,15,366057,1,0,0:0:0:0:
263,15,366142,1,0,0:0:0:0:
352,146,366312,1,0,0:0:0:0:
150,105,366483,1,0,0:0:0:0:
350,49,366653,1,0,0:0:0:0:
231,232,366824,1,0,0:0:0:0:
231,232,366994,1,0,0:0:0:0:
117,35,367165,6,0,L|187:162,1,125
73,40,367505,2,0,L|127:161,1,125
38,47,367846,2,0,L|74:166,1,125
131,343,368187,5,0,0:0:0:0:
191,131,368357,1,0,0:0:0:0:
137,353,368527,5,0,0:0:0:0:
284,158,368698,1,0,0:0:0:0:
138,363,368868,5,0,0:0:0:0:
366,209,369039,1,0,0:0:0:0:
137,373,369209,5,0,0:0:0:0:
409,288,369380,1,0,0:0:0:0:
111,273,369550,5,0,0:0:0:0:
120,250,369635,1,0,0:0:0:0:
135,230,369721,1,0,0:0:0:0:
153,213,369806,1,0,0:0:0:0:
174,200,369891,5,0,0:0:0:0:
278,357,370062,1,0,0:0:0:0:
220,138,370232,5,0,0:0:0:0:
266,359,370402,1,0,0:0:0:0:
297,114,370573,5,0,0:0:0:0:
251,357,370743,1,0,0:0:0:0:
376,114,370914,5,0,0:0:0:0:
237,354,371084,1,0,0:0:0:0:
466,305,371255,5,0,0:0:0:0:
466,305,371340,1,0,0:0:0:0:
466,305,371425,1,0,0:0:0:0:
271,243,371596,1,0,0:0:0:0:
271,243,371766,1,0,0:0:0:0:
487,206,371937,5,0,0:0:0:0:
487,206,372022,1,0,0:0:0:0:
487,206,372107,1,0,0:0:0:0:
279,327,372277,1,0,0:0:0:0:
279,327,372448,1,0,0:0:0:0:
406,146,372618,5,0,0:0:0:0:
406,146,372789,1,0,0:0:0:0:
426,356,372959,5,0,0:0:0:0:
328,196,373130,1,0,0:0:0:0:
311,177,373215,1,0,0:0:0:0:
293,159,373300,1,0,0:0:0:0:
272,144,373385,1,0,0:0:0:0:
248,134,373471,1,0,0:0:0:0:
223,128,373556,1,0,0:0:0:0:
198,125,373641,1,0,0:0:0:0:
81,230,373982,6,0,L|115:224,2,25
247,293,374323,2,0,L|189:281,1,50
54,345,374664,2,0,L|111:333,1,50
301,366,375005,5,0,0:0:0:0:
301,366,375175,1,0,0:0:0:0:
467,321,375346,2,0,L|403:310,1,50
246,257,375687,1,0,0:0:0:0:
180,84,376027,6,0,L|211:146,1,50
418,225,376368,2,0,L|365:185,1,50
359,178,376624,1,0,0:0:0:0:
338,163,376709,1,0,0:0:0:0:
260,87,376880,1,0,0:0:0:0:
444,122,377050,6,0,L|492:136,2,50
214,36,377732,6,0,L|271:30,2,50
31,104,378414,6,0,L|32:168,1,50
36,285,378755,1,0,0:0:0:0:
216,337,379096,5,0,0:0:0:0:
132,219,379266,1,0,0:0:0:0:
192,74,379437,1,0,0:0:0:0:
267,341,379777,5,0,0:0:0:0:
242,197,379948,2,0,P|256:152|298:104,1,100
368,331,380459,5,0,0:0:0:0:
368,331,380544,1,0,0:0:0:0:
368,331,380630,1,0,0:0:0:0:
359,182,380800,1,0,0:0:0:0:
465,87,380971,1,0,0:0:0:0:
477,240,381141,2,0,P|425:263|343:248,1,125
223,42,381823,6,0,L|233:100,1,50
313,127,382164,2,0,L|298:184,1,50
332,253,382505,1,0,0:0:0:0:
419,159,382675,1,0,0:0:0:0:
259,207,382846,1,0,0:0:0:0:
431,264,383016,1,0,0:0:0:0:
197,264,383187,2,0,P|169:212|185:156,1,100
270,115,383698,1,0,0:0:0:0:
365,78,383868,2,0,P|346:30|295:8,1,100
75,22,384550,6,0,P|66:81|92:162,1,125
36,304,385232,2,0,P|105:301|136:285,1,100
283,361,385914,5,0,0:0:0:0:
283,361,385999,1,0,0:0:0:0:
283,361,386084,1,0,0:0:0:0:
405,322,386255,1,0,0:0:0:0:
254,245,386425,1,0,0:0:0:0:
449,246,386596,2,0,P|397:239|344:258,1,100
178,342,387277,6,0,L|196:293,1,50
140,238,387618,2,0,L|146:179,1,50
80,127,387959,1,0,0:0:0:0:
253,53,388471,6,0,L|245:89,14,25
418,46,390005,5,0,0:0:0:0:
434,64,390090,1,0,0:0:0:0:
446,85,390175,1,0,0:0:0:0:
457,107,390260,1,0,0:0:0:0:
466,130,390346,1,0,0:0:0:0:
471,154,390431,1,0,0:0:0:0:
474,178,390516,1,0,0:0:0:0:
464,304,390687,2,0,P|429:322|336:265,1,150
281,109,391368,5,0,0:0:0:0:
260,96,391453,1,0,0:0:0:0:
237,88,391538,1,0,0:0:0:0:
214,81,391623,1,0,0:0:0:0:
189,76,391709,1,0,0:0:0:0:
165,75,391794,1,0,0:0:0:0:
141,76,391879,1,0,0:0:0:0:
18,108,392050,2,0,P|6:145|78:227,1,150
236,362,392732,6,0,L|254:299,1,50
379,298,393073,2,0,L|349:244,1,50
444,183,393414,2,0,L|386:165,1,50
261,184,393755,1,0,0:0:0:0:
237,66,393925,2,0,L|212:44,2,25
356,75,394266,1,0,0:0:0:0:
414,199,394437,1,0,0:0:0:0:
256,179,394607,1,0,0:0:0:0:
433,181,394777,2,0,L|493:181,2,50
99,95,395459,6,0,L|146:124,1,50
250,195,395800,1,0,0:0:0:0:
106,203,395971,1,0,0:0:0:0:
272,153,396141,1,0,0:0:0:0:
204,292,396312,1,0,0:0:0:0:
221,112,396482,2,0,L|217:175,1,50
307,320,396823,6,0,L|279:268,1,50
191,142,397164,1,0,0:0:0:0:
337,194,397334,1,0,0:0:0:0:
156,215,397505,1,0,0:0:0:0:
431,157,398187,6,0,P|414:217|290:206,1,200
189,74,399550,6,0,L|126:91,1,50
311,107,399891,2,0,L|370:121,1,50
208,195,400232,2,0,P|158:200|104:178,1,100
337,319,400914,6,0,P|285:255|319:188,1,150
343,180,401596,1,0,0:0:0:0:
148,265,402277,6,0,P|95:258|50:286,1,100
204,336,402959,2,0,P|235:285|230:239,1,100
214,104,403641,6,0,P|174:153|87:117,1,150
77,107,404323,1,0,0:0:0:0:
77,107,404664,1,0,0:0:0:0:
349,61,405005,6,0,P|402:54|447:82,1,100
293,132,405687,2,0,P|262:81|267:35,1,100
403,340,406368,6,0,L|329:203,1,150
319,193,407050,1,0,0:0:0:0:
109,44,407732,6,0,L|183:181,1,150
193,191,408414,1,0,0:0:0:0:
445,77,409096,6,0,P|398:130|328:112,1,150
315,96,409777,1,0,0:0:0:0:
67,307,410459,6,0,P|114:254|184:272,1,150
197,288,411140,1,0,0:0:0:0:
467,304,411823,5,0,0:0:0:0:
