osu file format v14

[General]
AudioFilename: audio.ogg
AudioLeadIn: 0
PreviewTime: 59442
Countdown: 0
SampleSet: Soft
StackLeniency: 0.6
Mode: 0
LetterboxInBreaks: 0
WidescreenStoryboard: 1

[Editor]
DistanceSpacing: 1.1
BeatDivisor: 4
GridSize: 32
TimelineZoom: 0.5000001

[Metadata]
Title:Comedy (TV Size)
TitleUnicode:喜劇 (TV Size)
Artist:Gen Hoshino
ArtistUnicode:星野源
Creator:hakashii
Version:Easy
Source:SPY×FAMILY
Tags:スパイファミリー spy x family spyxfamily kigeki ending ed anime japanese male j-pop jpop pop vocals vocalist
BeatmapID:3553429
BeatmapSetID:1737561

[Difficulty]
HPDrainRate:2
CircleSize:2.8
OverallDifficulty:1.7
ApproachRate:2
SliderMultiplier:1.6
SliderTickRate:1

[Events]
//Background and Video events
Video,912,"sorry.mp4"
0,0,"Spy-X-Family-PC-Background.jpg",0,0
//Break Periods
//Storyboard Layer 0 (Background)
//Storyboard Layer 1 (Fail)
//Storyboard Layer 2 (Pass)
//Storyboard Layer 3 (Foreground)
//Storyboard Layer 4 (Overlay)
//Storyboard Sound Samples

[TimingPoints]
1488,681.818181818182,4,2,1,30,1,0
3533,-100,4,2,2,60,0,0
4215,-100,4,2,2,50,0,0
9669,-100,4,2,2,60,0,0
12397,-100,4,2,2,50,0,0
15124,-100,4,2,2,55,0,0
17850,-100,4,2,2,50,0,0
20578,-100,4,2,2,60,0,0
22965,-100,4,2,2,55,0,0
26032,-100,4,2,2,40,0,0
28760,-100,4,2,2,50,0,0
31488,-100,4,2,2,60,0,0
34215,-100,4,2,2,50,0,0
36942,-100,4,2,2,55,0,0
39669,-100,4,2,2,50,0,0
42397,-100,4,2,2,60,0,0
44784,-100,4,2,2,55,0,0
47851,-100,4,2,2,40,0,0
50578,-100,4,2,2,50,0,0
51260,-100,4,2,3,50,0,0
51303,-100,4,2,2,50,0,0
56033,-100,4,2,2,60,0,0
60124,681.818181818182,4,2,2,80,1,1
81942,-100,4,2,3,50,0,0
81985,-100,4,2,2,50,0,0
86056,681.818181818182,4,2,2,40,1,0
86510,857.142857142857,4,2,2,35,1,0
86938,1000,4,2,2,30,1,0
87438,681.818181818182,4,2,2,20,1,0
90165,-100,4,2,2,5,0,0

[Colours]
Combo1 : 219,219,219
Combo2 : 183,203,204
Combo3 : 249,189,225
Combo4 : 250,218,189

[HitObjects]
33,349,1488,6,0,B|14:277|72:287|48:199|48:199|56:205|126:179|126:179|131:182|131:182|211:158|211:158|214:153|214:153|384:108,1,480,4|10,0:2|0:2,0:0:0:0:
492,227,4215,2,0,P|436:334|388:322,1,160,2|10,1:2|0:2,0:0:0:0:
289,213,5578,1,2,1:2:0:0:
347,147,5919,1,2,1:2:0:0:
285,84,6260,2,0,P|202:102|177:105,1,80,10|2,0:2|0:0,0:0:0:0:
160,176,6942,6,0,P|19:132|-26:128,2,160,2|10|2,1:2|0:2|1:2,0:0:0:0:
197,255,8647,1,2,1:2:0:0:
168,338,8988,1,10,0:2:0:0:
7,266,9669,5,4,3:0:0:0:
93,112,10351,1,4,3:0:0:0:
197,255,11033,1,4,3:0:0:0:
316,125,11715,1,10,0:2:0:0:
443,246,12397,6,0,B|401:121|505:151|471:9,1,240,2|0,1:2|0:2,0:0:0:0:
384,15,13760,2,0,P|316:33|212:61,1,160,2|10,1:2|0:2,0:0:0:0:
61,110,15124,5,2,1:2:0:0:
128,272,15806,1,10,0:2:0:0:
247,143,16488,1,2,1:2:0:0:
404,220,17169,6,0,P|391:283|375:388,2,160,10|2|8,0:2|1:2|0:2,0:0:0:0:
294,87,19215,2,0,P|231:125|235:217,1,160,2|10,1:2|0:2,0:0:0:0:
137,356,20578,6,0,P|37:350|22:269,1,160,0|10,1:2|0:2,0:0:0:0:
3,217,21601,1,2,1:2:0:0:
190,30,22624,1,10,0:2:0:0:
268,73,22965,2,0,B|418:102|298:161|472:196,1,240,2|10,1:2|0:2,0:0:0:0:
510,120,24328,1,2,1:2:0:0:
255,188,25351,6,0,P|183:208|101:229,1,160,10|2,0:2|0:2,0:0:0:0:
400,209,28760,6,0,B|451:266|451:266|413:348,2,160,2|10|2,1:2|0:2|1:2,0:0:0:0:
305,60,30806,1,10,0:2:0:0:
197,199,31488,6,0,P|104:179|30:164,2,160,4|4|4,3:0|3:0|3:0,0:0:0:0:
354,119,33534,1,10,0:2:0:0:
424,279,34215,2,0,B|323:284|390:359|254:355,1,160,4|8,3:0|0:2,0:0:0:0:
114,354,35579,2,0,P|143:255|164:175,1,160,2|10,1:2|0:2,0:0:0:0:
53,58,36942,5,2,1:2:0:0:
221,5,37624,1,10,0:2:0:0:
274,172,38306,1,2,1:2:0:0:
407,57,38988,6,0,P|501:80|497:153,1,160,10|2,0:2|1:2,0:0:0:0:
391,262,40351,1,8,0:2:0:0:
273,130,41033,2,0,P|166:152|90:167,1,160,2|10,1:2|0:2,0:0:0:0:
21,310,42397,6,0,P|127:368|166:336,1,160,0|10,1:2|0:2,0:0:0:0:
206,291,43420,2,0,B|351:250|300:355|460:317,1,240,2|10,1:2|0:2,0:0:0:0:
490,253,44784,1,2,1:2:0:0:
309,60,45806,1,10,0:2:0:0:
261,134,46147,2,0,P|170:183|121:141,1,160,2|2,1:2|1:2,0:0:0:0:
60,106,47170,1,10,0:2:0:0:
204,5,47852,5,2,0:2:0:0:
338,333,50578,5,2,1:2:0:0:
249,181,51260,2,0,B|206:186|206:186|204:191|204:191|153:197|153:197|149:206|149:206|89:214,2,160,10|2|10,0:2|1:2|0:2,0:0:0:0:
404,97,53306,2,0,P|462:122|483:219,1,160,2|8,1:2|0:2,0:0:0:0:
415,371,54669,2,0,P|306:340|234:335,1,160,2|10,1:2|0:2,0:0:0:0:
87,373,56033,5,0,1:2:0:0:
0,219,56715,1,2,1:2:0:0:
164,156,57397,1,2,1:2:0:0:
65,10,58078,1,10,0:2:0:0:
471,126,60124,6,0,B|411:164|411:164|349:98,1,160,4|10,1:1|0:2,0:0:0:0:
300,25,61147,1,2,1:2:0:0:
226,73,61488,1,2,0:2:0:0:
306,229,62170,2,0,L|279:324,1,80,10|2,0:2|0:2,0:0:0:0:
353,360,62852,6,0,P|455:345|475:294,1,160,2|10,1:2|0:2,0:0:0:0:
494,215,63875,1,2,1:2:0:0:
419,168,64215,1,2,0:2:0:0:
248,212,64897,2,0,L|152:190,1,80,10|2,0:2|0:2,0:0:0:0:
84,171,65579,6,0,P|69:83|155:41,1,160,2|10,1:2|0:2,0:0:0:0:
195,83,66602,2,0,B|257:121|344:92|257:32|372:12|417:53,1,240,6|10,1:2|0:2,0:0:0:0:
486,204,68306,5,4,3:0:0:0:
366,333,68988,1,4,3:0:0:0:
255,195,69670,1,4,3:3:0:0:
141,332,70352,2,0,L|50:305,1,80,10|0,0:2|1:2,0:0:0:0:
7,241,71034,6,0,B|0:184|0:184|82:117,1,160,4|10,1:1|0:2,0:0:0:0:
148,64,72056,1,2,1:2:0:0:
201,133,72397,1,2,0:2:0:0:
336,20,73079,2,0,L|446:18,1,80,10|2,0:2|0:2,0:0:0:0:
486,71,73760,6,0,P|466:199|463:261,1,160,2|10,1:2|0:2,0:0:0:0:
416,304,74784,1,2,1:2:0:0:
336,265,75125,1,2,0:2:0:0:
282,98,75806,2,0,P|221:105|196:139,1,80,10|2,0:2|0:0,0:0:0:0:
138,169,76488,6,0,P|119:267|106:347,1,160,0|10,1:2|0:2,0:0:0:0:
187,367,77511,2,0,B|267:341|267:341|313:276|313:276|408:251,1,240,6|10,1:2|0:2,0:0:0:0:
501,123,79215,5,4,3:0:0:0:
363,13,79897,1,4,3:0:0:0:
269,162,80579,1,4,3:0:0:0:
144,37,81261,2,0,L|51:60,1,80,10|2,0:2|0:2,0:0:0:0:
8,122,81943,6,0,B|9:205|77:152|76:276,1,160,4|8,1:1|0:2,0:0:0:0:
103,342,82965,2,0,P|223:340|223:217,1,240,2|8,1:2|0:0,0:0:0:0:
344,99,84669,1,2,1:2:0:0:
455,235,85351,1,2,1:2:0:0:
256,192,87438,12,2,90165,0:0:0:0:
