osu file format v14

[General]
AudioFilename: audio.ogg
AudioLeadIn: 0
PreviewTime: 58652
Countdown: 0
SampleSet: Normal
StackLeniency: 0.7
Mode: 1
LetterboxInBreaks: 0
WidescreenStoryboard: 1

[Editor]
DistanceSpacing: 1.3
BeatDivisor: 2
GridSize: 4
TimelineZoom: 2.799999

[Metadata]
Title:Comedy (TV Size)
TitleUnicode:喜劇 (TV Size)
Artist:Gen Hoshino
ArtistUnicode:星野源
Creator:Yui Funami
Version:Futsuu
Source:SPY×FAMILY
Tags:長岡亮介 spy x family spyxfamily Ryosuke Nagaoka スパイファミリー kigeki ending ed anime japanese male j-pop jpop toara_fict e_s_i_a [-e_s_i_a-] esia [-esia-] pop
BeatmapID:3719835
BeatmapSetID:1778557

[Difficulty]
HPDrainRate:8.5
CircleSize:2
OverallDifficulty:3.5
ApproachRate:10
SliderMultiplier:1.4
SliderTickRate:1

[Events]
//Background and Video events
0,0,"bg.jpg",0,90
//Break Periods
//Storyboard Layer 0 (Background)
//Storyboard Layer 1 (Fail)
//Storyboard Layer 2 (Pass)
//Storyboard Layer 3 (Foreground)
//Storyboard Layer 4 (Overlay)
//Storyboard Sound Samples

[TimingPoints]
-7574,681.818181818182,4,1,0,80,1,0
263,-80,4,1,0,80,0,0
3107,-80,4,1,0,75,0,0
46857,-80,4,1,0,40,0,0
49585,-80,4,1,0,75,0,0
49698,-80,4,1,0,70,0,0
55153,-80,4,1,0,75,0,0
57880,681.818181818182,4,1,0,75,1,8
57880,-80,4,1,0,75,0,0
59186,-80,4,1,0,85,0,0
59244,681.818181818182,4,1,0,85,1,1
59244,-80,4,1,0,85,0,1
81062,-80,4,1,0,85,0,0
81403,-80,4,1,0,75,0,0
86630,-80,4,1,0,40,0,0
87198,-80,4,1,0,30,0,0
87880,-80,4,1,0,20,0,0
88562,-80,4,1,0,10,0,0
88903,-80,4,1,0,5,0,0

[HitObjects]
250,168,607,5,0,0:0:0:0:
29,97,1289,1,0,0:0:0:0:
248,156,1971,1,8,0:0:0:0:
180,188,3335,1,0,0:0:0:0:
404,153,4016,1,8,0:0:0:0:
260,186,4698,1,8,0:0:0:0:
246,175,5039,1,0,0:0:0:0:
176,167,5380,1,8,0:0:0:0:
227,164,6062,1,0,0:0:0:0:
227,164,6744,1,8,0:0:0:0:
227,164,7426,1,8,0:0:0:0:
227,164,8789,1,0,0:0:0:0:
237,159,9471,1,0,0:0:0:0:
237,167,10153,1,0,0:0:0:0:
208,165,10494,1,8,0:0:0:0:
244,144,10835,1,0,0:0:0:0:
453,235,11516,1,8,0:0:0:0:
292,117,12880,1,0,0:0:0:0:
230,153,13562,1,0,0:0:0:0:
256,154,14244,1,8,0:0:0:0:
262,162,14926,1,0,0:0:0:0:
272,168,15266,1,0,0:0:0:0:
460,128,15607,1,8,0:0:0:0:
12,211,16289,1,8,0:0:0:0:
241,158,16971,1,0,0:0:0:0:
455,100,18335,1,0,0:0:0:0:
243,153,19016,1,8,0:0:0:0:
250,123,19698,1,0,0:0:0:0:
243,153,20380,1,8,0:0:0:0:
246,142,20721,1,0,0:0:0:0:
408,258,21744,1,8,0:0:0:0:
283,159,22085,1,0,0:0:0:0:
165,190,23107,1,0,0:0:0:0:
157,199,23448,1,8,0:0:0:0:
30,212,24130,1,0,0:0:0:0:
402,264,24471,1,8,0:0:0:0:
297,305,25153,1,0,0:0:0:0:
165,190,27198,1,0,0:0:0:0:
174,193,27539,1,0,0:0:0:0:
165,190,27880,1,8,0:0:0:0:
261,222,28562,1,0,0:0:0:0:
165,190,29244,1,8,0:0:0:0:
165,190,29926,1,8,0:0:0:0:
204,195,30266,5,0,0:0:0:0:
165,190,30607,1,8,0:0:0:0:
175,182,31289,1,8,0:0:0:0:
165,190,31971,1,0,0:0:0:0:
153,180,32312,1,8,0:0:0:0:
165,190,32653,1,0,0:0:0:0:
165,190,33335,1,8,0:0:0:0:
165,190,34698,1,8,0:0:0:0:
291,182,35380,1,0,0:0:0:0:
165,190,36062,1,8,0:0:0:0:
165,190,36744,1,0,0:0:0:0:
165,190,37426,1,8,0:0:0:0:
152,197,37766,1,0,0:0:0:0:
165,190,38107,1,8,0:0:0:0:
165,190,38789,1,8,0:0:0:0:
165,190,40153,1,0,0:0:0:0:
290,176,40494,1,0,0:0:0:0:
165,190,40835,1,8,0:0:0:0:
290,176,41516,1,0,0:0:0:0:
165,190,42198,1,8,0:0:0:0:
290,176,42539,1,0,0:0:0:0:
165,190,43562,1,0,0:0:0:0:
277,158,43903,1,8,0:0:0:0:
165,190,44926,1,8,0:0:0:0:
277,158,45266,1,8,0:0:0:0:
125,328,45948,1,0,0:0:0:0:
165,190,46289,1,8,0:0:0:0:
165,190,46971,1,0,0:0:0:0:
165,190,49698,1,8,0:0:0:0:
165,190,50380,1,0,0:0:0:0:
207,199,51062,1,0,0:0:0:0:
207,199,51403,1,0,0:0:0:0:
165,190,51744,1,8,0:0:0:0:
165,190,52426,1,8,0:0:0:0:
165,190,53107,1,8,0:0:0:0:
283,195,53789,1,8,0:0:0:0:
270,197,54130,1,0,0:0:0:0:
165,190,54471,1,8,0:0:0:0:
165,190,55153,1,8,0:0:0:0:
165,190,55835,1,0,0:0:0:0:
352,260,56516,1,0,0:0:0:0:
188,206,56857,1,0,0:0:0:0:
165,190,57198,1,8,0:0:0:0:
165,190,59244,1,12,0:0:0:0:
261,170,59925,1,0,0:0:0:0:
189,206,60266,1,0,0:0:0:0:
490,169,60607,1,8,0:0:0:0:
275,197,61289,1,0,0:0:0:0:
383,165,61971,1,8,0:0:0:0:
383,165,62653,1,8,0:0:0:0:
213,167,62994,1,8,0:0:0:0:
383,165,63334,1,0,0:0:0:0:
263,204,64016,1,0,0:0:0:0:
476,175,64698,1,8,0:0:0:0:
450,154,65380,1,8,0:0:0:0:
268,210,65721,1,0,0:0:0:0:
371,162,66062,1,0,0:0:0:0:
460,163,66744,1,0,0:0:0:0:
366,114,67425,1,8,0:0:0:0:
366,114,68789,1,8,0:0:0:0:
289,175,69130,1,0,0:0:0:0:
366,114,69471,1,0,0:0:0:0:
229,228,69812,1,0,0:0:0:0:
177,242,70153,1,12,0:0:0:0:
384,202,70834,1,0,0:0:0:0:
213,209,71175,1,0,0:0:0:0:
242,23,71516,1,8,0:0:0:0:
241,200,72198,1,0,0:0:0:0:
351,93,72880,1,8,0:0:0:0:
346,154,73562,1,8,0:0:0:0:
219,215,73903,1,0,0:0:0:0:
340,91,74244,1,8,0:0:0:0:
257,235,74925,1,0,0:0:0:0:
354,140,75607,1,8,0:0:0:0:
354,140,76289,1,0,0:0:0:0:
261,229,76630,1,8,0:0:0:0:
419,159,76971,1,0,0:0:0:0:
260,209,77653,1,0,0:0:0:0:
391,159,78334,1,8,0:0:0:0:
199,281,79016,1,0,0:0:0:0:
391,159,79698,1,0,0:0:0:0:
391,159,80380,1,8,0:0:0:0:
391,159,81062,1,12,0:0:0:0:
209,259,82425,1,0,0:0:0:0:
293,182,83107,1,8,0:0:0:0:
262,186,83448,1,0,0:0:0:0:
511,118,83789,1,8,0:0:0:0:
219,191,84471,1,0,0:0:0:0:
82,244,85153,1,0,0:0:0:0:
378,159,86516,1,8,0:0:0:0:
256,192,86857,12,0,89244,0:0:0:0:
