osu file format v14

[General]
AudioFilename: audio.ogg
AudioLeadIn: 0
PreviewTime:59381
Countdown: 0
SampleSet: Soft
StackLeniency: 0.3
Mode: 0
LetterboxInBreaks: 0
WidescreenStoryboard: 1

[Editor]
Bookmarks: 15125,26034,36943,47852,71034
DistanceSpacing: 1
BeatDivisor: 6
GridSize: 8
TimelineZoom: 1

[Metadata]
Title:Comedy (TV Size)
TitleUnicode:喜劇 (TV Size)
Artist:Gen Hoshino
ArtistUnicode:星野源
Creator:Flask
Version:Normal
Source:SPY×FAMILY
Tags:spy x family spyxfamily anime japanese ending kigeki スパイファミリー 黄昏 twilight いばら姫 Yor Loid thron princess Anya Forger wit studio jpop pop j-pop
BeatmapID:3596726
BeatmapSetID:1756941

[Difficulty]
HPDrainRate:3
CircleSize:3
OverallDifficulty:4
ApproachRate:5
SliderMultiplier:2
SliderTickRate:1

[Events]
//Background and Video events
Video,938,"SpyXFamily-ED1.mp4"
0,0,"1233731.jpg",0,0
//Break Periods
//Storyboard Layer 0 (Background)
//Storyboard Layer 1 (Fail)
//Storyboard Layer 2 (Pass)
//Storyboard Layer 3 (Foreground)
//Storyboard Layer 4 (Overlay)
//Storyboard Sound Samples

[TimingPoints]
-1233,681.818181818182,4,2,1,60,1,0
1380,-100,4,2,1,40,0,0
1494,-100,4,2,1,60,0,0
4221,681.818181818182,4,2,2,50,1,0
8653,-100,4,2,1,50,0,0
8994,-100,4,2,2,50,0,0
12059,-100,4,2,2,50,0,0
25015,-100,4,2,1,50,0,0
25130,-100,4,2,2,50,0,0
25355,-100,4,2,2,50,0,0
26037,-100,4,2,2,35,0,0
28083,-100,4,2,2,50,0,0
30469,-100,4,2,1,50,0,0
30585,-100,4,2,2,50,0,0
33877,-100,4,2,2,50,0,0
46833,-100,4,2,1,50,0,0
46948,-100,4,2,2,50,0,0
47174,-100,4,2,2,50,0,0
47514,-100,4,2,2,40,0,0
47517,-100,4,2,2,40,0,0
51153,-100,4,2,2,50,0,0
51265,-100,4,2,2,50,0,0
58596,-100,4,2,2,30,0,0
59446,-100,4,2,2,45,0,0
60130,681.818181818182,4,2,1,65,1,1
60130,-100,4,2,1,65,0,1
81948,-100,4,2,1,65,0,0
86050,913.99323645005,4,2,1,40,1,0
86507,906.002265005663,4,2,1,35,1,0
86960,1018.00166273605,4,2,1,30,1,0
87469,681.818181818182,4,2,1,20,1,8
90196,-100,4,2,1,5,0,8

[Colours]
Combo1 : 45,187,255
Combo2 : 173,255,91
Combo3 : 255,255,89
Combo4 : 255,149,149
Combo5 : 255,179,102

[HitObjects]
135,44,1494,6,0,P|80:51|68:173,2,200,12|14|14,0:2|0:2|0:2,0:0:0:0:
271,190,3539,1,10,0:0:0:0:
374,18,4221,6,0,P|429:20|465:63,1,100,2|2,3:2|0:0,0:0:0:0:
483,147,4903,2,0,P|462:197|457:255,1,100,10|2,3:2|0:0,0:0:0:0:
472,341,5585,1,2,3:2:0:0:
378,306,5926,1,2,3:2:0:0:
295,362,6267,2,0,P|259:348|244:286,1,100,10|2,3:2|0:0,0:0:0:0:
295,208,6948,6,0,P|303:157|315:102,2,100,2|2|10,3:2|0:0|3:2,0:0:0:0:
200,175,7971,1,2,0:0:0:0:
126,243,8312,2,0,P|82:234|53:171,1,100,2|2,3:2|0:3,0:0:0:0:
12,98,8994,2,0,P|61:85|107:63,1,100,10|2,3:2|0:0,0:0:0:0:
194,19,9676,5,2,3:2:0:0:
360,130,10357,1,2,3:2:0:0:
201,252,11039,1,2,3:2:0:0:
369,359,11721,2,0,P|412:350|440:295,1,100,10|2,3:2|0:3,0:0:0:0:
495,221,12403,6,0,P|482:175|473:117,2,100,2|0|10,3:2|0:0|3:2,0:0:0:0:
396,200,13426,1,0,0:0:0:0:
312,255,13767,2,0,P|262:244|242:194,1,100,2|2,3:2|0:0,0:0:0:0:
292,117,14448,2,0,P|297:82|306:47,1,66.6666666666667,10|2,3:2|3:2,0:0:0:0:
174,22,15130,6,0,P|120:33|89:83,1,100,2|0,3:2|0:0,0:0:0:0:
2,108,15812,2,0,P|-1:163|38:205,1,100,10|0,3:2|0:0,0:0:0:0:
40,296,16494,2,0,P|92:313|144:285,1,100,2|0,3:2|3:2,0:0:0:0:
209,234,17176,2,0,P|243:245|280:255,2,66.6666666666667,10|2|2,3:2|0:0|0:0,0:0:0:0:
170,179,17857,5,2,3:2:0:0:
203,120,18085,2,0,P|244:70|310:81,1,133.333333333333,2|10,0:0|3:2,0:0:0:0:
375,150,18880,1,2,0:0:0:0:
456,91,19221,2,0,P|461:41|475:-23,2,100,2|2|10,3:2|0:0|3:2,0:0:0:0:
502,179,20244,2,0,P|495:232|486:285,1,100,2|2,0:0|3:2,0:0:0:0:
417,350,20926,5,2,0:0:0:0:
327,305,21267,2,0,L|256:322,1,66.6666666666667,10|2,3:2|0:0,0:0:0:0:
229,328,21607,2,0,P|177:306|163:262,2,100,2|0|0,3:2|0:0|0:0,0:0:0:0:
254,231,22630,1,10,3:2:0:0:
265,131,22971,6,0,P|215:132|175:162,2,100,2|0|0,3:2|0:0|0:0,0:0:0:0:
345,191,23994,1,8,3:0:0:0:
425,132,24335,2,0,L|413:29,1,100,2|0,3:2|0:0,0:0:0:0:
317,4,25017,1,2,3:0:0:0:
237,63,25357,2,0,L|148:44,1,66.6666666666667,8|2,3:0|3:2,0:0:0:0:
142,65,25698,2,0,L|73:49,1,66.6666666666667,2|2,0:0|0:0,0:0:0:0:
50,30,26039,5,2,0:0:0:0:
193,169,26721,1,2,0:0:0:0:
5,239,27403,1,2,0:0:0:0:
148,378,28085,1,10,3:2:0:0:
245,355,28426,2,0,L|238:288,1,66.6666666666667,2|0,0:0|3:0,0:0:0:0:
255,260,28767,6,0,P|295:249|320:198,1,100,2|2,3:2|0:0,0:0:0:0:
256,122,29448,2,0,P|216:133|191:184,1,100,10|2,3:2|0:0,0:0:0:0:
150,235,30017,2,0,L|-2:208,1,133.333333333333,0|2,3:0|0:3,0:0:0:0:
6,146,30698,2,0,B|-12:86|-12:86|33:23,1,133.333333333333,0|2,0:0|0:0,0:0:0:0:
129,20,31494,5,2,3:2:0:0:
234,189,32176,1,2,3:2:0:0:
341,20,32857,1,2,3:2:0:0:
445,189,33539,2,0,P|429:240|419:289,1,100,10|2,3:2|0:3,0:0:0:0:
344,350,34221,6,0,P|300:341|267:280,2,100,2|0|10,3:2|0:0|3:2,0:0:0:0:
440,378,35244,1,0,0:0:0:0:
496,295,35585,2,0,L|469:183,1,100,2|2,3:2|0:0,0:0:0:0:
403,125,36267,2,0,L|418:53,1,66.6666666666667,10|2,3:2|3:2,0:0:0:0:
295,3,36948,6,0,P|252:12|229:72,1,100,2|0,3:2|0:0,0:0:0:0:
130,84,37630,2,0,P|127:127|179:165,1,100,10|0,3:2|0:0,0:0:0:0:
165,264,38312,2,0,P|206:277|256:237,1,100,2|0,3:2|3:0,0:0:0:0:
342,207,38994,2,0,L|416:226,2,66.6666666666667,10|2|2,3:2|0:0|0:0,0:0:0:0:
308,148,39676,5,2,3:2:0:0:
241,154,39903,2,0,P|191:139|161:57,1,133.333333333333,2|10,0:0|3:2,0:0:0:0:
72,19,40698,1,2,0:0:0:0:
6,94,41039,2,0,P|20:151|32:208,2,100,2|2|10,3:2|0:0|3:2,0:0:0:0:
103,115,42062,2,0,P|155:123|210:139,1,100,2|2,0:0|3:2,0:0:0:0:
269,208,42744,5,2,0:0:0:0:
368,212,43085,2,0,P|364:254|337:283,1,66.6666666666667,10|2,3:2|0:0,0:0:0:0:
323,293,43426,2,0,L|199:314,2,100,2|0|0,3:2|0:0|0:0,0:0:0:0:
388,368,44448,1,10,3:2:0:0:
475,320,44789,2,0,P|509:286|508:224,2,100,2|0|0,3:2|0:0|0:0,0:0:0:0:
418,236,45812,5,10,3:2:0:0:
330,187,46153,2,0,P|302:154|304:95,1,100,2|0,3:2|0:0,0:0:0:0:
368,24,46835,1,2,3:0:0:0:
464,49,47176,2,0,P|492:82|490:141,1,100,8|2,3:0|0:0,0:0:0:0:
431,216,47857,5,2,0:0:0:0:
279,346,48539,1,2,0:0:0:0:
89,280,49221,2,0,L|21:297,2,66.6666666666667,2|2|2,0:0|0:0|0:0,0:0:0:0:
145,316,49903,2,0,L|162:384,2,66.6666666666667,2|2|2,0:0|0:0|0:0,0:0:0:0:
191,268,50585,5,2,3:2:0:0:
143,179,50926,1,2,0:0:0:0:
204,99,51267,2,0,L|302:79,1,100,8|2,3:2|0:0,0:0:0:0:
388,130,51948,2,0,P|403:97|401:64,2,66.6666666666667,2|2|2,0:0|0:0|0:0,0:0:0:0:
398,196,52630,2,0,P|419:225|448:240,2,66.6666666666667,10|2|2,3:2|0:0|0:0,0:0:0:0:
337,225,53312,5,2,3:2:0:0:
275,146,53653,1,2,0:0:0:0:
320,56,53994,2,0,P|281:41|214:65,1,100,8|2,3:0|0:0,0:0:0:0:
135,98,54676,2,0,L|109:1,2,100,2|2|10,3:2|3:2|3:2,0:0:0:0:
85,185,55698,1,0,3:0:0:0:
161,249,56039,6,0,P|207:234|263:222,1,100,2|0,3:2|0:0,0:0:0:0:
280,320,56721,2,0,P|231:330|183:346,1,100,10|0,3:2|0:0,0:0:0:0:
85,326,57403,1,2,3:2:0:0:
9,260,57744,1,2,0:0:0:0:
66,178,58085,1,10,3:2:0:0:
8,96,58426,1,2,0:0:0:0:
8,96,59448,6,0,P|29:74|71:70,1,66.6666666666667,2|2,3:2|1:2,0:0:0:0:
94,81,59789,2,0,L|173:64,1,66.6666666666667,2|2,1:2|0:0,0:0:0:0:
188,83,60130,2,0,P|236:76|267:19,1,100,6|2,3:2|0:3,0:0:0:0:
359,70,60811,2,0,L|469:90,2,100,10|2|2,0:0|3:3|0:0,0:0:0:0:
298,149,61834,1,2,3:3:0:0:
391,185,62175,6,0,P|376:231|332:250,1,100,10|2,0:0|0:3,0:0:0:0:
304,311,62743,2,0,P|254:292|167:276,1,133.333333333333,2|2,0:0|0:3,0:0:0:0:
87,322,63539,2,0,P|33:310|10:275,2,100,10|2|2,3:2|3:3|0:0,0:0:0:0:
92,222,64561,1,2,3:3:0:0:
176,168,64902,2,0,P|164:122|157:60,1,100,10|2,3:2|0:3,0:0:0:0:
109,23,65470,6,0,P|166:27|235:-14,1,133.333333333333,2|2,0:0|0:3,0:0:0:0:
314,46,66266,2,0,P|364:53|418:67,2,100,10|2|2,3:2|3:0|0:0,0:0:0:0:
256,128,67289,1,2,3:0:0:0:
291,221,67630,2,0,L|276:302,2,75,10|2|2,3:2|3:2|0:0,0:0:0:0:
336,200,68311,6,0,P|377:211|404:273,1,100,2|2,3:2|0:3,0:0:0:0:
502,279,68993,2,0,P|501:322|448:363,1,100,2|2,3:2|0:3,0:0:0:0:
362,346,69675,2,0,P|308:332|263:324,1,100,2|2,3:2|0:3,0:0:0:0:
202,350,70243,2,0,P|195:305|179:227,2,100,2|2|2,3:2|3:2|0:0,0:0:0:0:
175,370,71039,6,0,P|120:374|84:328,1,100,6|2,3:2|0:3,0:0:0:0:
97,245,71720,2,0,P|50:259|-10:269,2,100,10|2|2,0:0|3:3|0:0,0:0:0:0:
149,158,72743,1,2,3:3:0:0:
234,210,73084,2,0,P|272:239|275:296,1,100,10|2,0:0|0:3,0:0:0:0:
263,353,73652,6,0,P|322:335|394:318,1,133.333333333333,2|2,0:0|0:3,0:0:0:0:
411,220,74448,2,0,P|460:237|513:246,2,100,10|2|2,3:2|3:3|0:0,0:0:0:0:
362,132,75470,1,2,3:3:0:0:
452,89,75811,2,0,P|429:47|374:30,1,100,10|2,3:2|0:3,0:0:0:0:
318,51,76380,6,0,P|252:42|180:32,1,133.333333333333,2|2,0:0|0:3,0:0:0:0:
133,118,77175,2,0,L|164:223,2,100,10|2|2,3:2|3:0|0:0,0:0:0:0:
40,78,78198,1,2,3:0:0:0:
35,177,78539,2,0,P|24:214|9:253,2,75,10|2|2,3:2|3:2|0:0,0:0:0:0:
67,215,79220,6,0,P|118:203|168:186,1,100,2|2,3:2|0:3,0:0:0:0:
252,233,79902,2,0,P|271:183|286:133,1,100,2|2,3:2|0:3,0:0:0:0:
354,66,80584,2,0,P|398:69|429:115,1,100,2|2,3:2|0:3,0:0:0:0:
480,153,81152,2,0,P|465:193|449:288,1,133.333333333333,2|2,3:2|0:3,0:0:0:0:
397,368,81948,5,4,3:2:0:0:
198,345,82630,2,0,B|187:250|255:288|229:140,2,200,10|2|8,3:2|0:0|3:2,0:0:0:0:
100,368,84334,1,2,0:3:0:0:
20,307,84675,2,0,P|4:264|118:205,1,200,2|0,3:2|3:0,0:0:0:0:
180,81,86050,6,0,P|229:68|280:60,1,100,2|2,0:0|0:0,0:0:0:0:
340,124,86960,2,0,P|390:139|447:153,1,100,2|4,0:0|0:0,0:0:0:0:
256,192,87696,12,0,90196,0:0:0:0:
