osu file format v14

[General]
AudioFilename: audio.ogg
AudioLeadIn: 0
PreviewTime: 54643
Countdown: 0
SampleSet: Normal
StackLeniency: 0.7
Mode: 1
LetterboxInBreaks: 0
WidescreenStoryboard: 1

[Editor]
Bookmarks: 1410,14210,27010,39810,55810
DistanceSpacing: 0.8
BeatDivisor: 4
GridSize: 32
TimelineZoom: 1

[Metadata]
Title:Real Diamond (TV Size)
TitleUnicode:リアルダイヤモンド (TV Size)
Artist:Gemstone7
ArtistUnicode:Gemstone7
Creator:arien666
Version:Muzukashii
Source:異世界はスマートフォンとともに。2
Tags:anime japanese pop jpop j-pop isekai wa smartphone to tomo ni. In Another World With My Smartphone: Volume 2 isesuma イセスマ 小嶋凛 Kojima Rin 紗乃ひお Sano Hio 堤雪菜 Tsutsumi Yukina 春咲暖 Harusaki Non 広瀬ゆうき Hirose Yuuki 福緒唯 Fukuo Yui 星希成奏 Hoshiki Seena female vocals vocalist Erowdi S2 season two marksman666
BeatmapID:4084030
BeatmapSetID:1968934

[Difficulty]
HPDrainRate:7
CircleSize:5
OverallDifficulty:5
ApproachRate:5
SliderMultiplier:1.4
SliderTickRate:1

[Events]
//Background and Video events
Video,-197,"isekaismartphone.mp4"
0,0,"arrowdibackground.jpg",0,0
//Break Periods
//Storyboard Layer 0 (Background)
//Storyboard Layer 1 (Fail)
//Storyboard Layer 2 (Pass)
//Storyboard Layer 3 (Foreground)
//Storyboard Layer 4 (Overlay)
//Storyboard Sound Samples

[TimingPoints]
1443,400,4,1,0,70,1,0
27038,-100,4,1,0,55,0,0
39838,-100,4,1,0,70,0,0
55843,400,4,1,0,70,1,1
81443,-100,4,1,0,70,0,0
82638,-100,4,1,0,55,0,0

[HitObjects]
256,192,1443,5,4,0:0:0:0:
256,192,2843,1,8,0:0:0:0:
256,192,3043,1,4,0:0:0:0:
256,192,4643,1,4,0:0:0:0:
256,192,6043,1,8,0:0:0:0:
256,192,6243,1,4,0:0:0:0:
256,192,6843,1,8,0:0:0:0:
256,192,7043,1,4,0:0:0:0:
256,192,7443,1,8,0:0:0:0:
256,192,7843,1,4,0:0:0:0:
256,192,8443,1,0,0:0:0:0:
256,192,8643,1,8,0:0:0:0:
256,192,8843,1,0,0:0:0:0:
256,192,9043,1,8,0:0:0:0:
256,192,9243,1,0,0:0:0:0:
256,192,9443,1,8,0:0:0:0:
256,192,9743,1,8,0:0:0:0:
256,192,10043,1,8,0:0:0:0:
256,192,10243,1,0,0:0:0:0:
256,192,10843,1,8,0:0:0:0:
256,192,10943,1,8,0:0:0:0:
256,192,11043,1,8,0:0:0:0:
256,192,11643,1,0,0:0:0:0:
256,192,11743,1,0,0:0:0:0:
256,192,11843,1,0,0:0:0:0:
256,192,12143,1,0,0:0:0:0:
256,192,12443,1,0,0:0:0:0:
256,192,12643,1,8,0:0:0:0:
256,192,13043,1,8,0:0:0:0:
256,192,13243,1,8,0:0:0:0:
256,192,13443,1,0,0:0:0:0:
256,192,13543,1,0,0:0:0:0:
256,192,13643,1,0,0:0:0:0:
256,192,13843,1,8,0:0:0:0:
256,192,14243,8,0,15443,0:0:0:0:
256,192,15843,5,0,0:0:0:0:
256,192,16143,1,8,0:0:0:0:
256,192,16243,1,8,0:0:0:0:
256,192,16443,1,0,0:0:0:0:
256,192,16743,1,8,0:0:0:0:
256,192,16843,1,8,0:0:0:0:
256,192,17043,1,0,0:0:0:0:
256,192,17443,1,0,0:0:0:0:
256,192,17743,1,8,0:0:0:0:
256,192,17843,1,8,0:0:0:0:
256,192,18043,1,0,0:0:0:0:
256,192,18343,1,8,0:0:0:0:
256,192,18443,1,8,0:0:0:0:
256,192,18643,1,0,0:0:0:0:
256,192,19043,1,8,0:0:0:0:
256,192,19443,1,8,0:0:0:0:
256,192,19843,1,0,0:0:0:0:
256,192,20243,1,0,0:0:0:0:
256,192,20643,1,0,0:0:0:0:
256,192,20943,1,8,0:0:0:0:
256,192,21043,1,8,0:0:0:0:
256,192,21243,1,8,0:0:0:0:
256,192,21543,1,0,0:0:0:0:
256,192,21643,1,8,0:0:0:0:
256,192,21843,1,0,0:0:0:0:
256,192,22243,1,0,0:0:0:0:
256,192,22543,1,8,0:0:0:0:
256,192,22643,1,8,0:0:0:0:
256,192,22843,1,8,0:0:0:0:
256,192,23143,1,0,0:0:0:0:
256,192,23243,1,8,0:0:0:0:
256,192,23443,1,0,0:0:0:0:
256,192,23843,1,0,0:0:0:0:
256,192,24143,1,8,0:0:0:0:
256,192,24243,1,8,0:0:0:0:
256,192,24443,1,8,0:0:0:0:
256,192,24743,1,0,0:0:0:0:
256,192,24843,1,0,0:0:0:0:
256,192,25043,1,8,0:0:0:0:
256,192,25443,1,8,0:0:0:0:
256,192,25543,1,8,0:0:0:0:
256,192,25643,1,8,0:0:0:0:
256,192,25843,1,0,0:0:0:0:
256,192,26043,1,8,0:0:0:0:
256,192,26243,1,8,0:0:0:0:
256,192,26443,1,0,0:0:0:0:
256,192,26643,1,8,0:0:0:0:
256,192,27043,1,0,0:0:0:0:
256,192,27343,1,8,0:0:0:0:
256,192,27643,1,0,0:0:0:0:
256,192,28043,1,0,0:0:0:0:
256,192,28243,1,8,0:0:0:0:
256,192,28443,1,8,0:0:0:0:
256,192,28643,1,0,0:0:0:0:
256,192,28943,1,8,0:0:0:0:
256,192,29243,1,0,0:0:0:0:
256,192,30243,1,0,0:0:0:0:
256,192,30543,1,8,0:0:0:0:
256,192,30843,1,0,0:0:0:0:
256,192,31243,1,8,0:0:0:0:
256,192,31443,1,0,0:0:0:0:
256,192,31643,1,8,0:0:0:0:
256,192,31843,1,0,0:0:0:0:
256,192,32243,1,8,0:0:0:0:
256,192,32643,1,0,0:0:0:0:
256,192,33243,1,0,0:0:0:0:
256,192,33343,1,0,0:0:0:0:
256,192,33443,1,0,0:0:0:0:
256,192,33743,1,8,0:0:0:0:
256,192,34043,1,0,0:0:0:0:
256,192,34443,1,8,0:0:0:0:
256,192,34643,1,0,0:0:0:0:
256,192,34843,1,0,0:0:0:0:
256,192,35043,1,8,0:0:0:0:
256,192,36043,1,8,0:0:0:0:
256,192,36243,1,8,0:0:0:0:
256,192,36443,1,0,0:0:0:0:
256,192,36643,1,0,0:0:0:0:
256,192,36943,1,8,0:0:0:0:
256,192,37243,1,0,0:0:0:0:
256,192,37643,1,0,0:0:0:0:
256,192,37843,1,8,0:0:0:0:
256,192,38043,1,0,0:0:0:0:
256,192,38243,1,8,0:0:0:0:
256,192,38643,1,8,0:0:0:0:
256,192,38843,1,0,0:0:0:0:
256,192,39043,1,8,0:0:0:0:
256,192,39643,1,8,0:0:0:0:
256,192,39743,1,8,0:0:0:0:
256,192,39843,1,8,0:0:0:0:
256,192,40143,1,0,0:0:0:0:
256,192,40443,1,0,0:0:0:0:
256,192,40843,1,0,0:0:0:0:
256,192,41043,1,8,0:0:0:0:
256,192,41243,1,0,0:0:0:0:
256,192,41443,1,8,0:0:0:0:
256,192,41743,1,8,0:0:0:0:
256,192,42043,1,8,0:0:0:0:
256,192,42443,1,8,0:0:0:0:
256,192,42643,1,0,0:0:0:0:
256,192,42843,1,8,0:0:0:0:
256,192,43043,1,0,0:0:0:0:
256,192,43443,1,8,0:0:0:0:
256,192,43843,1,0,0:0:0:0:
256,192,44243,1,8,0:0:0:0:
256,192,44643,1,8,0:0:0:0:
256,192,44943,1,8,0:0:0:0:
256,192,45243,1,0,0:0:0:0:
256,192,46043,1,8,0:0:0:0:
256,192,46143,1,8,0:0:0:0:
256,192,46243,1,8,0:0:0:0:
256,192,46543,1,0,0:0:0:0:
256,192,46643,1,0,0:0:0:0:
256,192,46843,1,8,0:0:0:0:
256,192,47043,1,0,0:0:0:0:
256,192,47643,1,0,0:0:0:0:
256,192,47743,1,0,0:0:0:0:
256,192,47843,1,0,0:0:0:0:
256,192,48143,1,8,0:0:0:0:
256,192,48243,1,8,0:0:0:0:
256,192,48443,1,8,0:0:0:0:
256,192,48643,1,0,0:0:0:0:
256,192,49243,1,8,0:0:0:0:
256,192,49343,1,8,0:0:0:0:
256,192,49443,1,8,0:0:0:0:
256,192,50043,1,0,0:0:0:0:
256,192,50143,1,0,0:0:0:0:
256,192,50243,1,0,0:0:0:0:
256,192,50543,1,8,0:0:0:0:
256,192,50843,1,0,0:0:0:0:
256,192,51043,1,8,0:0:0:0:
256,192,51443,1,8,0:0:0:0:
256,192,51843,1,8,0:0:0:0:
256,192,52043,1,0,0:0:0:0:
256,192,52243,1,8,0:0:0:0:
256,192,52443,1,0,0:0:0:0:
256,192,52643,1,8,0:0:0:0:
256,192,52743,1,8,0:0:0:0:
256,192,52843,1,8,0:0:0:0:
256,192,52943,1,8,0:0:0:0:
256,192,53243,1,0,0:0:0:0:
256,192,53343,1,0,0:0:0:0:
256,192,53443,1,0,0:0:0:0:
256,192,53543,1,0,0:0:0:0:
256,192,53843,1,8,0:0:0:0:
256,192,53943,1,8,0:0:0:0:
256,192,54043,1,8,0:0:0:0:
256,192,54243,8,0,55443,0:0:0:0:
256,192,55843,5,4,0:0:0:0:
256,192,56443,1,8,0:0:0:0:
256,192,56643,1,0,0:0:0:0:
256,192,56943,1,8,0:0:0:0:
256,192,57243,1,8,0:0:0:0:
256,192,57443,1,0,0:0:0:0:
256,192,57643,1,8,0:0:0:0:
256,192,57843,1,0,0:0:0:0:
256,192,57943,1,0,0:0:0:0:
256,192,58043,1,0,0:0:0:0:
256,192,58243,1,8,0:0:0:0:
256,192,58443,1,0,0:0:0:0:
256,192,58643,1,8,0:0:0:0:
256,192,58743,1,8,0:0:0:0:
256,192,58843,1,8,0:0:0:0:
256,192,59043,1,8,0:0:0:0:
256,192,59643,1,8,0:0:0:0:
256,192,59743,1,8,0:0:0:0:
256,192,59843,1,8,0:0:0:0:
256,192,60143,1,0,0:0:0:0:
256,192,60443,1,8,0:0:0:0:
256,192,60643,1,0,0:0:0:0:
256,192,61043,1,0,0:0:0:0:
256,192,61243,1,8,0:0:0:0:
256,192,61343,1,8,0:0:0:0:
256,192,61443,1,8,0:0:0:0:
256,192,61643,1,0,0:0:0:0:
256,192,61843,1,8,0:0:0:0:
256,192,62243,1,0,0:0:0:0:
256,192,63243,1,8,0:0:0:0:
256,192,63343,1,8,0:0:0:0:
256,192,63443,1,8,0:0:0:0:
256,192,63643,1,8,0:0:0:0:
256,192,63843,1,0,0:0:0:0:
256,192,64143,1,8,0:0:0:0:
256,192,64443,1,8,0:0:0:0:
256,192,64643,1,0,0:0:0:0:
256,192,65043,1,8,0:0:0:0:
256,192,65243,1,0,0:0:0:0:
256,192,65343,1,0,0:0:0:0:
256,192,65443,1,0,0:0:0:0:
256,192,65843,1,0,0:0:0:0:
256,192,66043,1,8,0:0:0:0:
256,192,66143,1,8,0:0:0:0:
256,192,66243,1,8,0:0:0:0:
256,192,66643,1,8,0:0:0:0:
256,192,66843,1,0,0:0:0:0:
256,192,66943,1,0,0:0:0:0:
256,192,67043,1,0,0:0:0:0:
256,192,67443,1,0,0:0:0:0:
256,192,67643,1,8,0:0:0:0:
256,192,67843,1,0,0:0:0:0:
256,192,68143,1,8,0:0:0:0:
256,192,68243,1,8,0:0:0:0:
256,192,68443,1,8,0:0:0:0:
256,192,68643,1,4,0:0:0:0:
256,192,69243,1,8,0:0:0:0:
256,192,69443,1,0,0:0:0:0:
256,192,69743,1,8,0:0:0:0:
256,192,70043,1,8,0:0:0:0:
256,192,70243,1,0,0:0:0:0:
256,192,70443,1,8,0:0:0:0:
256,192,70643,1,0,0:0:0:0:
256,192,70743,1,0,0:0:0:0:
256,192,70843,1,0,0:0:0:0:
256,192,71043,1,8,0:0:0:0:
256,192,71243,1,0,0:0:0:0:
256,192,71443,1,8,0:0:0:0:
256,192,71543,1,8,0:0:0:0:
256,192,71643,1,8,0:0:0:0:
256,192,71843,1,8,0:0:0:0:
256,192,72443,1,8,0:0:0:0:
256,192,72543,1,8,0:0:0:0:
256,192,72643,1,8,0:0:0:0:
256,192,72943,1,0,0:0:0:0:
256,192,73243,1,8,0:0:0:0:
256,192,73443,1,0,0:0:0:0:
256,192,73843,1,0,0:0:0:0:
256,192,74043,1,8,0:0:0:0:
256,192,74143,1,8,0:0:0:0:
256,192,74243,1,8,0:0:0:0:
256,192,74443,1,0,0:0:0:0:
256,192,74643,1,8,0:0:0:0:
256,192,75043,1,0,0:0:0:0:
256,192,75443,1,8,0:0:0:0:
256,192,75643,1,0,0:0:0:0:
256,192,75743,1,0,0:0:0:0:
256,192,75843,1,0,0:0:0:0:
256,192,76043,1,0,0:0:0:0:
256,192,76243,1,8,0:0:0:0:
256,192,76443,1,0,0:0:0:0:
256,192,76643,1,8,0:0:0:0:
256,192,76943,1,8,0:0:0:0:
256,192,77243,1,8,0:0:0:0:
256,192,77443,1,0,0:0:0:0:
256,192,78043,1,8,0:0:0:0:
256,192,78143,1,8,0:0:0:0:
256,192,78243,1,8,0:0:0:0:
256,192,78643,1,0,0:0:0:0:
256,192,78843,1,0,0:0:0:0:
256,192,78943,1,0,0:0:0:0:
256,192,79043,1,0,0:0:0:0:
256,192,79343,1,0,0:0:0:0:
256,192,79643,1,8,0:0:0:0:
256,192,79843,1,0,0:0:0:0:
256,192,80143,1,0,0:0:0:0:
256,192,80443,1,8,0:0:0:0:
256,192,80643,1,8,0:0:0:0:
256,192,80743,1,8,0:0:0:0:
256,192,80843,1,8,0:0:0:0:
256,192,81043,1,0,0:0:0:0:
256,192,81143,1,0,0:0:0:0:
256,192,81243,1,0,0:0:0:0:
256,192,81443,1,12,0:0:0:0:
256,192,81643,1,12,0:0:0:0:
256,192,81843,1,4,0:0:0:0:
256,192,82043,1,12,0:0:0:0:
256,192,82243,1,4,0:0:0:0:
256,192,82443,1,4,0:0:0:0:
256,192,82643,8,0,86243,0:0:0:0:
