osu file format v14

[General]
AudioFilename: audio.mp3
AudioLeadIn: 0
PreviewTime: 459
Countdown: 1
SampleSet: None
StackLeniency: 0.7
Mode: 0
LetterboxInBreaks: 0
WidescreenStoryboard: 0

[Editor]
Bookmarks: 29997,41812,53628,71351,83166,118612,140766
DistanceSpacing: 1.9
BeatDivisor: 4
GridSize: 16
TimelineZoom: 1

[Metadata]
Title:Rockefeller Street (Nightcore Mix)
TitleUnicode:Rockefeller Street (Nightcore Mix)
Artist:Geller Jaani
ArtistUnicode:Geller Jaani
Creator:Doomsdaddy
Version:1-2-7-3
Source:
Tags:your ears have been blessed by the mighty anime
BeatmapID:1773664
BeatmapSetID:848161

[Difficulty]
HPDrainRate:5.5
CircleSize:3
OverallDifficulty:8.5
ApproachRate:9.3
SliderMultiplier:2
SliderTickRate:1

[Events]
//Background and Video events
0,0,"deepfried_1534819768351.png",0,0
//Break Periods
//Storyboard Layer 0 (Background)
//Storyboard Layer 1 (Fail)
//Storyboard Layer 2 (Pass)
//Storyboard Layer 3 (Foreground)
//Storyboard Sound Samples

[TimingPoints]
459,369.230769230769,4,2,0,50,1,0
41812,-33.3333333333333,4,3,0,80,0,1
42920,-200,4,3,0,80,0,1
43289,-33.3333333333333,4,3,0,80,0,1
44397,-200,4,3,0,80,0,1
44766,-33.3333333333333,4,3,0,80,0,1
48828,-200,4,3,0,80,0,1
49197,-33.3333333333333,4,3,0,80,0,1
50305,-200,4,3,0,80,0,1
50674,-33.3333333333333,4,3,0,80,0,1
53628,-100,4,2,0,50,0,0
83166,-33.3333333333333,4,3,0,80,0,1
84274,-200,4,3,0,80,0,1
84643,-33.3333333333333,4,3,0,80,0,1
85751,-200,4,3,0,80,0,1
86120,-33.3333333333333,4,3,0,80,0,1
90182,-200,4,3,0,80,0,1
90551,-33.3333333333333,4,3,0,80,0,1
91658,-200,4,3,0,80,0,1
92028,-33.3333333333333,4,3,0,80,0,1
106797,-66.6666666666667,4,3,0,80,0,0
118612,-33.3333333333333,4,3,0,80,0,1
119720,-200,4,3,0,80,0,1
120089,-33.3333333333333,4,3,0,80,0,1
121197,-200,4,3,0,80,0,1
121566,-33.3333333333333,4,3,0,80,0,1
125628,-200,4,3,0,80,0,1
125997,-33.3333333333333,4,3,0,80,0,1
127105,-200,4,3,0,80,0,1
127474,-33.3333333333333,4,3,0,80,0,1
130428,-28.5714285714286,4,3,0,80,0,1
131535,-200,4,3,0,80,0,1
131905,-28.5714285714286,4,3,0,80,0,1
133012,-200,4,3,0,80,0,1
133382,-28.5714285714286,4,3,0,80,0,1
137351,-200,4,3,0,80,0,1
137812,-28.5714285714286,4,3,0,80,0,1
138920,-200,4,3,0,80,0,1
139289,-28.5714285714286,4,3,0,80,0,1

[HitObjects]
70,113,459,5,0,0:0:0:0:
215,201,643,1,0,0:0:0:0:
136,61,828,2,0,P|154:103|116:182,1,100
38,345,1197,5,0,0:0:0:0:
77,229,1381,1,0,0:0:0:0:
264,340,1566,1,0,0:0:0:0:
137,308,1751,1,0,0:0:0:0:
325,260,1935,6,0,P|365:219|349:139,1,100
255,70,2305,1,0,0:0:0:0:
139,219,2489,1,0,0:0:0:0:
291,188,2674,1,0,0:0:0:0:
95,102,2859,1,0,0:0:0:0:
225,291,3043,1,0,0:0:0:0:
181,112,3228,1,0,0:0:0:0:
141,318,3412,6,0,P|181:337|249:309,1,100
406,194,3782,1,0,0:0:0:0:
364,316,3966,1,0,0:0:0:0:
276,158,4151,6,0,P|228:133|155:138,1,100
82,298,4520,1,0,0:0:0:0:
208,216,4705,1,0,0:0:0:0:
95,123,4889,6,0,P|121:72|201:45,1,100
360,115,5259,1,0,0:0:0:0:
239,122,5443,1,0,0:0:0:0:
422,50,5628,6,0,P|448:102|418:182,1,100
396,265,5997,1,0,0:0:0:0:
396,265,6366,6,0,B|351:245|351:245|273:258,1,100
129,339,6735,1,0,0:0:0:0:
262,300,6920,1,0,0:0:0:0:
58,180,7105,1,0,0:0:0:0:
177,266,7289,1,0,0:0:0:0:
130,67,7474,1,0,0:0:0:0:
130,67,7843,6,0,P|182:59|253:92,1,100
393,220,8212,1,0,0:0:0:0:
245,170,8397,1,0,0:0:0:0:
377,98,8582,1,0,0:0:0:0:
302,256,8766,1,0,0:0:0:0:
141,184,8951,1,0,0:0:0:0:
141,184,9320,6,0,L|164:58,1,100
212,256,9689,1,0,0:0:0:0:
55,198,9874,1,0,0:0:0:0:
234,149,10059,1,0,0:0:0:0:
71,87,10243,1,0,0:0:0:0:
240,39,10428,1,0,0:0:0:0:
240,39,10797,6,0,P|294:56|329:106,1,100
256,287,11166,1,0,0:0:0:0:
272,162,11351,1,0,0:0:0:0:
331,327,11535,1,0,0:0:0:0:
172,295,11720,1,0,0:0:0:0:
399,208,11905,1,0,0:0:0:0:
399,208,12274,6,0,P|382:156|311:119,1,100
138,217,12643,1,0,0:0:0:0:
269,206,12828,1,0,0:0:0:0:
109,300,13012,1,0,0:0:0:0:
45,155,13197,1,0,0:0:0:0:
211,278,13382,2,0,P|276:296|352:246,1,150
396,187,13751,6,0,L|345:57,1,100
188,204,14120,1,0,0:0:0:0:
62,132,14305,1,0,0:0:0:0:
193,119,14489,1,0,0:0:0:0:
189,284,14674,1,0,0:0:0:0:
121,70,14859,5,0,0:0:0:0:
121,70,15043,5,0,0:0:0:0:
121,70,15228,6,0,P|160:41|236:44,1,100
373,147,15597,1,0,0:0:0:0:
249,119,15782,1,0,0:0:0:0:
249,119,15874,1,0,0:0:0:0:
249,119,15966,1,0,0:0:0:0:
370,49,16151,1,0,0:0:0:0:
291,229,16335,5,0,0:0:0:0:
291,229,16520,5,0,0:0:0:0:
291,229,16705,6,0,P|237:228|162:263,1,100
370,283,17074,1,0,0:0:0:0:
464,168,17259,1,0,0:0:0:0:
301,79,17443,1,0,0:0:0:0:
371,184,17628,1,0,0:0:0:0:
459,36,17812,1,0,0:0:0:0:
459,36,18182,6,0,P|417:77|354:110,1,100
206,205,18551,1,0,0:0:0:0:
120,110,18735,1,0,0:0:0:0:
293,193,18920,1,0,0:0:0:0:
207,288,19104,1,0,0:0:0:0:
206,89,19289,1,0,0:0:0:0:
206,89,19659,6,0,P|243:79|325:113,1,100
273,259,20028,2,0,P|249:205|254:153,1,100
360,261,20397,1,0,0:0:0:0:
196,305,20582,1,0,0:0:0:0:
342,177,20766,2,0,P|394:130|325:103,1,150
246,114,21135,6,0,P|198:150|123:146,1,100
54,39,21505,1,0,0:0:0:0:
173,75,21689,1,0,0:0:0:0:
96,252,21874,1,0,0:0:0:0:
50,149,22059,1,0,0:0:0:0:
225,261,22243,1,0,0:0:0:0:
225,261,22612,6,0,P|271:289|358:267,1,100
401,129,22982,1,0,0:0:0:0:
290,210,23167,1,0,0:0:0:0:
444,210,23351,1,0,0:0:0:0:
366,53,23535,1,0,0:0:0:0:
234,145,23720,2,0,P|171:156|89:120,1,150
148,90,24089,6,0,P|155:119|106:187,1,100
48,334,24459,1,0,0:0:0:0:
49,206,24643,1,0,0:0:0:0:
202,343,24828,1,0,0:0:0:0:
303,243,25012,1,0,0:0:0:0:
194,84,25197,1,0,0:0:0:0:
209,102,25289,1,0,0:0:0:0:
212,127,25381,1,0,0:0:0:0:
202,149,25473,1,0,0:0:0:0:
181,162,25566,5,0,0:0:0:0:
75,92,25751,1,0,0:0:0:0:
314,50,25935,1,0,0:0:0:0:
274,202,26120,1,0,0:0:0:0:
449,211,26305,1,0,0:0:0:0:
343,138,26489,1,0,0:0:0:0:
144,233,26674,1,0,0:0:0:0:
144,233,27043,6,0,P|107:191|116:120,1,100
209,212,27412,1,0,0:0:0:0:
37,179,27597,1,0,0:0:0:0:
266,79,27782,1,0,0:0:0:0:
312,224,27966,1,0,0:0:0:0:
122,75,28151,1,0,0:0:0:0:
174,193,28335,1,0,0:0:0:0:
174,193,28428,1,0,0:0:0:0:
174,193,28520,5,0,0:0:0:0:
98,338,28705,2,0,L|77:278,1,50
173,242,28889,2,0,L|173:178,1,50
273,201,29074,2,0,L|295:141,1,50
392,175,29258,2,0,B|422:144|422:144|479:187|436:253,1,150
375,303,29628,1,0,0:0:0:0:
273,201,29812,1,0,0:0:0:0:
328,42,29997,5,0,0:0:0:0:
292,54,30089,1,0,0:0:0:0:
257,66,30181,1,0,0:0:0:0:
221,78,30273,1,0,0:0:0:0:
186,90,30366,1,0,0:0:0:0:
75,256,30551,1,0,0:0:0:0:
74,141,30735,5,0,0:0:0:0:
108,154,30827,1,0,0:0:0:0:
143,168,30919,1,0,0:0:0:0:
178,182,31011,1,0,0:0:0:0:
213,195,31104,1,0,0:0:0:0:
338,348,31289,1,0,0:0:0:0:
223,279,31474,5,0,0:0:0:0:
258,267,31566,1,0,0:0:0:0:
285,242,31658,1,0,0:0:0:0:
298,207,31750,1,0,0:0:0:0:
294,170,31843,1,0,0:0:0:0:
166,37,32028,1,0,0:0:0:0:
164,148,32212,5,0,0:0:0:0:
196,128,32304,1,0,0:0:0:0:
228,109,32396,1,0,0:0:0:0:
260,90,32488,1,0,0:0:0:0:
293,71,32581,1,0,0:0:0:0:
466,182,32766,1,0,0:0:0:0:
405,47,32951,5,0,0:0:0:0:
393,82,33043,1,0,0:0:0:0:
381,118,33135,1,0,0:0:0:0:
370,153,33227,1,0,0:0:0:0:
358,189,33320,1,0,0:0:0:0:
197,310,33505,1,0,0:0:0:0:
307,335,33689,5,0,0:0:0:0:
295,299,33781,1,0,0:0:0:0:
283,263,33873,1,0,0:0:0:0:
272,228,33965,1,0,0:0:0:0:
260,192,34058,1,0,0:0:0:0:
90,84,34243,1,0,0:0:0:0:
168,187,34428,5,0,0:0:0:0:
178,151,34520,1,0,0:0:0:0:
201,122,34612,1,0,0:0:0:0:
234,105,34704,1,0,0:0:0:0:
272,102,34797,1,0,0:0:0:0:
444,207,34982,1,0,0:0:0:0:
374,64,35166,5,0,0:0:0:0:
361,99,35258,1,0,0:0:0:0:
348,134,35350,1,0,0:0:0:0:
335,169,35442,1,0,0:0:0:0:
322,204,35535,1,0,0:0:0:0:
132,138,35720,1,0,0:0:0:0:
217,177,35905,5,0,0:0:0:0:
229,212,35997,1,0,0:0:0:0:
242,247,36089,1,0,0:0:0:0:
255,282,36181,1,0,0:0:0:0:
268,317,36274,1,0,0:0:0:0:
406,229,36459,1,0,0:0:0:0:
268,317,36643,5,0,0:0:0:0:
255,282,36736,1,0,0:0:0:0:
242,247,36828,1,0,0:0:0:0:
229,212,36920,1,0,0:0:0:0:
217,177,37012,1,0,0:0:0:0:
56,73,37197,1,0,0:0:0:0:
126,170,37382,5,0,0:0:0:0:
136,134,37474,1,0,0:0:0:0:
161,106,37566,1,0,0:0:0:0:
194,90,37658,1,0,0:0:0:0:
232,90,37751,1,0,0:0:0:0:
396,189,37935,1,0,0:0:0:0:
278,208,38120,5,0,0:0:0:0:
293,173,38212,1,0,0:0:0:0:
309,139,38304,1,0,0:0:0:0:
325,105,38396,1,0,0:0:0:0:
340,71,38489,1,0,0:0:0:0:
472,166,38674,1,0,0:0:0:0:
359,280,38859,5,0,0:0:0:0:
322,286,38951,1,0,0:0:0:0:
285,292,39043,1,0,0:0:0:0:
248,299,39135,1,0,0:0:0:0:
211,305,39228,1,0,0:0:0:0:
66,194,39412,1,0,0:0:0:0:
211,305,39597,5,0,0:0:0:0:
248,299,39690,1,0,0:0:0:0:
285,292,39782,1,0,0:0:0:0:
322,286,39874,1,0,0:0:0:0:
359,280,39966,1,0,0:0:0:0:
458,154,40151,1,0,0:0:0:0:
269,99,40335,5,0,0:0:0:0:
297,123,40427,1,0,0:0:0:0:
325,148,40519,1,0,0:0:0:0:
353,172,40611,1,0,0:0:0:0:
381,197,40704,1,0,0:0:0:0:
365,55,40889,5,0,0:0:0:0:
257,257,41074,1,0,0:0:0:0:
81,81,41259,1,0,0:0:0:0:
250,148,41443,2,0,B|223:148|223:148|156:224|110:198,1,150
52,270,41812,6,0,B|123:203|195:250|195:250|263:298|366:219,1,300.000011444092
378,148,42089,1,0,0:0:0:0:
435,227,42182,2,0,P|300:206|316:72,1,300.000011444092
456,92,42459,1,0,0:0:0:0:
435,227,42551,2,0,B|386:251|386:251|266:256,1,150.000005722046
63,207,42735,2,0,B|112:183|112:183|232:178,1,150.000005722046
320,277,42920,6,0,P|325:235|279:229,1,75
372,341,43289,6,0,P|417:278|411:188,1,150.000005722046
364,86,43474,2,0,B|325:80|325:80|264:105|264:105|174:108,1,150.000005722046
87,163,43659,2,0,P|72:134|131:160,1,150.000005722046
216,240,43843,2,0,P|264:278|270:217,1,150.000005722046
87,163,44028,2,0,P|72:134|131:160,1,150.000005722046
216,240,44212,2,0,P|264:278|270:217,1,150.000005722046
168,38,44397,6,0,P|226:20|258:32,1,75
361,115,44766,6,0,B|338:172|367:263|367:263|386:205|442:180|519:212,1,300.000011444092
455,290,45043,1,0,0:0:0:0:
315,347,45135,2,0,P|276:239|270:189,1,150.000005722046
175,61,45320,2,0,P|160:134|131:203,1,150.000005722046
55,299,45505,1,0,0:0:0:0:
35,66,45689,6,0,P|106:40|205:90,1,150.000005722046
323,109,45874,1,0,0:0:0:0:
334,91,45966,1,0,0:0:0:0:
331,70,46058,2,0,B|284:83|284:83|272:143|206:169,1,150.000005722046
179,307,46243,6,0,P|243:262|387:326,1,150.000005722046
412,325,46428,1,0,0:0:0:0:
251,346,46612,6,0,P|250:246|198:188,1,150.000005722046
111,141,46797,1,0,0:0:0:0:
154,246,46982,6,0,P|235:209|284:136,1,150.000005722046
273,44,47166,1,0,0:0:0:0:
206,141,47351,6,0,P|286:172|338:269,1,150.000005722046
285,333,47535,1,0,0:0:0:0:
285,333,47720,6,0,B|255:270|255:270|304:188|304:188|274:137|319:45|434:123,1,300.000011444092
446,196,47997,1,0,0:0:0:0:
346,152,48089,2,0,B|294:140|294:140|206:199|206:199|97:194|111:82,1,300.000011444092
190,46,48366,1,0,0:0:0:0:
226,138,48458,2,0,P|249:220|307:274,1,150.000005722046
386,294,48643,2,0,P|334:287|234:345,1,150.000005722046
124,329,48828,6,0,B|108:288|108:288|108:241,1,75
46,168,49197,6,0,P|82:128|193:78,1,150.000005722046
240,193,49382,2,0,P|302:211|389:271,1,150.000005722046
305,338,49566,1,0,0:0:0:0:
161,194,49751,1,0,0:0:0:0:
447,56,49935,2,0,P|414:113|271:174,1,150.000005722046
174,89,50120,2,0,P|275:53|340:66,1,150.000005722046
460,198,50305,6,0,B|468:237|468:237|452:276,1,75
342,319,50674,6,0,B|271:269|271:269|149:360|20:214,1,300.000011444092
60,173,50951,1,0,0:0:0:0:
132,113,51043,2,0,P|186:151|310:153,1,150.000005722046
364,224,51228,2,0,P|307:168|372:107,1,150.000005722046
431,137,51412,5,0,0:0:0:0:
237,256,51597,2,0,B|201:254|201:254|78:138,1,150.000005722046
89,63,51782,1,0,0:0:0:0:
258,117,51966,1,0,0:0:0:0:
80,339,52151,6,0,B|135:271|212:301|212:301|304:368|421:245,1,300.000011444092
433,155,52520,2,0,B|409:100|358:108|358:108|271:215|435:323,1,300.000011444092
253,177,52889,2,0,P|193:139|324:77,1,300.000011444092
110,34,53258,2,0,P|111:179|229:264,1,300.000011444092
361,311,53628,6,0,P|405:268|416:200,1,100
483,130,53997,2,0,P|424:109|376:119,1,100
255,199,54366,1,0,0:0:0:0:
179,82,54551,1,0,0:0:0:0:
232,73,54643,1,0,0:0:0:0:
278,103,54735,2,0,P|320:127|336:262,1,150
307,313,55105,6,0,P|265:288|199:302,1,100
60,339,55474,2,0,L|88:204,1,100
206,128,55843,1,0,0:0:0:0:
45,61,56028,1,0,0:0:0:0:
72,102,56120,1,0,0:0:0:0:
100,143,56212,2,0,B|134:188|134:188|253:214,1,150
293,262,56582,6,0,P|270:211|299:133,1,100
342,50,56951,2,0,L|468:116,1,100
315,210,57320,1,0,0:0:0:0:
193,100,57505,1,0,0:0:0:0:
143,96,57597,1,0,0:0:0:0:
99,119,57689,1,0,0:0:0:0:
99,119,58058,6,0,P|96:172|133:243,1,100
251,307,58428,1,0,0:0:0:0:
251,307,58797,1,0,0:0:0:0:
182,155,58982,1,0,0:0:0:0:
199,108,59074,1,0,0:0:0:0:
217,61,59166,2,0,P|266:61|346:122,1,150
316,215,59535,6,0,P|372:220|416:186,2,100
156,282,60089,1,0,0:0:0:0:
230,202,60274,2,0,P|236:251|268:290,2,100
280,48,60828,1,0,0:0:0:0:
256,124,61012,6,0,L|130:170,1,100
65,268,61382,2,0,P|119:263|190:296,1,100
292,344,61751,1,0,0:0:0:0:
406,227,61935,1,0,0:0:0:0:
248,232,62120,1,0,0:0:0:0:
248,232,62489,6,0,P|218:178|239:119,1,100
350,77,62858,1,0,0:0:0:0:
455,172,63043,1,0,0:0:0:0:
296,172,63228,6,0,P|267:169|182:213,1,100
137,322,63597,1,0,0:0:0:0:
259,254,63782,1,0,0:0:0:0:
117,209,63966,6,0,P|124:153|185:109,1,100
329,50,64335,1,0,0:0:0:0:
222,166,64520,1,0,0:0:0:0:
251,51,64705,2,0,P|263:95|384:105,1,150
421,69,65074,1,0,0:0:0:0:
421,69,65443,6,0,P|443:121|417:182,1,100
321,325,65812,1,0,0:0:0:0:
282,191,65997,1,0,0:0:0:0:
128,334,66182,1,0,0:0:0:0:
239,273,66366,1,0,0:0:0:0:
64,170,66551,1,0,0:0:0:0:
64,170,66920,6,0,L|156:91,1,100
346,155,67289,1,0,0:0:0:0:
200,164,67474,1,0,0:0:0:0:
368,73,67658,1,0,0:0:0:0:
314,231,67843,1,0,0:0:0:0:
201,56,68028,1,0,0:0:0:0:
201,56,68397,6,0,P|237:76|266:157,1,100
221,325,68766,1,0,0:0:0:0:
115,219,68951,1,0,0:0:0:0:
325,194,69135,1,0,0:0:0:0:
185,254,69320,1,0,0:0:0:0:
201,56,69505,1,0,0:0:0:0:
215,155,69689,1,0,0:0:0:0:
166,163,69781,1,0,0:0:0:0:
118,150,69873,5,0,0:0:0:0:
288,93,70058,2,0,P|317:111|354:157,1,50
410,139,70243,2,0,P|417:172|411:230,1,50
467,256,70428,2,0,P|449:285|403:322,1,50
363,341,70612,2,0,B|341:316|341:316|199:283,1,150
156,339,70982,1,0,0:0:0:0:
314,240,71166,1,0,0:0:0:0:
131,147,71351,6,0,P|144:115|173:96,3,50
190,80,71720,1,0,0:0:0:0:
393,180,71905,1,0,0:0:0:0:
267,166,72089,6,0,P|271:136|286:111,3,50
306,88,72458,1,0,0:0:0:0:
467,254,72643,1,0,0:0:0:0:
299,261,72828,6,0,P|278:269|239:303,3,50
236,330,73197,1,0,0:0:0:0:
70,197,73382,1,0,0:0:0:0:
135,298,73566,6,0,P|152:263|152:241,3,50
154,203,73935,1,0,0:0:0:0:
256,44,74120,1,0,0:0:0:0:
128,96,74305,6,0,L|178:112,3,50
225,126,74674,1,0,0:0:0:0:
402,184,74858,1,0,0:0:0:0:
261,282,75043,6,0,L|200:291,3,50
172,317,75412,1,0,0:0:0:0:
309,189,75597,1,0,0:0:0:0:
255,42,75782,6,0,L|162:65,1,50
244,58,75966,2,0,L|151:81,1,50
234,75,76151,1,0,0:0:0:0:
306,236,76335,1,0,0:0:0:0:
255,342,76520,6,0,L|162:319,1,50
244,326,76704,2,0,L|151:303,1,50
234,309,76889,1,0,0:0:0:0:
306,148,77073,1,0,0:0:0:0:
393,270,77258,6,0,P|374:278|340:269,1,50
302,242,77443,2,0,P|284:227|254:224,1,50
203,240,77628,1,0,0:0:0:0:
81,68,77812,1,0,0:0:0:0:
81,203,77997,6,0,P|95:176|123:157,1,50
157,166,78182,2,0,P|175:148|185:126,1,50
174,81,78366,1,0,0:0:0:0:
97,290,78551,1,0,0:0:0:0:
244,335,78735,6,0,L|304:314,3,50
331,305,79105,1,0,0:0:0:0:
386,107,79289,1,0,0:0:0:0:
426,231,79474,6,0,L|366:210,3,50
339,201,79844,1,0,0:0:0:0:
123,248,80028,1,0,0:0:0:0:
265,254,80212,6,0,P|252:227|254:188,3,50
261,164,80582,1,0,0:0:0:0:
355,321,80766,1,0,0:0:0:0:
176,156,80951,6,0,P|183:127|207:104,3,50
235,83,81320,1,0,0:0:0:0:
187,279,81505,1,0,0:0:0:0:
32,199,81689,5,0,0:0:0:0:
67,188,81781,1,0,0:0:0:0:
103,177,81873,1,0,0:0:0:0:
139,166,81965,1,0,0:0:0:0:
175,155,82058,1,0,0:0:0:0:
380,251,82243,1,0,0:0:0:0:
295,106,82428,5,0,0:0:0:0:
284,142,82520,1,0,0:0:0:0:
274,178,82612,1,0,0:0:0:0:
264,214,82704,1,0,0:0:0:0:
253,250,82797,1,0,0:0:0:0:
114,109,82982,1,0,0:0:0:0:
349,194,83166,6,0,P|440:199|336:154,1,300.000011444092
275,191,83443,1,0,0:0:0:0:
176,213,83535,2,0,B|115:232|115:232|151:180|151:180|272:212|320:49,1,300.000011444092
240,40,83812,1,0,0:0:0:0:
177,109,83905,2,0,P|212:141|257:266,1,150.000005722046
307,336,84089,2,0,L|435:200,1,150.000005722046
385,138,84274,6,0,L|320:204,1,75
249,288,84643,6,0,P|190:289|201:218,1,150.000005722046
255,130,84828,2,0,P|197:60|85:98,1,150.000005722046
80,141,85012,1,0,0:0:0:0:
350,45,85197,1,0,0:0:0:0:
223,255,85382,2,0,B|245:220|245:220|381:197,1,150.000005722046
469,242,85566,2,0,B|446:277|446:277|339:295,1,150.000005722046
133,248,85751,6,0,P|140:284|177:328,1,75
223,255,86120,6,0,P|187:177|104:160,1,150.000005722046
58,199,86305,2,0,P|121:145|55:85,1,150.000005722046
31,33,86489,2,0,L|211:82,1,150.000005722046
250,144,86674,2,0,L|420:107,1,150.000005722046
468,43,86858,1,0,0:0:0:0:
273,83,87043,2,0,B|249:142|249:142|301:275|301:275|334:198|334:198|243:220|243:220|155:326,1,450.000017166138
238,349,87412,1,0,0:0:0:0:
81,216,87597,6,0,P|96:145|196:119,1,150.000005722046
241,195,87782,2,0,P|322:239|442:157,1,150.000005722046
446,134,87966,1,0,0:0:0:0:
155,337,88151,1,0,0:0:0:0:
363,280,88335,2,0,B|373:228|373:228|181:41,1,300.000011444092
112,82,88612,1,0,0:0:0:0:
111,175,88705,2,0,B|208:170|244:104|244:104|312:182|462:101,1,300.000011444092
374,136,89074,6,0,P|381:229|314:127,1,300.000011444092
376,71,89351,5,0,0:0:0:0:
335,186,89443,2,0,B|285:230|285:230|257:78|75:190,1,300.000011444092
69,258,89720,1,0,0:0:0:0:
138,330,89812,2,0,P|239:348|333:303,1,150.000005722046
143,325,89997,2,0,P|246:341|334:286,1,150.000005722046
148,320,90182,6,0,P|211:337|228:335,1,75
358,216,90551,6,0,B|411:225|411:225|477:315,1,150.000005722046
297,271,90735,2,0,P|278:198|387:138,1,150.000005722046
416,101,90920,1,0,0:0:0:0:
374,303,91105,1,0,0:0:0:0:
196,169,91289,2,0,P|141:138|47:174,1,150.000005722046
181,338,91474,2,0,P|180:274|102:211,1,150.000005722046
68,358,91658,6,0,P|103:312|97:286,1,75
60,160,92028,6,0,P|84:101|194:105,1,150.000005722046
303,194,92212,2,0,L|260:369,1,150.000005722046
205,241,92397,1,0,0:0:0:0:
216,192,92489,1,0,0:0:0:0:
228,143,92581,1,0,0:0:0:0:
240,95,92673,1,0,0:0:0:0:
312,46,92766,6,0,B|332:82|367:99|367:99|474:154|510:13|290:41|370:170|440:156|440:156|491:186|490:239|491:304,1,450.000017166138
445,335,93135,2,0,P|401:287|274:288,1,150.000005722046
107,217,93320,2,0,P|128:281|187:358,1,150.000005722046
216,192,93505,5,0,0:0:0:0:
56,112,93689,1,0,0:0:0:0:
246,296,93874,1,0,0:0:0:0:
167,72,94058,1,0,0:0:0:0:
52,287,94243,1,0,0:0:0:0:
335,122,94428,5,0,0:0:0:0:
370,162,94520,1,0,0:0:0:0:
391,250,94612,1,0,0:0:0:0:
211,336,94797,5,0,0:0:0:0:
246,296,94889,1,0,0:0:0:0:
267,208,94982,6,0,P|224:158|95:150,1,150.000005722046
53,81,95166,2,0,P|38:157|108:234,1,150.000005722046
246,296,95351,6,0,L|419:330,1,150.000005722046
480,198,95535,2,0,L|311:225,1,150.000005722046
246,97,95720,6,0,P|310:121|371:187,1,150.000005722046
201,179,95905,2,0,P|153:115|188:23,1,150.000005722046
254,251,96089,6,0,L|61:305,1,150.000005722046
54,145,96274,2,0,L|231:186,1,150.000005722046
312,229,96458,5,0,0:0:0:0:
394,254,96551,1,0,0:0:0:0:
455,193,96643,1,0,0:0:0:0:
407,120,96735,1,0,0:0:0:0:
318,138,96828,2,0,B|235:145|219:227|219:227|239:282|266:303|266:303|305:294|315:232,1,300.000011444092
268,64,97197,5,0,0:0:0:0:
190,110,97289,1,0,0:0:0:0:
103,121,97382,1,0,0:0:0:0:
32,69,97474,1,0,0:0:0:0:
118,48,97566,2,0,B|174:71|192:123|153:179|153:179|115:251|164:317|230:311,1,300.000011444092
467,193,97935,5,0,0:0:0:0:
222,228,98120,1,0,0:0:0:0:
453,298,98305,1,0,0:0:0:0:
295,110,98489,1,0,0:0:0:0:
357,333,98674,2,0,L|400:36,1,300.000011444092
112,36,99043,2,0,L|155:333,1,300.000011444092
327,325,99412,6,0,P|273:283|118:308,1,150.000005722046
193,272,99597,2,0,P|286:240|373:166,1,150.000005722046
328,211,99782,2,0,P|274:169|119:194,1,150.000005722046
194,158,99967,2,0,P|287:126|374:52,1,150.000005722046
329,97,100151,6,0,P|435:110|316:177,1,300.000011444092
249,239,100428,1,0,0:0:0:0:
195,319,100520,2,0,B|155:323|148:298|148:298|232:125|53:45,1,300.000011444092
112,79,100889,6,0,P|208:129|293:50,1,150.000005722046
366,53,101074,2,0,P|316:149|395:234,1,150.000005722046
416,297,101258,2,0,B|372:273|372:273|190:308,1,150.000005722046
74,218,101443,2,0,B|118:242|118:242|300:207,1,150.000005722046
294,50,101628,6,0,L|261:202,1,150.000005722046
183,313,101812,2,0,L|123:118,1,150.000005722046
96,87,101997,2,0,B|140:111|140:111|322:76,1,150.000005722046
438,166,102182,2,0,B|394:142|394:142|212:177,1,150.000005722046
248,261,102366,5,0,0:0:0:0:
468,86,102551,1,0,0:0:0:0:
379,321,102735,1,0,0:0:0:0:
336,45,102920,1,0,0:0:0:0:
445,249,103105,5,0,0:0:0:0:
146,98,103289,1,0,0:0:0:0:
382,110,103474,1,0,0:0:0:0:
121,312,103658,1,0,0:0:0:0:
222,196,103843,6,0,P|252:190|345:297,1,150.000005722046
288,262,104028,2,0,P|271:170|335:112,1,150.000005722046
348,150,104212,2,0,P|304:173|167:102,1,150.000005722046
213,107,104397,2,0,P|243:141|227:273,1,150.000005722046
206,321,104582,6,0,B|181:253|131:241|131:241|109:259|109:259|34:179|146:71,1,300.000011444092
177,51,104858,1,0,0:0:0:0:
261,99,104951,2,0,B|343:124|343:124|394:133|431:91|431:91|515:139|416:241,1,300.000011444092
412,265,105228,1,0,0:0:0:0:
459,341,105320,5,0,0:0:0:0:
351,33,105505,1,0,0:0:0:0:
146,334,105689,5,0,0:0:0:0:
370,144,105874,1,0,0:0:0:0:
61,60,106058,5,0,0:0:0:0:
311,330,106243,1,0,0:0:0:0:
220,65,106428,5,0,0:0:0:0:
52,302,106612,1,0,0:0:0:0:
131,144,106797,5,0,0:0:0:0:
259,238,107074,1,0,0:0:0:0:
284,206,107166,2,0,P|350:195|304:317,1,225.000008583069
312,324,107535,1,0,0:0:0:0:
106,229,107812,5,0,0:0:0:0:
136,238,107905,2,0,B|141:210|141:210|158:204|158:204|158:192|158:192|170:191|170:191|174:175|174:175|188:176|188:176|194:156|194:156|209:162|209:162|216:148|216:148|217:132|217:132|236:134|236:134|244:117|244:117|282:93,1,225.000008583069
338,50,108274,2,0,B|358:65|358:65|355:83|355:83|376:86|376:86|367:105|367:105|384:105|384:105|370:124|370:124|388:124|388:124|376:139|376:139|398:133|398:133|385:153|385:153|431:210,1,225.000008583069
459,251,108643,1,0,0:0:0:0:
257,325,108920,1,0,0:0:0:0:
235,294,109012,2,0,B|245:279|245:279|257:280|257:280|262:269|262:269|274:273|274:273|278:260|278:260|295:248|295:248|308:272|308:272|322:271|322:271|327:286|327:286|346:280|346:280|347:296|347:296|365:288|365:288|379:295|381:308|410:282,1,225.000008583069
361,339,109382,2,0,B|360:313|360:313|346:299|346:299|350:285|350:285|335:275|335:275|344:257|344:257|321:243|321:243|329:222|329:222|309:208|309:208|321:183|321:183|296:135,1,225.000008583069
261,82,109751,6,0,B|248:89|248:89|240:106|240:106|221:104|221:104|220:120|220:120|214:135|214:135|198:128|198:128|192:149|192:149|178:147|178:147|174:163|174:163|162:164|162:164|162:176|162:176|145:182|145:182|140:210,1,225.000008583069
160,292,110120,1,0,0:0:0:0:
98,46,110397,1,0,0:0:0:0:
129,77,110489,6,0,B|153:80|153:80|163:96|163:96|184:93|184:93|186:108|186:108|201:109|201:109|201:132|201:132|216:142|216:142|212:163|212:163|226:172|226:172|219:192|219:192|241:197|241:197|241:237,1,225.000008583069
341,221,110858,2,0,B|317:224|317:224|307:240|307:240|286:237|286:237|284:252|284:252|269:253|269:253|269:276|269:276|254:286|254:286|258:307|258:307|244:316|244:316|251:336|251:336|229:341|229:341|229:381,1,225.000008583069
146,285,111228,2,0,B|128:283|128:283|122:272|122:272|110:274|110:274|108:261|108:261|95:264|95:264|76:256|76:256|90:232|90:232|82:221|82:221|93:209|93:209|78:195|78:195|91:187|91:187|75:175|75:175|74:159|85:151|48:139,1,225.000008583069
94,70,111597,1,0,0:0:0:0:
329,134,111874,5,0,0:0:0:0:
311,93,111966,2,0,B|279:104|279:104|274:128|274:128|252:138|252:138|254:167|254:167|226:177|226:177|231:209|231:209|216:213|204:220|176:266,1,225.000008583069
262,312,112335,2,0,B|287:334|287:334|310:326|310:326|330:340|330:340|354:324|354:324|377:343|377:343|402:323|402:323|413:334|425:341|479:342,1,225.000008583069
474,261,112705,2,0,B|456:259|456:259|450:248|450:248|438:250|438:250|436:237|436:237|423:240|423:240|404:232|404:232|418:208|418:208|410:197|410:197|421:185|421:185|406:171|406:171|419:163|419:163|403:151|403:151|402:135|413:127|376:115,1,225.000008583069
420,46,113074,1,0,0:0:0:0:
238,220,113351,5,0,0:0:0:0:
256,185,113443,2,0,B|260:166|260:166|242:162|242:162|251:150|251:150|236:141|236:141|237:124|237:124|237:102|237:102|220:114|220:114|224:94|224:94|203:91|203:91|211:75|211:75|182:70|182:70|171:23,1,225.000008583069
163,173,113812,2,0,B|188:195|188:195|211:187|211:187|231:201|231:201|255:185|255:185|278:204|278:204|303:184|303:184|314:195|326:202|380:203,1,225.000008583069
452,289,114182,2,0,B|426:311|426:311|403:303|403:303|383:317|383:317|359:301|359:301|336:320|336:320|311:300|311:300|300:311|288:318|234:319,1,225.000008583069
174,290,114551,1,0,0:0:0:0:
59,114,114828,5,0,0:0:0:0:
74,69,114920,2,0,B|105:63|105:63|120:83|120:83|151:75|151:75|166:107|166:107|202:93|202:93|224:126|224:126|295:123,1,225.000008583069
358,117,115289,2,0,B|337:130|337:130|339:150|339:150|321:157|321:157|298:172|298:172|316:172|316:172|324:182|324:182|341:185|341:185|347:203|347:203|362:209|362:209|373:212|373:212|380:224|380:224|402:245,1,225.000008583069
373,333,115658,2,0,B|350:333|350:333|328:300|328:300|292:314|292:314|277:282|277:282|246:290|246:290|231:270|231:270|200:276,1,225.000008583069
124,323,116028,1,0,0:0:0:0:
300,171,116305,5,0,0:0:0:0:
279,124,116397,2,0,B|249:121|249:121|226:137|226:137|211:130|211:130|196:145|196:145|182:139|182:139|171:152|171:152|156:147|156:147|146:167|146:167|127:153|127:153|115:175|115:175|87:177,1,225.000008583069
163,231,116766,2,0,B|160:201|160:201|176:178|176:178|169:163|169:163|184:148|184:148|178:134|178:134|191:123|191:123|186:108|186:108|206:98|206:98|192:79|192:79|214:67|214:67|216:39,1,225.000008583069
298,42,117135,6,0,B|320:50|320:50|325:71|325:71|353:75|353:75|351:95|351:95|371:111|371:111|352:133|352:133|371:148|371:148|351:162|351:162|362:182|362:182|343:195|343:195|355:217|355:217|355:284,1,300.000011444092
355,249,117874,2,0,P|227:285|299:179,1,300.000011444092
260,182,118612,6,0,P|224:109|175:235,1,300.000011444092
236,269,118889,5,0,0:0:0:0:
316,242,118982,2,0,B|346:206|346:206|396:238|396:238|511:157|380:49,1,300.000011444092
316,41,119258,1,0,0:0:0:0:
242,102,119351,2,0,P|160:132|55:102,1,150.000005722046
112,64,119535,2,0,P|137:92|107:204,1,150.000005722046
68,265,119720,6,0,P|103:280|160:279,1,75
218,222,120089,6,0,B|261:204|261:204|454:252,1,150.000005722046
477,169,120274,2,0,L|283:119,1,150.000005722046
224,121,120458,5,0,0:0:0:0:
389,344,120643,1,0,0:0:0:0:
437,45,120828,1,0,0:0:0:0:
200,276,121012,1,0,0:0:0:0:
105,78,121197,6,0,P|146:73|187:89,1,75
226,180,121566,6,0,P|294:140|344:69,1,150.000005722046
298,63,121751,2,0,P|299:183|400:245,1,150.000005722046
392,287,121935,2,0,P|328:256|234:343,1,150.000005722046
139,261,122120,2,0,P|78:218|90:149,1,150.000005722046
177,83,122305,1,0,0:0:0:0:
432,187,122489,2,0,B|386:194|355:172|355:172|428:118|428:118|553:151|486:377|208:285|226:144|342:84,1,600.000022888185
400,303,123043,6,0,L|205:334,1,150.000005722046
152,288,123228,1,0,0:0:0:0:
152,288,123412,6,0,P|191:201|143:99,1,150.000005722046
103,67,123597,1,0,0:0:0:0:
103,67,123782,6,0,L|293:122,1,150.000005722046
331,191,123966,1,0,0:0:0:0:
331,191,124151,6,0,L|174:235,1,150.000005722046
126,308,124335,1,0,0:0:0:0:
126,308,124520,6,0,B|54:236|54:236|358:155,1,300.000011444092
282,267,124797,5,0,0:0:0:0:
371,270,124889,2,0,P|417:162|261:131,1,300.000011444092
181,127,125166,1,0,0:0:0:0:
122,58,125258,2,0,P|181:49|223:123,1,150.000005722046
138,246,125443,2,0,P|130:159|211:86,1,150.000005722046
273,173,125628,6,0,L|351:205,1,75
381,307,125997,6,0,L|179:224,1,150.000005722046
51,314,126182,2,0,P|159:324|218:265,1,150.000005722046
181,138,126366,2,0,P|162:227|94:258,1,150.000005722046
106,169,126551,2,0,P|70:88|5:60,1,150.000005722046
44,130,126735,6,0,P|91:87|220:73,1,150.000005722046
261,157,126920,2,0,P|327:206|427:166,1,150.000005722046
370,53,127105,6,0,P|350:81|345:139,1,75
355,278,127474,6,0,P|311:329|210:299,1,150.000005722046
117,270,127658,2,0,P|161:219|262:249,1,150.000005722046
114,335,127843,2,0,P|58:264|117:198,1,150.000005722046
203,162,128028,2,0,P|259:91|200:25,1,150.000005722046
106,93,128212,6,0,B|167:59|244:98|244:98|274:119|274:119|347:177|484:76,1,300.000011444092
386,88,128489,2,0,P|318:182|442:324,1,300.000011444092
420,281,128766,2,0,B|389:268|389:268|210:319,1,150.000005722046
190,334,128951,5,0,0:0:0:0:
60,191,129135,5,0,0:0:0:0:
101,210,129228,1,0,0:0:0:0:
142,222,129320,1,0,0:0:0:0:
458,122,129505,5,0,0:0:0:0:
404,146,129598,1,0,0:0:0:0:
351,162,129690,1,0,0:0:0:0:
236,339,129874,5,0,0:0:0:0:
252,292,129966,1,0,0:0:0:0:
255,242,130058,1,0,0:0:0:0:
244,193,130151,1,0,0:0:0:0:
227,146,130243,1,0,0:0:0:0:
224,96,130335,1,0,0:0:0:0:
235,47,130428,6,0,P|296:39|301:284,1,350.00000333786
252,292,130705,5,0,0:0:0:0:
164,218,130797,2,0,B|140:197|111:187|111:187|67:229|67:229|-35:106|167:43|212:189,1,350.00000333786
263,174,131074,5,0,0:0:0:0:
261,79,131166,2,0,P|179:134|288:279,1,175.00000166893
252,292,131351,2,0,P|334:297|422:219,1,175.00000166893
327,129,131535,6,0,P|328:171|343:202,1,75
410,78,131905,6,0,P|342:43|229:94,1,175.00000166893
217,162,132089,2,0,P|139:197|58:171,1,175.00000166893
173,114,132274,2,0,P|280:154|244:217,1,175.00000166893
205,285,132458,2,0,P|186:172|258:172,1,175.00000166893
325,252,132643,2,0,L|521:197,1,175.00000166893
476,100,132828,2,0,L|307:147,1,175.00000166893
195,98,133012,6,0,L|183:184,1,75
100,280,133382,6,0,P|73:194|125:205,1,175.00000166893
206,261,133566,2,0,P|291:294|407:203,1,175.00000166893
435,178,133751,2,0,B|453:137|453:137|377:3,1,175.00000166893
315,77,133935,2,0,B|288:40|288:40|134:39,1,175.00000166893
68,122,134120,6,0,B|249:122|249:122|184:246|374:308,1,350.00000333786
323,196,134397,2,0,P|255:194|355:313,1,350.00000333786
286,267,134674,2,0,P|249:162|378:144,1,175.00000166893
388,57,134858,6,0,L|457:284,1,175.00000166893
410,325,135043,1,0,0:0:0:0:
410,325,135228,6,0,L|206:294,1,175.00000166893
123,335,135412,1,0,0:0:0:0:
231,139,135597,1,0,0:0:0:0:
162,227,135782,2,0,P|126:146|187:147,1,175.00000166893
162,227,135966,2,0,P|126:146|203:101,1,175.00000166893
162,227,136151,2,0,P|126:146|188:45,1,175.00000166893
278,41,136335,6,0,B|307:40|307:40|403:142|403:142|391:160|391:160|396:344,1,350.00000333786
439,246,136612,5,0,0:0:0:0:
359,198,136705,2,0,B|314:194|314:194|200:256|200:256|162:231|115:253|115:253|174:177|117:132,1,350.00000333786
86,98,136982,5,0,0:0:0:0:
165,41,137074,2,0,P|219:68|262:226,1,175.00000166893
216,132,137258,2,0,P|267:100|332:187,1,175.00000166893
380,245,137443,6,0,P|366:269|313:292,1,75
221,239,137812,6,0,P|162:214|4:269,1,175.00000166893
114,294,137997,2,0,L|144:90,1,175.00000166893
230,42,138182,2,0,L|435:119,1,175.00000166893
430,211,138366,2,0,L|266:149,1,175.00000166893
230,42,138551,2,0,L|435:119,1,175.00000166893
430,211,138735,2,0,L|266:149,1,175.00000166893
160,178,138920,6,0,P|144:212|176:258,1,75
227,304,139289,6,0,P|319:304|378:173,1,175.00000166893
456,165,139474,2,0,P|433:84|281:30,1,175.00000166893
291,108,139658,2,0,L|104:145,1,175.00000166893
181,66,139843,2,0,P|243:121|183:200,1,175.00000166893
117,273,140028,6,0,B|169:324|169:324|226:333|255:283|255:283|293:307|373:363|490:273,1,350.00000333786
420,216,140305,2,0,P|349:238|413:98,1,350.00000333786
365,160,140582,2,0,P|272:190|103:112,1,175.00000166893
99,98,140766,1,0,0:0:0:0:
256,192,140858,12,0,143720,0:0:0:0:
