osu file format v14

[General]
AudioFilename: audio.mp3
AudioLeadIn: 0
PreviewTime: 34711
Countdown: 1
SampleSet: None
StackLeniency: 0.7
Mode: 3
LetterboxInBreaks: 0
SpecialStyle: 0
WidescreenStoryboard: 1

[Editor]
DistanceSpacing: 2
BeatDivisor: 4
GridSize: 16
TimelineZoom: 2.4

[Metadata]
Title:Deublthick
TitleUnicode:Deublthick
Artist:Gekikara Mania
ArtistUnicode:Gekikara Mania
Creator:GlassyKiller
Version:Insane
Source:
Tags:
BeatmapID:1629226
BeatmapSetID:775293

[Difficulty]
HPDrainRate:5
CircleSize:4
OverallDifficulty:5
ApproachRate:5
SliderMultiplier:1.4
SliderTickRate:1

[Events]
//Background and Video events
0,0,"horror-artworkhigh-definition-original-halloween-evil-windows-scary-spooky-artistic-fear-terrfying-art-creepy-fantasy-dark.jpg",0,0
//Break Periods
//Storyboard Layer 0 (Background)
//Storyboard Layer 1 (Fail)
//Storyboard Layer 2 (Pass)
//Storyboard Layer 3 (Foreground)
//Storyboard Sound Samples

[TimingPoints]
1027,263.157894736842,4,3,1,19,1,0
34711,-100,4,3,1,19,0,1
51553,-100,4,3,1,18,0,0
60105,-100,4,3,1,19,0,0
72605,-100,4,3,1,19,0,1
124184,-100,4,3,1,5,0,0

[HitObjects]
64,192,1027,5,0,0:0:0:0:
192,192,1027,1,0,0:0:0:0:
448,192,1027,1,0,0:0:0:0:
320,192,1290,1,0,0:0:0:0:
448,192,1290,1,0,0:0:0:0:
192,192,1421,1,0,0:0:0:0:
64,192,1553,1,0,0:0:0:0:
64,192,1816,1,0,0:0:0:0:
192,192,1816,1,0,0:0:0:0:
448,192,1816,1,0,0:0:0:0:
448,192,2079,1,0,0:0:0:0:
192,192,2079,1,0,0:0:0:0:
64,192,2079,1,0,0:0:0:0:
192,192,2342,1,0,0:0:0:0:
320,192,2342,1,0,0:0:0:0:
448,192,2342,1,0,0:0:0:0:
64,192,2605,1,0,0:0:0:0:
192,192,2605,1,0,0:0:0:0:
448,192,2605,1,0,0:0:0:0:
192,192,2869,1,0,0:0:0:0:
448,192,2869,1,0,0:0:0:0:
320,192,3132,1,0,0:0:0:0:
448,192,3132,1,0,0:0:0:0:
64,192,3132,1,0,0:0:0:0:
192,192,3395,1,0,0:0:0:0:
448,192,3395,1,0,0:0:0:0:
320,192,3526,1,0,0:0:0:0:
192,192,3658,1,0,0:0:0:0:
448,192,3790,1,0,0:0:0:0:
320,192,3921,1,0,0:0:0:0:
192,192,3921,1,0,0:0:0:0:
64,192,3921,1,0,0:0:0:0:
448,192,4184,1,0,0:0:0:0:
320,192,4184,1,0,0:0:0:0:
64,192,4184,1,0,0:0:0:0:
64,192,4448,1,0,0:0:0:0:
192,192,4448,1,0,0:0:0:0:
448,192,4448,1,0,0:0:0:0:
320,192,4579,1,0,0:0:0:0:
448,192,4711,1,0,0:0:0:0:
192,192,4711,1,0,0:0:0:0:
64,192,4711,1,0,0:0:0:0:
320,192,4974,1,0,0:0:0:0:
448,192,4974,1,0,0:0:0:0:
64,192,4974,1,0,0:0:0:0:
192,192,5237,1,0,0:0:0:0:
320,192,5237,1,0,0:0:0:0:
448,192,5237,1,0,0:0:0:0:
192,192,5500,1,0,0:0:0:0:
448,192,5500,1,0,0:0:0:0:
320,192,5632,1,0,0:0:0:0:
64,192,5763,1,0,0:0:0:0:
320,192,6026,1,0,0:0:0:0:
448,192,6026,1,0,0:0:0:0:
64,192,6026,1,0,0:0:0:0:
320,192,6290,1,0,0:0:0:0:
448,192,6290,1,0,0:0:0:0:
64,192,6290,1,0,0:0:0:0:
192,192,6553,1,0,0:0:0:0:
320,192,6553,1,0,0:0:0:0:
448,192,6553,1,0,0:0:0:0:
64,192,6816,1,0,0:0:0:0:
192,192,6816,1,0,0:0:0:0:
448,192,6816,1,0,0:0:0:0:
192,192,7079,1,0,0:0:0:0:
448,192,7079,1,0,0:0:0:0:
320,192,7342,1,0,0:0:0:0:
448,192,7342,1,0,0:0:0:0:
64,192,7342,1,0,0:0:0:0:
192,192,7605,1,0,0:0:0:0:
64,192,7605,1,0,0:0:0:0:
448,192,7737,1,0,0:0:0:0:
192,192,7869,1,0,0:0:0:0:
320,192,8000,1,0,0:0:0:0:
448,192,8132,1,0,0:0:0:0:
192,192,8132,1,0,0:0:0:0:
64,192,8132,1,0,0:0:0:0:
448,192,8395,1,0,0:0:0:0:
192,192,8395,1,0,0:0:0:0:
64,192,8395,1,0,0:0:0:0:
192,192,8658,1,0,0:0:0:0:
448,192,8658,1,0,0:0:0:0:
64,192,8658,1,0,0:0:0:0:
320,192,8790,1,0,0:0:0:0:
192,192,8921,1,0,0:0:0:0:
448,192,8921,1,0,0:0:0:0:
64,192,8921,1,0,0:0:0:0:
320,192,9184,1,0,0:0:0:0:
448,192,9184,1,0,0:0:0:0:
64,192,9184,1,0,0:0:0:0:
192,192,9448,1,0,0:0:0:0:
448,192,9448,1,0,0:0:0:0:
320,192,9448,1,0,0:0:0:0:
64,192,9711,1,0,0:0:0:0:
448,192,9711,1,0,0:0:0:0:
192,192,9842,1,0,0:0:0:0:
320,192,9974,1,0,0:0:0:0:
64,192,10237,1,0,0:0:0:0:
192,192,10237,1,0,0:0:0:0:
448,192,10237,1,0,0:0:0:0:
448,192,10500,1,0,0:0:0:0:
320,192,10500,1,0,0:0:0:0:
64,192,10500,1,0,0:0:0:0:
192,192,10763,1,0,0:0:0:0:
320,192,10763,1,0,0:0:0:0:
64,192,10763,1,0,0:0:0:0:
320,192,11026,1,0,0:0:0:0:
448,192,11026,1,0,0:0:0:0:
64,192,11026,1,0,0:0:0:0:
320,192,11290,1,0,0:0:0:0:
448,192,11290,1,0,0:0:0:0:
192,192,11290,1,0,0:0:0:0:
320,192,11553,1,0,0:0:0:0:
448,192,11553,1,0,0:0:0:0:
64,192,11553,1,0,0:0:0:0:
64,192,11816,1,0,0:0:0:0:
320,192,11816,1,0,0:0:0:0:
192,192,11948,1,0,0:0:0:0:
320,192,12079,1,0,0:0:0:0:
448,192,12079,1,0,0:0:0:0:
192,192,12211,1,0,0:0:0:0:
320,192,12342,1,0,0:0:0:0:
448,192,12342,1,0,0:0:0:0:
64,192,12342,1,0,0:0:0:0:
320,192,12605,1,0,0:0:0:0:
448,192,12605,1,0,0:0:0:0:
64,192,12605,1,0,0:0:0:0:
320,192,12869,1,0,0:0:0:0:
448,192,12869,1,0,0:0:0:0:
192,192,12869,1,0,0:0:0:0:
64,192,13000,1,0,0:0:0:0:
320,192,13000,1,0,0:0:0:0:
448,192,13132,1,0,0:0:0:0:
192,192,13132,1,0,0:0:0:0:
64,192,13132,1,0,0:0:0:0:
320,192,13395,1,0,0:0:0:0:
448,192,13395,1,0,0:0:0:0:
64,192,13395,1,0,0:0:0:0:
192,192,13658,1,0,0:0:0:0:
320,192,13658,1,0,0:0:0:0:
64,192,13658,1,0,0:0:0:0:
320,192,13921,1,0,0:0:0:0:
448,192,13921,1,0,0:0:0:0:
192,192,14053,1,0,0:0:0:0:
320,192,14184,1,0,0:0:0:0:
64,192,14448,1,0,0:0:0:0:
192,192,14448,1,0,0:0:0:0:
448,192,14448,1,0,0:0:0:0:
448,192,14711,1,0,0:0:0:0:
192,192,14711,1,0,0:0:0:0:
64,192,14711,1,0,0:0:0:0:
192,192,14974,1,0,0:0:0:0:
320,192,14974,1,0,0:0:0:0:
448,192,14974,1,0,0:0:0:0:
448,192,15237,1,0,0:0:0:0:
320,192,15237,1,0,0:0:0:0:
64,192,15237,1,0,0:0:0:0:
320,192,15500,1,0,0:0:0:0:
192,192,15500,1,0,0:0:0:0:
64,192,15500,1,0,0:0:0:0:
192,192,15763,1,0,0:0:0:0:
64,192,15763,1,0,0:0:0:0:
448,192,15763,1,0,0:0:0:0:
64,192,16026,1,0,0:0:0:0:
448,192,16026,1,0,0:0:0:0:
192,192,16158,1,0,0:0:0:0:
320,192,16290,1,0,0:0:0:0:
448,192,16290,1,0,0:0:0:0:
192,192,16421,1,0,0:0:0:0:
320,192,16553,1,0,0:0:0:0:
448,192,16553,1,0,0:0:0:0:
64,192,16553,1,0,0:0:0:0:
320,192,16816,1,0,0:0:0:0:
448,192,16816,1,0,0:0:0:0:
64,192,16816,1,0,0:0:0:0:
448,192,17079,1,0,0:0:0:0:
192,192,17079,1,0,0:0:0:0:
64,192,17079,1,0,0:0:0:0:
320,192,17211,1,0,0:0:0:0:
448,192,17211,1,0,0:0:0:0:
448,192,17342,1,0,0:0:0:0:
320,192,17342,1,0,0:0:0:0:
64,192,17342,1,0,0:0:0:0:
320,192,17605,1,0,0:0:0:0:
448,192,17605,1,0,0:0:0:0:
192,192,17605,1,0,0:0:0:0:
192,192,17869,1,0,0:0:0:0:
64,192,17869,1,0,0:0:0:0:
448,192,17869,1,0,0:0:0:0:
192,192,18132,1,0,0:0:0:0:
320,192,18132,1,0,0:0:0:0:
64,192,18263,1,0,0:0:0:0:
320,192,18263,1,0,0:0:0:0:
448,192,18395,1,0,0:0:0:0:
192,192,18395,1,0,0:0:0:0:
320,192,18658,1,0,0:0:0:0:
448,192,18658,1,0,0:0:0:0:
64,192,18658,1,0,0:0:0:0:
192,192,18921,1,0,0:0:0:0:
64,192,18921,1,0,0:0:0:0:
448,192,18921,1,0,0:0:0:0:
320,192,19184,1,0,0:0:0:0:
448,192,19184,1,0,0:0:0:0:
192,192,19184,1,0,0:0:0:0:
64,192,19448,1,0,0:0:0:0:
192,192,19448,1,0,0:0:0:0:
448,192,19448,1,0,0:0:0:0:
320,192,19711,1,0,0:0:0:0:
448,192,19711,1,0,0:0:0:0:
192,192,19711,1,0,0:0:0:0:
64,192,19974,1,0,0:0:0:0:
192,192,19974,1,0,0:0:0:0:
320,192,19974,1,0,0:0:0:0:
320,192,20237,1,0,0:0:0:0:
448,192,20237,1,0,0:0:0:0:
320,192,20369,1,0,0:0:0:0:
64,192,20369,1,0,0:0:0:0:
192,192,20500,1,0,0:0:0:0:
448,192,20500,1,0,0:0:0:0:
320,192,20632,1,0,0:0:0:0:
448,192,20632,1,0,0:0:0:0:
64,192,20763,1,0,0:0:0:0:
448,192,20763,1,0,0:0:0:0:
192,192,20763,1,0,0:0:0:0:
320,192,21026,1,0,0:0:0:0:
448,192,21026,1,0,0:0:0:0:
64,192,21026,1,0,0:0:0:0:
320,192,21290,1,0,0:0:0:0:
448,192,21421,1,0,0:0:0:0:
192,192,21421,1,0,0:0:0:0:
64,192,21553,1,0,0:0:0:0:
320,192,21816,1,0,0:0:0:0:
448,192,21816,1,0,0:0:0:0:
64,192,21816,1,0,0:0:0:0:
192,192,21948,1,0,0:0:0:0:
448,192,21948,1,0,0:0:0:0:
320,192,22079,1,0,0:0:0:0:
448,192,22079,1,0,0:0:0:0:
64,192,22079,1,0,0:0:0:0:
192,192,22342,1,0,0:0:0:0:
320,192,22342,1,0,0:0:0:0:
448,192,22474,1,0,0:0:0:0:
192,192,22474,1,0,0:0:0:0:
64,192,22605,1,0,0:0:0:0:
320,192,22605,1,0,0:0:0:0:
320,192,22869,1,0,0:0:0:0:
448,192,22869,1,0,0:0:0:0:
64,192,22869,1,0,0:0:0:0:
192,192,23132,1,0,0:0:0:0:
320,192,23132,1,0,0:0:0:0:
64,192,23132,1,0,0:0:0:0:
320,192,23395,1,0,0:0:0:0:
448,192,23395,1,0,0:0:0:0:
192,192,23395,1,0,0:0:0:0:
192,192,23658,1,0,0:0:0:0:
448,192,23658,1,0,0:0:0:0:
64,192,23658,1,0,0:0:0:0:
320,192,23921,1,0,0:0:0:0:
448,192,23921,1,0,0:0:0:0:
192,192,23921,1,0,0:0:0:0:
64,192,24184,1,0,0:0:0:0:
192,192,24184,1,0,0:0:0:0:
448,192,24184,1,0,0:0:0:0:
192,192,24448,1,0,0:0:0:0:
320,192,24448,1,0,0:0:0:0:
64,192,24579,1,0,0:0:0:0:
192,192,24579,1,0,0:0:0:0:
192,192,24711,1,0,0:0:0:0:
448,192,24711,1,0,0:0:0:0:
64,192,24842,1,0,0:0:0:0:
192,192,24842,1,0,0:0:0:0:
320,192,24974,1,0,0:0:0:0:
448,192,24974,1,0,0:0:0:0:
64,192,24974,1,0,0:0:0:0:
320,192,25237,1,0,0:0:0:0:
448,192,25237,1,0,0:0:0:0:
192,192,25237,1,0,0:0:0:0:
64,192,25500,1,0,0:0:0:0:
192,192,25500,1,0,0:0:0:0:
320,192,25632,1,0,0:0:0:0:
448,192,25632,1,0,0:0:0:0:
192,192,25763,1,0,0:0:0:0:
64,192,25763,1,0,0:0:0:0:
320,192,26026,1,0,0:0:0:0:
448,192,26026,1,0,0:0:0:0:
64,192,26026,1,0,0:0:0:0:
192,192,26290,1,0,0:0:0:0:
320,192,26290,1,0,0:0:0:0:
64,192,26290,1,0,0:0:0:0:
192,192,26553,1,0,0:0:0:0:
320,192,26553,1,0,0:0:0:0:
64,192,26684,1,0,0:0:0:0:
320,192,26684,1,0,0:0:0:0:
192,192,26816,1,0,0:0:0:0:
448,192,26816,1,0,0:0:0:0:
320,192,27079,1,0,0:0:0:0:
448,192,27079,1,0,0:0:0:0:
64,192,27079,1,0,0:0:0:0:
192,192,27342,1,0,0:0:0:0:
320,192,27342,1,0,0:0:0:0:
64,192,27342,1,0,0:0:0:0:
320,192,27605,1,0,0:0:0:0:
448,192,27605,1,0,0:0:0:0:
64,192,27605,1,0,0:0:0:0:
320,192,27869,1,0,0:0:0:0:
192,192,27869,1,0,0:0:0:0:
64,192,27869,1,0,0:0:0:0:
320,192,28132,1,0,0:0:0:0:
448,192,28132,1,0,0:0:0:0:
64,192,28132,1,0,0:0:0:0:
320,192,28395,1,0,0:0:0:0:
448,192,28395,1,0,0:0:0:0:
64,192,28395,1,0,0:0:0:0:
192,192,28658,1,0,0:0:0:0:
448,192,28658,1,0,0:0:0:0:
320,192,28790,1,0,0:0:0:0:
448,192,28790,1,0,0:0:0:0:
64,192,28921,1,0,0:0:0:0:
192,192,28921,1,0,0:0:0:0:
448,192,28921,1,0,0:0:0:0:
192,192,29053,1,0,0:0:0:0:
320,192,29053,1,0,0:0:0:0:
448,192,29184,1,0,0:0:0:0:
320,192,29184,1,0,0:0:0:0:
64,192,29184,1,0,0:0:0:0:
64,192,29448,1,0,0:0:0:0:
192,192,29448,1,0,0:0:0:0:
448,192,29448,1,0,0:0:0:0:
448,192,29711,1,0,0:0:0:0:
320,192,29711,1,0,0:0:0:0:
64,192,29711,1,0,0:0:0:0:
192,192,29842,1,0,0:0:0:0:
320,192,29842,1,0,0:0:0:0:
320,192,29974,1,0,0:0:0:0:
448,192,29974,1,0,0:0:0:0:
192,192,29974,1,0,0:0:0:0:
64,192,30237,1,0,0:0:0:0:
192,192,30237,1,0,0:0:0:0:
448,192,30237,1,0,0:0:0:0:
320,192,30369,1,0,0:0:0:0:
448,192,30500,1,0,0:0:0:0:
192,192,30500,1,0,0:0:0:0:
64,192,30500,1,0,0:0:0:0:
192,192,30763,1,0,0:0:0:0:
320,192,30763,1,0,0:0:0:0:
320,192,30895,1,0,0:0:0:0:
448,192,30895,1,0,0:0:0:0:
192,192,31026,1,0,0:0:0:0:
64,192,31026,1,0,0:0:0:0:
320,192,31290,1,0,0:0:0:0:
448,192,31290,1,0,0:0:0:0:
64,192,31290,1,0,0:0:0:0:
192,192,31421,1,0,0:0:0:0:
320,192,31553,1,0,0:0:0:0:
448,192,31553,1,0,0:0:0:0:
64,192,31553,1,0,0:0:0:0:
448,192,31816,1,0,0:0:0:0:
192,192,31816,1,0,0:0:0:0:
64,192,31816,1,0,0:0:0:0:
320,192,31948,1,0,0:0:0:0:
448,192,32079,1,0,0:0:0:0:
192,192,32079,1,0,0:0:0:0:
64,192,32079,1,0,0:0:0:0:
448,192,32342,1,0,0:0:0:0:
320,192,32342,1,0,0:0:0:0:
64,192,32342,1,0,0:0:0:0:
320,192,32605,1,0,0:0:0:0:
448,192,32605,1,0,0:0:0:0:
192,192,32605,1,0,0:0:0:0:
192,192,32869,1,0,0:0:0:0:
448,192,32869,1,0,0:0:0:0:
320,192,33000,1,0,0:0:0:0:
64,192,33000,1,0,0:0:0:0:
64,192,33132,1,0,0:0:0:0:
320,192,33132,1,0,0:0:0:0:
448,192,33132,1,0,0:0:0:0:
192,192,33263,1,0,0:0:0:0:
448,192,33263,1,0,0:0:0:0:
192,192,33395,1,0,0:0:0:0:
64,192,33395,1,0,0:0:0:0:
448,192,33395,1,0,0:0:0:0:
448,192,33658,1,0,0:0:0:0:
320,192,33658,1,0,0:0:0:0:
64,192,33658,1,0,0:0:0:0:
448,192,33790,1,0,0:0:0:0:
320,192,33855,1,0,0:0:0:0:
192,192,33921,1,0,0:0:0:0:
64,192,33921,1,0,0:0:0:0:
192,192,34053,1,0,0:0:0:0:
448,192,34053,1,0,0:0:0:0:
320,192,34184,1,0,0:0:0:0:
448,192,34184,1,0,0:0:0:0:
192,192,34316,1,0,0:0:0:0:
320,192,34316,1,0,0:0:0:0:
448,192,34448,1,0,0:0:0:0:
64,192,34448,1,0,0:0:0:0:
192,192,34579,1,0,0:0:0:0:
448,192,34579,1,0,0:0:0:0:
448,192,34711,1,0,0:0:0:0:
320,192,34711,1,0,0:0:0:0:
64,192,34711,1,0,0:0:0:0:
192,192,34711,1,0,0:0:0:0:
192,192,34842,1,0,0:0:0:0:
320,192,34842,1,0,0:0:0:0:
320,192,34974,1,0,0:0:0:0:
448,192,34974,1,0,0:0:0:0:
64,192,34974,1,0,0:0:0:0:
320,192,35237,1,0,0:0:0:0:
448,192,35237,1,0,0:0:0:0:
192,192,35237,1,0,0:0:0:0:
64,192,35500,1,0,0:0:0:0:
192,192,35500,1,0,0:0:0:0:
448,192,35500,1,0,0:0:0:0:
320,192,35632,1,0,0:0:0:0:
448,192,35763,1,0,0:0:0:0:
192,192,35763,1,0,0:0:0:0:
64,192,35763,1,0,0:0:0:0:
192,192,35895,1,0,0:0:0:0:
448,192,35895,1,0,0:0:0:0:
320,192,36026,1,0,0:0:0:0:
192,192,36026,1,0,0:0:0:0:
64,192,36026,1,0,0:0:0:0:
192,192,36158,1,0,0:0:0:0:
448,192,36158,1,0,0:0:0:0:
320,192,36290,1,0,0:0:0:0:
448,192,36290,1,0,0:0:0:0:
64,192,36290,1,0,0:0:0:0:
192,192,36421,1,0,0:0:0:0:
448,192,36421,1,0,0:0:0:0:
320,192,36553,1,0,0:0:0:0:
192,192,36553,1,0,0:0:0:0:
64,192,36553,1,0,0:0:0:0:
192,192,36684,1,0,0:0:0:0:
448,192,36684,1,0,0:0:0:0:
320,192,36816,1,0,0:0:0:0:
448,192,36816,1,0,0:0:0:0:
64,192,36816,1,0,0:0:0:0:
192,192,36948,1,0,0:0:0:0:
320,192,37079,1,0,0:0:0:0:
448,192,37079,1,0,0:0:0:0:
64,192,37079,1,0,0:0:0:0:
192,192,37211,1,0,0:0:0:0:
320,192,37342,1,0,0:0:0:0:
448,192,37342,1,0,0:0:0:0:
64,192,37342,1,0,0:0:0:0:
448,192,37605,1,0,0:0:0:0:
192,192,37605,1,0,0:0:0:0:
64,192,37605,1,0,0:0:0:0:
192,192,37737,1,0,0:0:0:0:
320,192,37737,1,0,0:0:0:0:
448,192,37869,1,0,0:0:0:0:
320,192,37869,1,0,0:0:0:0:
64,192,37869,1,0,0:0:0:0:
192,192,38132,1,0,0:0:0:0:
64,192,38132,1,0,0:0:0:0:
448,192,38132,1,0,0:0:0:0:
320,192,38395,1,4,0:0:0:0:
448,192,38395,1,4,0:0:0:0:
64,192,38395,1,4,0:0:0:0:
192,192,38395,1,4,0:0:0:0:
64,192,38658,1,4,0:0:0:0:
192,192,38658,1,4,0:0:0:0:
320,192,38658,1,4,0:0:0:0:
448,192,38658,1,4,0:0:0:0:
192,192,38921,1,0,0:0:0:0:
64,192,38921,1,0,0:0:0:0:
448,192,38921,1,0,0:0:0:0:
192,192,39053,1,0,0:0:0:0:
320,192,39053,1,0,0:0:0:0:
320,192,39184,1,0,0:0:0:0:
448,192,39184,1,0,0:0:0:0:
64,192,39184,1,0,0:0:0:0:
192,192,39448,1,0,0:0:0:0:
320,192,39448,1,0,0:0:0:0:
448,192,39448,1,0,0:0:0:0:
64,192,39711,1,0,0:0:0:0:
192,192,39711,1,0,0:0:0:0:
448,192,39711,1,0,0:0:0:0:
320,192,39842,1,0,0:0:0:0:
448,192,39974,1,0,0:0:0:0:
192,192,39974,1,0,0:0:0:0:
64,192,39974,1,0,0:0:0:0:
64,192,40105,1,0,0:0:0:0:
320,192,40105,1,0,0:0:0:0:
192,192,40237,1,0,0:0:0:0:
320,192,40237,1,0,0:0:0:0:
448,192,40237,1,0,0:0:0:0:
320,192,40369,1,0,0:0:0:0:
64,192,40369,1,0,0:0:0:0:
192,192,40500,1,0,0:0:0:0:
64,192,40500,1,0,0:0:0:0:
448,192,40500,1,0,0:0:0:0:
192,192,40632,1,0,0:0:0:0:
448,192,40632,1,0,0:0:0:0:
320,192,40763,1,0,0:0:0:0:
448,192,40763,1,0,0:0:0:0:
64,192,40763,1,0,0:0:0:0:
192,192,40895,1,0,0:0:0:0:
320,192,40895,1,0,0:0:0:0:
320,192,41026,1,0,0:0:0:0:
448,192,41026,1,0,0:0:0:0:
64,192,41026,1,0,0:0:0:0:
192,192,41158,1,0,0:0:0:0:
320,192,41290,1,0,0:0:0:0:
448,192,41290,1,0,0:0:0:0:
64,192,41290,1,0,0:0:0:0:
192,192,41421,1,0,0:0:0:0:
320,192,41553,1,0,0:0:0:0:
448,192,41553,1,0,0:0:0:0:
64,192,41553,1,0,0:0:0:0:
192,192,41816,1,0,0:0:0:0:
64,192,41816,1,0,0:0:0:0:
448,192,41816,1,0,0:0:0:0:
192,192,41948,1,0,0:0:0:0:
320,192,41948,1,0,0:0:0:0:
320,192,42079,1,0,0:0:0:0:
448,192,42079,1,0,0:0:0:0:
64,192,42079,1,0,0:0:0:0:
320,192,42342,1,0,0:0:0:0:
448,192,42342,1,0,0:0:0:0:
64,192,42342,1,0,0:0:0:0:
64,192,42605,1,4,0:0:0:0:
192,192,42605,1,4,0:0:0:0:
320,192,42605,1,4,0:0:0:0:
448,192,42605,1,4,0:0:0:0:
448,192,42869,1,4,0:0:0:0:
320,192,42869,1,4,0:0:0:0:
192,192,42869,1,4,0:0:0:0:
64,192,42869,1,4,0:0:0:0:
320,192,43132,1,0,0:0:0:0:
448,192,43132,1,0,0:0:0:0:
64,192,43132,1,0,0:0:0:0:
192,192,43263,1,0,0:0:0:0:
320,192,43263,1,0,0:0:0:0:
320,192,43395,1,0,0:0:0:0:
448,192,43395,1,0,0:0:0:0:
192,192,43395,1,0,0:0:0:0:
64,192,43658,1,0,0:0:0:0:
192,192,43658,1,0,0:0:0:0:
448,192,43658,1,0,0:0:0:0:
320,192,43921,1,0,0:0:0:0:
448,192,43921,1,0,0:0:0:0:
64,192,43921,1,0,0:0:0:0:
192,192,44053,1,0,0:0:0:0:
320,192,44184,1,0,0:0:0:0:
448,192,44184,1,0,0:0:0:0:
64,192,44184,1,0,0:0:0:0:
192,192,44316,1,0,0:0:0:0:
320,192,44316,1,0,0:0:0:0:
448,192,44448,1,0,0:0:0:0:
64,192,44448,1,0,0:0:0:0:
192,192,44448,1,0,0:0:0:0:
192,192,44579,1,0,0:0:0:0:
448,192,44579,1,0,0:0:0:0:
320,192,44711,1,0,0:0:0:0:
192,192,44711,1,0,0:0:0:0:
64,192,44711,1,0,0:0:0:0:
192,192,44842,1,0,0:0:0:0:
448,192,44842,1,0,0:0:0:0:
320,192,44974,1,0,0:0:0:0:
448,192,44974,1,0,0:0:0:0:
64,192,44974,1,0,0:0:0:0:
192,192,45105,1,0,0:0:0:0:
320,192,45105,1,0,0:0:0:0:
320,192,45237,1,0,0:0:0:0:
448,192,45237,1,0,0:0:0:0:
64,192,45237,1,0,0:0:0:0:
192,192,45369,1,0,0:0:0:0:
320,192,45500,1,0,0:0:0:0:
448,192,45500,1,0,0:0:0:0:
64,192,45500,1,0,0:0:0:0:
192,192,45632,1,0,0:0:0:0:
320,192,45763,1,0,0:0:0:0:
448,192,45763,1,0,0:0:0:0:
64,192,45763,1,0,0:0:0:0:
320,192,46026,1,0,0:0:0:0:
448,192,46026,1,0,0:0:0:0:
192,192,46026,1,0,0:0:0:0:
64,192,46158,1,0,0:0:0:0:
320,192,46158,1,0,0:0:0:0:
192,192,46290,1,0,0:0:0:0:
448,192,46290,1,0,0:0:0:0:
64,192,46290,1,0,0:0:0:0:
320,192,46553,1,0,0:0:0:0:
448,192,46553,1,0,0:0:0:0:
64,192,46553,1,0,0:0:0:0:
64,192,46816,1,4,0:0:0:0:
192,192,46816,1,4,0:0:0:0:
320,192,46816,1,4,0:0:0:0:
448,192,46816,1,4,0:0:0:0:
448,192,47079,1,4,0:0:0:0:
320,192,47079,1,4,0:0:0:0:
192,192,47079,1,4,0:0:0:0:
64,192,47079,1,4,0:0:0:0:
64,192,47342,1,0,0:0:0:0:
192,192,47342,1,0,0:0:0:0:
448,192,47342,1,0,0:0:0:0:
320,192,47474,1,0,0:0:0:0:
448,192,47474,1,0,0:0:0:0:
192,192,47605,1,0,0:0:0:0:
64,192,47605,1,0,0:0:0:0:
448,192,47605,1,0,0:0:0:0:
320,192,47869,1,0,0:0:0:0:
448,192,47869,1,0,0:0:0:0:
64,192,47869,1,0,0:0:0:0:
320,192,48132,1,0,0:0:0:0:
192,192,48132,1,0,0:0:0:0:
64,192,48132,1,0,0:0:0:0:
192,192,48263,1,0,0:0:0:0:
320,192,48395,1,0,0:0:0:0:
64,192,48395,1,0,0:0:0:0:
448,192,48395,1,0,0:0:0:0:
192,192,48526,1,0,0:0:0:0:
320,192,48526,1,0,0:0:0:0:
320,192,48658,1,0,0:0:0:0:
448,192,48658,1,0,0:0:0:0:
64,192,48658,1,0,0:0:0:0:
192,192,48790,1,0,0:0:0:0:
448,192,48790,1,0,0:0:0:0:
448,192,48921,1,0,0:0:0:0:
320,192,48921,1,0,0:0:0:0:
192,192,48921,1,0,0:0:0:0:
64,192,49053,1,0,0:0:0:0:
320,192,49053,1,0,0:0:0:0:
192,192,49184,1,0,0:0:0:0:
448,192,49184,1,0,0:0:0:0:
64,192,49184,1,0,0:0:0:0:
192,192,49316,1,0,0:0:0:0:
320,192,49316,1,0,0:0:0:0:
320,192,49448,1,0,0:0:0:0:
448,192,49448,1,0,0:0:0:0:
64,192,49448,1,0,0:0:0:0:
192,192,49579,1,0,0:0:0:0:
320,192,49711,1,0,0:0:0:0:
448,192,49711,1,0,0:0:0:0:
64,192,49711,1,0,0:0:0:0:
192,192,49842,1,0,0:0:0:0:
320,192,49974,1,0,0:0:0:0:
448,192,49974,1,0,0:0:0:0:
64,192,49974,1,0,0:0:0:0:
64,192,50237,1,0,0:0:0:0:
192,192,50237,1,0,0:0:0:0:
448,192,50237,1,0,0:0:0:0:
320,192,50369,1,0,0:0:0:0:
192,192,50369,1,0,0:0:0:0:
320,192,50500,1,0,0:0:0:0:
448,192,50500,1,0,0:0:0:0:
64,192,50500,1,0,0:0:0:0:
64,192,50763,1,0,0:0:0:0:
192,192,50763,1,0,0:0:0:0:
448,192,50763,1,0,0:0:0:0:
320,192,51026,1,4,0:0:0:0:
448,192,51026,1,4,0:0:0:0:
64,192,51026,1,4,0:0:0:0:
192,192,51026,1,4,0:0:0:0:
192,192,51290,1,4,0:0:0:0:
320,192,51290,1,4,0:0:0:0:
448,192,51290,1,4,0:0:0:0:
64,192,51290,1,4,0:0:0:0:
64,192,51553,1,0,0:0:0:0:
192,192,51553,1,0,0:0:0:0:
448,192,51553,1,0,0:0:0:0:
320,192,51553,128,0,52079:0:0:0:0:
192,192,52079,128,0,52342:0:0:0:0:
448,192,52079,1,0,0:0:0:0:
448,192,52342,128,0,52605:0:0:0:0:
64,192,52342,1,0,0:0:0:0:
320,192,52342,1,0,0:0:0:0:
64,192,52605,128,0,52869:0:0:0:0:
192,192,52605,1,0,0:0:0:0:
320,192,52605,1,0,0:0:0:0:
192,192,52869,128,0,53132:0:0:0:0:
448,192,52869,1,0,0:0:0:0:
448,192,53132,128,0,54711:0:0:0:0:
320,192,53132,1,0,0:0:0:0:
64,192,53132,1,0,0:0:0:0:
64,192,53658,1,0,0:0:0:0:
192,192,53658,1,0,0:0:0:0:
320,192,53658,1,0,0:0:0:0:
192,192,54097,1,0,0:0:0:0:
64,192,54097,1,0,0:0:0:0:
320,192,54097,1,0,0:0:0:0:
64,192,54448,1,0,0:0:0:0:
192,192,54448,1,0,0:0:0:0:
320,192,54448,1,0,0:0:0:0:
320,192,54711,1,0,0:0:0:0:
64,192,54711,1,0,0:0:0:0:
192,192,54711,128,0,54974:0:0:0:0:
448,192,54974,128,0,55237:0:0:0:0:
320,192,54974,1,0,0:0:0:0:
64,192,55237,128,0,55763:0:0:0:0:
192,192,55237,1,0,0:0:0:0:
320,192,55237,1,0,0:0:0:0:
192,192,55763,128,0,56290:0:0:0:0:
320,192,55763,1,0,0:0:0:0:
448,192,55763,1,0,0:0:0:0:
448,192,56290,128,0,56553:0:0:0:0:
320,192,56290,1,0,0:0:0:0:
64,192,56290,1,0,0:0:0:0:
64,192,56553,128,0,56816:0:0:0:0:
192,192,56553,1,0,0:0:0:0:
320,192,56553,1,0,0:0:0:0:
192,192,56816,128,0,57079:0:0:0:0:
320,192,56816,1,0,0:0:0:0:
448,192,56816,1,0,0:0:0:0:
320,192,57079,128,0,57342:0:0:0:0:
64,192,57079,1,0,0:0:0:0:
64,192,57342,128,0,57869:0:0:0:0:
192,192,57342,1,0,0:0:0:0:
448,192,57342,1,0,0:0:0:0:
192,192,57869,128,0,58132:0:0:0:0:
320,192,57869,1,0,0:0:0:0:
448,192,57869,1,0,0:0:0:0:
320,192,58132,128,0,58395:0:0:0:0:
448,192,58132,1,0,0:0:0:0:
64,192,58132,1,0,0:0:0:0:
448,192,58395,128,0,58658:0:0:0:0:
192,192,58395,1,0,0:0:0:0:
64,192,58395,1,0,0:0:0:0:
320,192,58658,128,0,58921:0:0:0:0:
192,192,58658,1,0,0:0:0:0:
64,192,58658,1,0,0:0:0:0:
192,192,58921,128,0,59184:0:0:0:0:
448,192,58921,1,0,0:0:0:0:
64,192,58921,1,0,0:0:0:0:
64,192,59184,128,0,59448:0:0:0:0:
320,192,59184,1,0,0:0:0:0:
320,192,59448,128,0,59711:0:0:0:0:
448,192,59448,1,0,0:0:0:0:
192,192,59711,128,0,59974:0:0:0:0:
448,192,59711,1,0,0:0:0:0:
64,192,59711,1,0,0:0:0:0:
448,192,59974,128,0,60237:0:0:0:0:
320,192,59974,1,0,0:0:0:0:
64,192,59974,1,0,0:0:0:0:
64,192,60237,128,0,60500:0:0:0:0:
192,192,60237,1,0,0:0:0:0:
320,192,60237,1,0,0:0:0:0:
192,192,60500,128,0,60763:0:0:0:0:
320,192,60500,1,0,0:0:0:0:
448,192,60500,1,0,0:0:0:0:
320,192,60763,128,0,61026:0:0:0:0:
448,192,60763,1,0,0:0:0:0:
64,192,60763,1,0,0:0:0:0:
192,192,61026,1,0,0:0:0:0:
64,192,61026,1,0,0:0:0:0:
448,192,61026,128,0,61158:0:0:0:0:
320,192,61158,128,0,61290:0:0:0:0:
192,192,61158,1,0,0:0:0:0:
64,192,61290,128,0,61553:0:0:0:0:
448,192,61290,1,0,0:0:0:0:
192,192,61290,1,0,0:0:0:0:
320,192,61553,128,0,61816:0:0:0:0:
448,192,61553,1,0,0:0:0:0:
192,192,61553,1,0,0:0:0:0:
192,192,61816,128,0,62079:0:0:0:0:
64,192,61816,1,0,0:0:0:0:
448,192,61816,1,0,0:0:0:0:
64,192,62079,128,0,62342:0:0:0:0:
320,192,62079,1,0,0:0:0:0:
448,192,62079,1,0,0:0:0:0:
448,192,62342,128,0,62605:0:0:0:0:
192,192,62342,1,0,0:0:0:0:
320,192,62342,1,0,0:0:0:0:
192,192,62605,128,0,62869:0:0:0:0:
320,192,62605,1,0,0:0:0:0:
64,192,62605,1,0,0:0:0:0:
320,192,62869,128,0,63132:0:0:0:0:
448,192,62869,1,0,0:0:0:0:
64,192,62869,1,0,0:0:0:0:
64,192,63132,128,0,63263:0:0:0:0:
448,192,63132,1,0,0:0:0:0:
192,192,63132,1,0,0:0:0:0:
192,192,63263,128,0,63395:0:0:0:0:
320,192,63263,1,0,0:0:0:0:
320,192,63395,128,0,63658:0:0:0:0:
448,192,63395,1,0,0:0:0:0:
64,192,63395,1,0,0:0:0:0:
448,192,63658,128,0,63921:0:0:0:0:
192,192,63658,1,0,0:0:0:0:
64,192,63658,1,0,0:0:0:0:
192,192,63921,128,0,64184:0:0:0:0:
320,192,63921,1,0,0:0:0:0:
64,192,64184,1,0,0:0:0:0:
448,192,64184,1,0,0:0:0:0:
320,192,64448,1,0,0:0:0:0:
448,192,64448,1,0,0:0:0:0:
64,192,64448,1,0,0:0:0:0:
192,192,64711,1,0,0:0:0:0:
320,192,64711,1,0,0:0:0:0:
448,192,64974,1,0,0:0:0:0:
320,192,64974,1,0,0:0:0:0:
64,192,64974,1,0,0:0:0:0:
192,192,65237,1,0,0:0:0:0:
64,192,65237,1,0,0:0:0:0:
448,192,65237,1,0,0:0:0:0:
320,192,65500,1,0,0:0:0:0:
448,192,65500,1,0,0:0:0:0:
192,192,65500,1,0,0:0:0:0:
64,192,65763,1,0,0:0:0:0:
192,192,65763,1,0,0:0:0:0:
448,192,65763,1,0,0:0:0:0:
320,192,66026,1,0,0:0:0:0:
448,192,66026,1,0,0:0:0:0:
192,192,66026,1,0,0:0:0:0:
64,192,66290,1,0,0:0:0:0:
192,192,66290,1,0,0:0:0:0:
192,192,66421,1,0,0:0:0:0:
64,192,66421,1,0,0:0:0:0:
320,192,66553,1,0,0:0:0:0:
448,192,66553,1,0,0:0:0:0:
320,192,66684,1,0,0:0:0:0:
448,192,66684,1,0,0:0:0:0:
64,192,66816,1,0,0:0:0:0:
320,192,66882,1,0,0:0:0:0:
192,192,66948,1,0,0:0:0:0:
448,192,67013,1,0,0:0:0:0:
64,192,67079,1,0,0:0:0:0:
320,192,67145,1,0,0:0:0:0:
192,192,67211,1,0,0:0:0:0:
320,192,67276,1,0,0:0:0:0:
192,192,67342,1,0,0:0:0:0:
320,192,67408,1,0,0:0:0:0:
192,192,67474,1,0,0:0:0:0:
320,192,67540,1,0,0:0:0:0:
192,192,67605,1,0,0:0:0:0:
64,192,67605,1,0,0:0:0:0:
448,192,67737,1,0,0:0:0:0:
192,192,67869,1,0,0:0:0:0:
320,192,67869,1,0,0:0:0:0:
448,192,68000,1,0,0:0:0:0:
64,192,68132,1,0,0:0:0:0:
320,192,68132,1,0,0:0:0:0:
320,192,68395,1,0,0:0:0:0:
448,192,68395,1,0,0:0:0:0:
64,192,68395,1,0,0:0:0:0:
192,192,68461,1,0,0:0:0:0:
320,192,68526,1,0,0:0:0:0:
64,192,68658,1,0,0:0:0:0:
192,192,68658,1,0,0:0:0:0:
320,192,68921,1,0,0:0:0:0:
448,192,68921,1,0,0:0:0:0:
64,192,68921,1,0,0:0:0:0:
192,192,69053,1,0,0:0:0:0:
320,192,69184,1,0,0:0:0:0:
448,192,69184,1,0,0:0:0:0:
64,192,69448,1,0,0:0:0:0:
448,192,69448,1,0,0:0:0:0:
320,192,69513,1,0,0:0:0:0:
192,192,69579,1,0,0:0:0:0:
64,192,69645,1,0,0:0:0:0:
192,192,69711,1,0,0:0:0:0:
448,192,69711,1,0,0:0:0:0:
320,192,69842,1,0,0:0:0:0:
448,192,69974,1,0,0:0:0:0:
192,192,69974,1,0,0:0:0:0:
64,192,69974,1,0,0:0:0:0:
320,192,70105,1,0,0:0:0:0:
448,192,70237,1,0,0:0:0:0:
192,192,70237,1,0,0:0:0:0:
64,192,70237,1,0,0:0:0:0:
320,192,70369,1,0,0:0:0:0:
448,192,70500,1,0,0:0:0:0:
192,192,70500,1,0,0:0:0:0:
64,192,70500,1,0,0:0:0:0:
320,192,70632,1,0,0:0:0:0:
448,192,70763,1,0,0:0:0:0:
192,192,70763,1,0,0:0:0:0:
64,192,70763,1,0,0:0:0:0:
320,192,70895,5,0,0:0:0:0:
192,192,70961,1,0,0:0:0:0:
64,192,71026,1,0,0:0:0:0:
320,192,71026,1,0,0:0:0:0:
448,192,71026,1,0,0:0:0:0:
192,192,71158,1,0,0:0:0:0:
320,192,71158,1,0,0:0:0:0:
64,192,71290,1,0,0:0:0:0:
192,192,71290,1,0,0:0:0:0:
448,192,71290,1,0,0:0:0:0:
192,192,71421,1,0,0:0:0:0:
320,192,71421,1,0,0:0:0:0:
192,192,71553,1,0,0:0:0:0:
320,192,71553,1,0,0:0:0:0:
448,192,71553,1,0,0:0:0:0:
192,192,71684,1,0,0:0:0:0:
320,192,71684,1,0,0:0:0:0:
448,192,71684,1,0,0:0:0:0:
64,192,71816,1,0,0:0:0:0:
192,192,71816,1,0,0:0:0:0:
320,192,71816,1,0,0:0:0:0:
320,192,71948,1,0,0:0:0:0:
64,192,71948,1,0,0:0:0:0:
192,192,71948,1,0,0:0:0:0:
448,192,72079,5,0,0:0:0:0:
64,192,72079,1,0,0:0:0:0:
192,192,72145,1,0,0:0:0:0:
320,192,72145,1,0,0:0:0:0:
448,192,72211,1,0,0:0:0:0:
64,192,72211,1,0,0:0:0:0:
192,192,72276,1,0,0:0:0:0:
320,192,72276,1,0,0:0:0:0:
64,192,72342,1,0,0:0:0:0:
448,192,72342,1,0,0:0:0:0:
320,192,72408,1,0,0:0:0:0:
192,192,72408,1,0,0:0:0:0:
448,192,72474,1,0,0:0:0:0:
64,192,72474,1,0,0:0:0:0:
192,192,72540,1,0,0:0:0:0:
320,192,72540,1,0,0:0:0:0:
64,192,72605,1,4,0:0:0:0:
192,192,72605,1,4,0:0:0:0:
320,192,72605,1,4,0:0:0:0:
448,192,72605,1,4,0:0:0:0:
64,192,72869,1,0,0:0:0:0:
320,192,72869,1,0,0:0:0:0:
192,192,73000,1,0,0:0:0:0:
448,192,73000,1,0,0:0:0:0:
320,192,73132,1,0,0:0:0:0:
448,192,73132,1,0,0:0:0:0:
64,192,73132,1,0,0:0:0:0:
192,192,73263,1,0,0:0:0:0:
448,192,73395,1,0,0:0:0:0:
192,192,73395,1,0,0:0:0:0:
64,192,73395,1,0,0:0:0:0:
192,192,73526,1,0,0:0:0:0:
320,192,73526,1,0,0:0:0:0:
320,192,73658,1,0,0:0:0:0:
448,192,73658,1,0,0:0:0:0:
64,192,73658,1,0,0:0:0:0:
192,192,73790,1,0,0:0:0:0:
320,192,73790,1,0,0:0:0:0:
448,192,73921,1,0,0:0:0:0:
192,192,73921,1,0,0:0:0:0:
64,192,73921,1,0,0:0:0:0:
192,192,74053,1,0,0:0:0:0:
64,192,74053,1,0,0:0:0:0:
192,192,74184,1,0,0:0:0:0:
320,192,74184,1,0,0:0:0:0:
448,192,74184,1,0,0:0:0:0:
192,192,74316,1,0,0:0:0:0:
448,192,74316,1,0,0:0:0:0:
320,192,74448,1,0,0:0:0:0:
448,192,74448,1,0,0:0:0:0:
64,192,74448,1,0,0:0:0:0:
448,192,74579,1,0,0:0:0:0:
192,192,74579,1,0,0:0:0:0:
320,192,74711,1,0,0:0:0:0:
448,192,74711,1,0,0:0:0:0:
64,192,74711,1,0,0:0:0:0:
192,192,74842,1,0,0:0:0:0:
320,192,74842,1,0,0:0:0:0:
320,192,74974,1,0,0:0:0:0:
448,192,74974,1,0,0:0:0:0:
64,192,74974,1,0,0:0:0:0:
192,192,75040,1,0,0:0:0:0:
320,192,75105,1,0,0:0:0:0:
64,192,75105,1,0,0:0:0:0:
448,192,75171,1,0,0:0:0:0:
320,192,75237,1,0,0:0:0:0:
192,192,75237,1,0,0:0:0:0:
64,192,75237,1,0,0:0:0:0:
448,192,75303,1,0,0:0:0:0:
320,192,75369,1,0,0:0:0:0:
64,192,75369,1,0,0:0:0:0:
192,192,75434,1,0,0:0:0:0:
320,192,75500,1,0,0:0:0:0:
448,192,75500,1,0,0:0:0:0:
64,192,75500,1,0,0:0:0:0:
192,192,75566,1,0,0:0:0:0:
320,192,75632,1,0,0:0:0:0:
448,192,75632,1,0,0:0:0:0:
192,192,75698,1,0,0:0:0:0:
320,192,75763,1,0,0:0:0:0:
448,192,75763,1,0,0:0:0:0:
64,192,75763,1,0,0:0:0:0:
192,192,75895,1,0,0:0:0:0:
320,192,75895,1,0,0:0:0:0:
448,192,76026,1,0,0:0:0:0:
320,192,76026,1,0,0:0:0:0:
64,192,76026,1,0,0:0:0:0:
192,192,76158,1,0,0:0:0:0:
448,192,76158,1,0,0:0:0:0:
320,192,76290,1,0,0:0:0:0:
448,192,76290,1,0,0:0:0:0:
64,192,76290,1,0,0:0:0:0:
192,192,76355,1,0,0:0:0:0:
64,192,76421,1,0,0:0:0:0:
320,192,76421,1,0,0:0:0:0:
448,192,76487,1,0,0:0:0:0:
320,192,76553,1,0,0:0:0:0:
192,192,76553,1,0,0:0:0:0:
64,192,76553,1,0,0:0:0:0:
448,192,76619,1,0,0:0:0:0:
192,192,76684,1,0,0:0:0:0:
320,192,76684,1,0,0:0:0:0:
64,192,76750,1,0,0:0:0:0:
192,192,76816,1,0,0:0:0:0:
320,192,76816,1,0,0:0:0:0:
448,192,76816,1,0,0:0:0:0:
192,192,77079,1,0,0:0:0:0:
64,192,77079,1,0,0:0:0:0:
448,192,77079,1,0,0:0:0:0:
192,192,77211,1,0,0:0:0:0:
320,192,77211,1,0,0:0:0:0:
320,192,77342,1,0,0:0:0:0:
448,192,77342,1,0,0:0:0:0:
64,192,77342,1,0,0:0:0:0:
192,192,77474,1,0,0:0:0:0:
448,192,77474,1,0,0:0:0:0:
320,192,77605,1,0,0:0:0:0:
448,192,77605,1,0,0:0:0:0:
192,192,77605,1,0,0:0:0:0:
64,192,77737,1,0,0:0:0:0:
192,192,77737,1,0,0:0:0:0:
64,192,77869,1,0,0:0:0:0:
320,192,77869,1,0,0:0:0:0:
448,192,77869,1,0,0:0:0:0:
192,192,78000,1,0,0:0:0:0:
448,192,78000,1,0,0:0:0:0:
448,192,78132,1,0,0:0:0:0:
192,192,78132,1,0,0:0:0:0:
64,192,78132,1,0,0:0:0:0:
192,192,78263,1,0,0:0:0:0:
320,192,78263,1,0,0:0:0:0:
64,192,78395,1,0,0:0:0:0:
192,192,78395,1,0,0:0:0:0:
448,192,78395,1,0,0:0:0:0:
320,192,78526,1,0,0:0:0:0:
448,192,78526,1,0,0:0:0:0:
320,192,78658,1,0,0:0:0:0:
448,192,78658,1,0,0:0:0:0:
64,192,78658,1,0,0:0:0:0:
192,192,78790,1,0,0:0:0:0:
320,192,78790,1,0,0:0:0:0:
320,192,78921,1,0,0:0:0:0:
448,192,78921,1,0,0:0:0:0:
64,192,78921,1,0,0:0:0:0:
64,192,79053,1,0,0:0:0:0:
192,192,79053,1,0,0:0:0:0:
64,192,79184,1,0,0:0:0:0:
192,192,79184,1,0,0:0:0:0:
448,192,79184,1,0,0:0:0:0:
320,192,79250,1,0,0:0:0:0:
192,192,79316,1,0,0:0:0:0:
448,192,79316,1,0,0:0:0:0:
64,192,79382,1,0,0:0:0:0:
192,192,79448,1,0,0:0:0:0:
320,192,79448,1,0,0:0:0:0:
448,192,79448,1,0,0:0:0:0:
64,192,79513,1,0,0:0:0:0:
192,192,79579,1,0,0:0:0:0:
320,192,79579,1,0,0:0:0:0:
448,192,79645,1,0,0:0:0:0:
64,192,79711,1,0,0:0:0:0:
192,192,79711,1,0,0:0:0:0:
320,192,79711,1,0,0:0:0:0:
448,192,79776,1,0,0:0:0:0:
320,192,79842,1,0,0:0:0:0:
192,192,79842,1,0,0:0:0:0:
64,192,79908,1,0,0:0:0:0:
192,192,79974,1,0,0:0:0:0:
320,192,79974,1,0,0:0:0:0:
448,192,79974,1,0,0:0:0:0:
64,192,80105,1,0,0:0:0:0:
192,192,80105,1,0,0:0:0:0:
320,192,80237,1,0,0:0:0:0:
448,192,80237,1,0,0:0:0:0:
64,192,80237,1,0,0:0:0:0:
448,192,80369,1,0,0:0:0:0:
64,192,80369,1,0,0:0:0:0:
320,192,80500,1,0,0:0:0:0:
448,192,80500,1,0,0:0:0:0:
64,192,80500,1,0,0:0:0:0:
192,192,80566,1,0,0:0:0:0:
320,192,80632,1,0,0:0:0:0:
448,192,80632,1,0,0:0:0:0:
64,192,80698,1,0,0:0:0:0:
192,192,80763,1,0,0:0:0:0:
320,192,80763,1,0,0:0:0:0:
448,192,80763,1,0,0:0:0:0:
64,192,80829,1,0,0:0:0:0:
192,192,80895,1,0,0:0:0:0:
320,192,80895,1,0,0:0:0:0:
448,192,81026,1,4,0:0:0:0:
320,192,81026,1,4,0:0:0:0:
192,192,81026,1,4,0:0:0:0:
64,192,81026,1,4,0:0:0:0:
320,192,81290,1,0,0:0:0:0:
448,192,81290,1,0,0:0:0:0:
64,192,81290,1,0,0:0:0:0:
192,192,81421,1,0,0:0:0:0:
64,192,81421,1,0,0:0:0:0:
64,192,81553,1,0,0:0:0:0:
192,192,81553,1,0,0:0:0:0:
448,192,81553,1,0,0:0:0:0:
320,192,81684,1,0,0:0:0:0:
448,192,81816,1,0,0:0:0:0:
192,192,81816,1,0,0:0:0:0:
64,192,81816,1,0,0:0:0:0:
192,192,81948,1,0,0:0:0:0:
320,192,81948,1,0,0:0:0:0:
320,192,82079,1,0,0:0:0:0:
448,192,82079,1,0,0:0:0:0:
64,192,82079,1,0,0:0:0:0:
192,192,82211,1,0,0:0:0:0:
448,192,82211,1,0,0:0:0:0:
320,192,82342,1,0,0:0:0:0:
448,192,82342,1,0,0:0:0:0:
64,192,82342,1,0,0:0:0:0:
64,192,82474,1,0,0:0:0:0:
192,192,82474,1,0,0:0:0:0:
64,192,82605,1,0,0:0:0:0:
320,192,82605,1,0,0:0:0:0:
448,192,82605,1,0,0:0:0:0:
192,192,82737,1,0,0:0:0:0:
448,192,82737,1,0,0:0:0:0:
448,192,82869,1,0,0:0:0:0:
320,192,82869,1,0,0:0:0:0:
192,192,82869,1,0,0:0:0:0:
448,192,83000,1,0,0:0:0:0:
64,192,83000,1,0,0:0:0:0:
192,192,83132,1,0,0:0:0:0:
64,192,83132,1,0,0:0:0:0:
448,192,83132,1,0,0:0:0:0:
192,192,83263,1,0,0:0:0:0:
320,192,83263,1,0,0:0:0:0:
320,192,83395,1,0,0:0:0:0:
448,192,83395,1,0,0:0:0:0:
64,192,83395,1,0,0:0:0:0:
192,192,83461,1,0,0:0:0:0:
448,192,83526,1,0,0:0:0:0:
320,192,83526,1,0,0:0:0:0:
192,192,83592,1,0,0:0:0:0:
320,192,83658,1,0,0:0:0:0:
448,192,83658,1,0,0:0:0:0:
64,192,83658,1,0,0:0:0:0:
192,192,83724,1,0,0:0:0:0:
320,192,83790,1,0,0:0:0:0:
448,192,83790,1,0,0:0:0:0:
64,192,83855,1,0,0:0:0:0:
192,192,83921,1,0,0:0:0:0:
320,192,83921,1,0,0:0:0:0:
448,192,83921,1,0,0:0:0:0:
64,192,83987,1,0,0:0:0:0:
192,192,84053,1,0,0:0:0:0:
320,192,84053,1,0,0:0:0:0:
448,192,84119,1,0,0:0:0:0:
320,192,84184,1,0,0:0:0:0:
192,192,84184,1,0,0:0:0:0:
64,192,84184,1,0,0:0:0:0:
320,192,84316,1,0,0:0:0:0:
448,192,84316,1,0,0:0:0:0:
320,192,84448,1,0,0:0:0:0:
448,192,84448,1,0,0:0:0:0:
192,192,84448,1,0,0:0:0:0:
64,192,84579,1,0,0:0:0:0:
320,192,84579,1,0,0:0:0:0:
192,192,84711,1,0,0:0:0:0:
64,192,84711,1,0,0:0:0:0:
448,192,84711,1,0,0:0:0:0:
320,192,84776,1,0,0:0:0:0:
448,192,84842,1,0,0:0:0:0:
192,192,84842,1,0,0:0:0:0:
64,192,84908,1,0,0:0:0:0:
192,192,84974,1,0,0:0:0:0:
320,192,84974,1,0,0:0:0:0:
448,192,84974,1,0,0:0:0:0:
64,192,85040,1,0,0:0:0:0:
192,192,85105,1,0,0:0:0:0:
448,192,85105,1,0,0:0:0:0:
320,192,85171,1,0,0:0:0:0:
192,192,85237,1,0,0:0:0:0:
64,192,85237,1,0,0:0:0:0:
448,192,85237,1,0,0:0:0:0:
320,192,85500,1,0,0:0:0:0:
448,192,85500,1,0,0:0:0:0:
64,192,85500,1,0,0:0:0:0:
192,192,85632,1,0,0:0:0:0:
320,192,85632,1,0,0:0:0:0:
320,192,85763,1,0,0:0:0:0:
448,192,85763,1,0,0:0:0:0:
64,192,85763,1,0,0:0:0:0:
64,192,85895,1,0,0:0:0:0:
192,192,85895,1,0,0:0:0:0:
64,192,86026,1,0,0:0:0:0:
192,192,86026,1,0,0:0:0:0:
448,192,86026,1,0,0:0:0:0:
192,192,86158,1,0,0:0:0:0:
448,192,86158,1,0,0:0:0:0:
320,192,86290,1,0,0:0:0:0:
448,192,86290,1,0,0:0:0:0:
64,192,86290,1,0,0:0:0:0:
192,192,86421,1,0,0:0:0:0:
64,192,86421,1,0,0:0:0:0:
320,192,86553,1,0,0:0:0:0:
448,192,86553,1,0,0:0:0:0:
192,192,86553,1,0,0:0:0:0:
64,192,86684,1,0,0:0:0:0:
320,192,86684,1,0,0:0:0:0:
192,192,86816,1,0,0:0:0:0:
64,192,86816,1,0,0:0:0:0:
448,192,86816,1,0,0:0:0:0:
192,192,86948,1,0,0:0:0:0:
448,192,86948,1,0,0:0:0:0:
320,192,87079,1,0,0:0:0:0:
448,192,87079,1,0,0:0:0:0:
64,192,87079,1,0,0:0:0:0:
192,192,87211,1,0,0:0:0:0:
64,192,87211,1,0,0:0:0:0:
320,192,87342,1,0,0:0:0:0:
448,192,87342,1,0,0:0:0:0:
192,192,87342,1,0,0:0:0:0:
64,192,87474,1,0,0:0:0:0:
192,192,87474,1,0,0:0:0:0:
192,192,87605,1,0,0:0:0:0:
320,192,87605,1,0,0:0:0:0:
448,192,87605,1,0,0:0:0:0:
64,192,87671,1,0,0:0:0:0:
192,192,87737,1,0,0:0:0:0:
448,192,87737,1,0,0:0:0:0:
320,192,87803,1,0,0:0:0:0:
448,192,87869,1,0,0:0:0:0:
192,192,87869,1,0,0:0:0:0:
64,192,87869,1,0,0:0:0:0:
320,192,87934,1,0,0:0:0:0:
192,192,88000,1,0,0:0:0:0:
448,192,88000,1,0,0:0:0:0:
320,192,88066,1,0,0:0:0:0:
192,192,88132,1,0,0:0:0:0:
448,192,88132,1,0,0:0:0:0:
64,192,88132,1,0,0:0:0:0:
320,192,88198,1,0,0:0:0:0:
64,192,88263,1,0,0:0:0:0:
192,192,88263,1,0,0:0:0:0:
320,192,88329,1,0,0:0:0:0:
192,192,88395,1,0,0:0:0:0:
64,192,88395,1,0,0:0:0:0:
448,192,88395,1,0,0:0:0:0:
320,192,88461,1,0,0:0:0:0:
448,192,88526,1,0,0:0:0:0:
64,192,88526,1,0,0:0:0:0:
192,192,88592,1,0,0:0:0:0:
320,192,88658,1,0,0:0:0:0:
448,192,88658,1,0,0:0:0:0:
64,192,88658,1,0,0:0:0:0:
192,192,88724,1,0,0:0:0:0:
320,192,88790,1,0,0:0:0:0:
448,192,88790,1,0,0:0:0:0:
64,192,88855,1,0,0:0:0:0:
192,192,88921,1,0,0:0:0:0:
320,192,88921,1,0,0:0:0:0:
448,192,88921,1,0,0:0:0:0:
64,192,89053,1,0,0:0:0:0:
192,192,89053,1,0,0:0:0:0:
448,192,89053,1,0,0:0:0:0:
320,192,89184,1,0,0:0:0:0:
448,192,89184,1,0,0:0:0:0:
192,192,89184,1,0,0:0:0:0:
64,192,89316,1,0,0:0:0:0:
192,192,89316,1,0,0:0:0:0:
448,192,89316,1,0,0:0:0:0:
320,192,89448,1,0,0:0:0:0:
448,192,89448,1,0,0:0:0:0:
64,192,89448,1,0,0:0:0:0:
192,192,89579,1,0,0:0:0:0:
320,192,89711,1,0,0:0:0:0:
448,192,89711,1,0,0:0:0:0:
320,192,89842,1,0,0:0:0:0:
448,192,89842,1,0,0:0:0:0:
64,192,89974,1,0,0:0:0:0:
320,192,89974,1,0,0:0:0:0:
192,192,90105,1,0,0:0:0:0:
320,192,90237,1,0,0:0:0:0:
448,192,90237,1,0,0:0:0:0:
448,192,90369,1,0,0:0:0:0:
320,192,90500,1,0,0:0:0:0:
64,192,90500,1,0,0:0:0:0:
192,192,90500,1,0,0:0:0:0:
448,192,90632,1,0,0:0:0:0:
320,192,90763,1,0,0:0:0:0:
64,192,90763,1,0,0:0:0:0:
192,192,90895,1,0,0:0:0:0:
320,192,91026,1,0,0:0:0:0:
448,192,91026,1,0,0:0:0:0:
64,192,91158,1,0,0:0:0:0:
192,192,91290,1,0,0:0:0:0:
448,192,91290,1,0,0:0:0:0:
320,192,91421,1,0,0:0:0:0:
448,192,91553,1,0,0:0:0:0:
192,192,91553,1,0,0:0:0:0:
64,192,91553,1,0,0:0:0:0:
448,192,91816,1,0,0:0:0:0:
320,192,91816,1,0,0:0:0:0:
64,192,91816,1,0,0:0:0:0:
448,192,91948,1,0,0:0:0:0:
320,192,91948,1,0,0:0:0:0:
192,192,91948,1,0,0:0:0:0:
320,192,92079,1,0,0:0:0:0:
192,192,92079,1,0,0:0:0:0:
64,192,92079,1,0,0:0:0:0:
192,192,92211,1,0,0:0:0:0:
64,192,92211,1,0,0:0:0:0:
448,192,92211,1,0,0:0:0:0:
64,192,92342,1,0,0:0:0:0:
320,192,92342,1,0,0:0:0:0:
448,192,92342,1,0,0:0:0:0:
192,192,92474,1,0,0:0:0:0:
320,192,92474,1,0,0:0:0:0:
448,192,92474,1,0,0:0:0:0:
64,192,92605,1,0,0:0:0:0:
192,192,92605,1,0,0:0:0:0:
320,192,92605,1,0,0:0:0:0:
192,192,92737,1,0,0:0:0:0:
320,192,92737,1,0,0:0:0:0:
448,192,92737,1,0,0:0:0:0:
64,192,92869,1,0,0:0:0:0:
320,192,92869,1,0,0:0:0:0:
448,192,92869,1,0,0:0:0:0:
64,192,93000,1,0,0:0:0:0:
192,192,93000,1,0,0:0:0:0:
448,192,93000,1,0,0:0:0:0:
320,192,93132,1,0,0:0:0:0:
192,192,93132,1,0,0:0:0:0:
64,192,93132,1,0,0:0:0:0:
320,192,93263,1,0,0:0:0:0:
448,192,93263,1,0,0:0:0:0:
192,192,93395,1,0,0:0:0:0:
320,192,93395,1,0,0:0:0:0:
448,192,93526,1,0,0:0:0:0:
64,192,93526,1,0,0:0:0:0:
64,192,93658,1,0,0:0:0:0:
192,192,93658,1,0,0:0:0:0:
448,192,93658,1,0,0:0:0:0:
192,192,93790,1,0,0:0:0:0:
64,192,93790,1,0,0:0:0:0:
64,192,93921,1,0,0:0:0:0:
192,192,93921,1,0,0:0:0:0:
192,192,94053,1,4,0:0:0:0:
64,192,94053,1,4,0:0:0:0:
320,192,94053,1,4,0:0:0:0:
448,192,94053,1,4,0:0:0:0:
192,192,94184,1,0,0:0:0:0:
320,192,94316,1,0,0:0:0:0:
64,192,94448,1,0,0:0:0:0:
192,192,94513,1,0,0:0:0:0:
448,192,94579,1,0,0:0:0:0:
320,192,94645,1,0,0:0:0:0:
192,192,94711,1,0,0:0:0:0:
64,192,94711,1,0,0:0:0:0:
448,192,94711,1,0,0:0:0:0:
192,192,94842,1,0,0:0:0:0:
448,192,94842,1,0,0:0:0:0:
448,192,94974,1,0,0:0:0:0:
192,192,94974,1,0,0:0:0:0:
64,192,95105,1,4,0:0:0:0:
192,192,95105,1,4,0:0:0:0:
320,192,95105,1,4,0:0:0:0:
448,192,95105,1,4,0:0:0:0:
64,192,95237,1,0,0:0:0:0:
192,192,95303,1,0,0:0:0:0:
448,192,95369,1,0,0:0:0:0:
320,192,95434,1,0,0:0:0:0:
64,192,95500,1,0,0:0:0:0:
192,192,95566,1,0,0:0:0:0:
320,192,95632,1,0,0:0:0:0:
448,192,95698,1,0,0:0:0:0:
64,192,95763,1,0,0:0:0:0:
192,192,95763,1,0,0:0:0:0:
320,192,95829,1,0,0:0:0:0:
192,192,95895,1,0,0:0:0:0:
448,192,95961,1,0,0:0:0:0:
64,192,96026,1,0,0:0:0:0:
192,192,96026,1,0,0:0:0:0:
320,192,96092,1,0,0:0:0:0:
448,192,96158,1,0,0:0:0:0:
192,192,96158,1,0,0:0:0:0:
64,192,96224,1,0,0:0:0:0:
192,192,96290,1,0,0:0:0:0:
448,192,96290,1,0,0:0:0:0:
64,192,96355,1,0,0:0:0:0:
192,192,96421,1,0,0:0:0:0:
320,192,96487,1,0,0:0:0:0:
192,192,96553,1,0,0:0:0:0:
448,192,96553,1,0,0:0:0:0:
64,192,96553,1,0,0:0:0:0:
320,192,96619,1,0,0:0:0:0:
192,192,96684,1,0,0:0:0:0:
64,192,96684,1,0,0:0:0:0:
320,192,96750,1,0,0:0:0:0:
448,192,96816,1,0,0:0:0:0:
192,192,96816,1,0,0:0:0:0:
64,192,96816,1,0,0:0:0:0:
192,192,96948,1,0,0:0:0:0:
64,192,96948,1,0,0:0:0:0:
448,192,96948,1,0,0:0:0:0:
320,192,97079,1,0,0:0:0:0:
448,192,97079,1,0,0:0:0:0:
64,192,97079,1,0,0:0:0:0:
64,192,97211,1,0,0:0:0:0:
320,192,97211,1,0,0:0:0:0:
448,192,97211,1,0,0:0:0:0:
64,192,97342,1,0,0:0:0:0:
192,192,97342,1,0,0:0:0:0:
448,192,97342,1,0,0:0:0:0:
448,192,97474,1,0,0:0:0:0:
320,192,97474,1,0,0:0:0:0:
64,192,97474,1,0,0:0:0:0:
320,192,97605,1,0,0:0:0:0:
192,192,97605,1,0,0:0:0:0:
64,192,97605,1,0,0:0:0:0:
192,192,97737,1,0,0:0:0:0:
320,192,97737,1,0,0:0:0:0:
448,192,97737,1,0,0:0:0:0:
320,192,97869,1,0,0:0:0:0:
448,192,97869,1,0,0:0:0:0:
64,192,97869,1,0,0:0:0:0:
192,192,98000,1,0,0:0:0:0:
320,192,98132,1,0,0:0:0:0:
448,192,98132,1,0,0:0:0:0:
320,192,98263,1,0,0:0:0:0:
448,192,98263,1,0,0:0:0:0:
192,192,98395,1,0,0:0:0:0:
64,192,98395,1,0,0:0:0:0:
64,192,98526,1,0,0:0:0:0:
320,192,98658,1,0,0:0:0:0:
448,192,98658,1,0,0:0:0:0:
448,192,98790,1,0,0:0:0:0:
320,192,98921,1,0,0:0:0:0:
192,192,98921,1,0,0:0:0:0:
64,192,98921,1,0,0:0:0:0:
448,192,99053,1,0,0:0:0:0:
320,192,99184,1,0,0:0:0:0:
64,192,99184,1,0,0:0:0:0:
192,192,99316,1,0,0:0:0:0:
320,192,99448,1,0,0:0:0:0:
448,192,99448,1,0,0:0:0:0:
192,192,99579,1,0,0:0:0:0:
448,192,99711,1,0,0:0:0:0:
64,192,99711,1,0,0:0:0:0:
192,192,99842,1,0,0:0:0:0:
320,192,99974,1,0,0:0:0:0:
64,192,99974,1,0,0:0:0:0:
448,192,99974,1,0,0:0:0:0:
320,192,100237,1,0,0:0:0:0:
448,192,100237,1,0,0:0:0:0:
64,192,100237,1,0,0:0:0:0:
64,192,100369,1,0,0:0:0:0:
320,192,100369,1,0,0:0:0:0:
448,192,100369,1,0,0:0:0:0:
320,192,100500,1,0,0:0:0:0:
448,192,100500,1,0,0:0:0:0:
64,192,100500,1,0,0:0:0:0:
192,192,100632,1,0,0:0:0:0:
320,192,100632,1,0,0:0:0:0:
448,192,100632,1,0,0:0:0:0:
448,192,100763,1,0,0:0:0:0:
192,192,100763,1,0,0:0:0:0:
64,192,100763,1,0,0:0:0:0:
64,192,100895,1,0,0:0:0:0:
192,192,100895,1,0,0:0:0:0:
320,192,100895,1,0,0:0:0:0:
192,192,101026,1,0,0:0:0:0:
320,192,101026,1,0,0:0:0:0:
448,192,101026,1,0,0:0:0:0:
64,192,101158,1,0,0:0:0:0:
320,192,101158,1,0,0:0:0:0:
448,192,101158,1,0,0:0:0:0:
320,192,101290,1,0,0:0:0:0:
192,192,101290,1,0,0:0:0:0:
448,192,101290,1,0,0:0:0:0:
64,192,101421,1,0,0:0:0:0:
192,192,101421,1,0,0:0:0:0:
448,192,101421,1,0,0:0:0:0:
320,192,101553,1,0,0:0:0:0:
448,192,101553,1,0,0:0:0:0:
64,192,101553,1,0,0:0:0:0:
192,192,101684,1,0,0:0:0:0:
320,192,101684,1,0,0:0:0:0:
64,192,101816,1,0,0:0:0:0:
192,192,101816,1,0,0:0:0:0:
320,192,101948,1,0,0:0:0:0:
448,192,101948,1,0,0:0:0:0:
192,192,102079,1,0,0:0:0:0:
64,192,102079,1,0,0:0:0:0:
448,192,102079,1,0,0:0:0:0:
192,192,102211,1,0,0:0:0:0:
64,192,102211,1,0,0:0:0:0:
64,192,102342,1,0,0:0:0:0:
192,192,102342,1,0,0:0:0:0:
64,192,102474,1,4,0:0:0:0:
192,192,102474,1,4,0:0:0:0:
320,192,102474,1,4,0:0:0:0:
448,192,102474,1,4,0:0:0:0:
192,192,102605,1,0,0:0:0:0:
320,192,102737,1,0,0:0:0:0:
448,192,102869,1,0,0:0:0:0:
320,192,102934,1,0,0:0:0:0:
192,192,103000,1,0,0:0:0:0:
64,192,103066,1,0,0:0:0:0:
192,192,103132,1,0,0:0:0:0:
320,192,103132,1,0,0:0:0:0:
448,192,103132,1,0,0:0:0:0:
64,192,103263,1,0,0:0:0:0:
448,192,103263,1,0,0:0:0:0:
448,192,103395,1,0,0:0:0:0:
64,192,103395,1,0,0:0:0:0:
64,192,103526,1,4,0:0:0:0:
320,192,103526,1,4,0:0:0:0:
448,192,103526,1,4,0:0:0:0:
192,192,103526,1,4,0:0:0:0:
448,192,103658,1,0,0:0:0:0:
192,192,103724,1,0,0:0:0:0:
64,192,103790,1,0,0:0:0:0:
320,192,103855,1,0,0:0:0:0:
448,192,103921,1,0,0:0:0:0:
64,192,103921,1,0,0:0:0:0:
192,192,103987,1,0,0:0:0:0:
64,192,104053,1,0,0:0:0:0:
320,192,104119,1,0,0:0:0:0:
192,192,104184,1,0,0:0:0:0:
448,192,104184,1,0,0:0:0:0:
64,192,104184,1,0,0:0:0:0:
192,192,104316,1,0,0:0:0:0:
320,192,104316,1,0,0:0:0:0:
320,192,104448,1,0,0:0:0:0:
448,192,104448,1,0,0:0:0:0:
64,192,104448,1,0,0:0:0:0:
64,192,104579,1,0,0:0:0:0:
192,192,104579,1,0,0:0:0:0:
320,192,104711,1,0,0:0:0:0:
448,192,104711,1,0,0:0:0:0:
64,192,104711,1,0,0:0:0:0:
64,192,104842,1,0,0:0:0:0:
192,192,104842,1,0,0:0:0:0:
64,192,104974,1,4,0:0:0:0:
320,192,104974,1,4,0:0:0:0:
192,192,104974,1,4,0:0:0:0:
448,192,104974,1,4,0:0:0:0:
192,192,105105,1,0,0:0:0:0:
320,192,105105,1,0,0:0:0:0:
320,192,105237,1,0,0:0:0:0:
448,192,105237,1,0,0:0:0:0:
192,192,105237,1,0,0:0:0:0:
192,192,105369,1,0,0:0:0:0:
320,192,105369,1,0,0:0:0:0:
448,192,105369,1,0,0:0:0:0:
192,192,105500,1,0,0:0:0:0:
320,192,105500,1,0,0:0:0:0:
64,192,105500,1,0,0:0:0:0:
64,192,105632,1,4,0:0:0:0:
192,192,105632,1,4,0:0:0:0:
320,192,105632,1,4,0:0:0:0:
448,192,105632,1,4,0:0:0:0:
64,192,105763,1,0,0:0:0:0:
192,192,105763,1,0,0:0:0:0:
320,192,105829,1,0,0:0:0:0:
448,192,105829,1,0,0:0:0:0:
192,192,105895,1,0,0:0:0:0:
64,192,105895,1,0,0:0:0:0:
320,192,105961,1,0,0:0:0:0:
448,192,105961,1,0,0:0:0:0:
192,192,106026,1,0,0:0:0:0:
64,192,106026,1,0,0:0:0:0:
320,192,106092,1,0,0:0:0:0:
448,192,106092,1,0,0:0:0:0:
64,192,106158,1,0,0:0:0:0:
192,192,106158,1,0,0:0:0:0:
320,192,106224,1,0,0:0:0:0:
448,192,106224,1,0,0:0:0:0:
64,192,106290,1,4,0:0:0:0:
192,192,106290,1,4,0:0:0:0:
320,192,106290,1,4,0:0:0:0:
448,192,106290,1,4,0:0:0:0:
192,192,106421,1,0,0:0:0:0:
320,192,106487,1,0,0:0:0:0:
448,192,106553,1,0,0:0:0:0:
192,192,106553,1,0,0:0:0:0:
64,192,106619,1,0,0:0:0:0:
192,192,106684,1,0,0:0:0:0:
448,192,106750,1,0,0:0:0:0:
64,192,106816,1,0,0:0:0:0:
320,192,106816,1,0,0:0:0:0:
192,192,106882,1,0,0:0:0:0:
320,192,106948,1,0,0:0:0:0:
448,192,106948,1,0,0:0:0:0:
192,192,107013,1,0,0:0:0:0:
64,192,107079,1,0,0:0:0:0:
320,192,107079,1,0,0:0:0:0:
448,192,107145,1,0,0:0:0:0:
192,192,107211,1,0,0:0:0:0:
320,192,107276,1,0,0:0:0:0:
192,192,107342,1,0,0:0:0:0:
64,192,107342,1,0,0:0:0:0:
448,192,107342,1,0,0:0:0:0:
320,192,107408,1,0,0:0:0:0:
64,192,107474,1,0,0:0:0:0:
192,192,107540,1,0,0:0:0:0:
320,192,107605,1,0,0:0:0:0:
448,192,107605,1,0,0:0:0:0:
64,192,107605,1,0,0:0:0:0:
192,192,107671,1,0,0:0:0:0:
320,192,107737,1,0,0:0:0:0:
448,192,107803,1,0,0:0:0:0:
320,192,107869,1,0,0:0:0:0:
192,192,107869,1,0,0:0:0:0:
64,192,107869,1,0,0:0:0:0:
448,192,107934,1,0,0:0:0:0:
320,192,108000,1,0,0:0:0:0:
64,192,108000,1,0,0:0:0:0:
192,192,108066,1,0,0:0:0:0:
320,192,108132,1,0,0:0:0:0:
448,192,108132,1,0,0:0:0:0:
64,192,108132,1,0,0:0:0:0:
192,192,108198,1,0,0:0:0:0:
320,192,108263,1,0,0:0:0:0:
448,192,108329,1,0,0:0:0:0:
320,192,108395,1,0,0:0:0:0:
192,192,108395,1,0,0:0:0:0:
64,192,108395,1,0,0:0:0:0:
448,192,108461,1,0,0:0:0:0:
192,192,108526,1,0,0:0:0:0:
320,192,108526,1,0,0:0:0:0:
64,192,108592,1,0,0:0:0:0:
192,192,108658,1,0,0:0:0:0:
448,192,108658,1,0,0:0:0:0:
320,192,108724,1,0,0:0:0:0:
448,192,108790,1,0,0:0:0:0:
192,192,108790,1,0,0:0:0:0:
64,192,108855,1,0,0:0:0:0:
320,192,108921,1,0,0:0:0:0:
448,192,108921,1,0,0:0:0:0:
64,192,108987,1,0,0:0:0:0:
448,192,109053,1,0,0:0:0:0:
192,192,109053,1,0,0:0:0:0:
320,192,109119,1,0,0:0:0:0:
192,192,109184,1,0,0:0:0:0:
64,192,109184,1,0,0:0:0:0:
320,192,109250,1,0,0:0:0:0:
448,192,109316,1,0,0:0:0:0:
320,192,109382,1,0,0:0:0:0:
448,192,109448,1,0,0:0:0:0:
192,192,109448,1,0,0:0:0:0:
64,192,109448,1,0,0:0:0:0:
320,192,109513,1,0,0:0:0:0:
192,192,109579,1,0,0:0:0:0:
320,192,109645,1,0,0:0:0:0:
448,192,109711,1,0,0:0:0:0:
192,192,109711,1,0,0:0:0:0:
64,192,109711,1,0,0:0:0:0:
320,192,109776,1,0,0:0:0:0:
64,192,109842,1,0,0:0:0:0:
320,192,109908,1,0,0:0:0:0:
192,192,109974,1,0,0:0:0:0:
64,192,109974,1,0,0:0:0:0:
448,192,109974,1,0,0:0:0:0:
320,192,110040,1,0,0:0:0:0:
192,192,110105,1,0,0:0:0:0:
64,192,110105,1,0,0:0:0:0:
320,192,110171,1,0,0:0:0:0:
448,192,110237,1,0,0:0:0:0:
192,192,110237,1,0,0:0:0:0:
64,192,110237,1,0,0:0:0:0:
320,192,110303,1,0,0:0:0:0:
192,192,110369,1,0,0:0:0:0:
448,192,110434,1,0,0:0:0:0:
320,192,110500,1,0,0:0:0:0:
192,192,110500,1,0,0:0:0:0:
64,192,110500,1,0,0:0:0:0:
448,192,110566,1,0,0:0:0:0:
320,192,110632,1,0,0:0:0:0:
192,192,110632,1,0,0:0:0:0:
64,192,110698,1,0,0:0:0:0:
192,192,110763,1,0,0:0:0:0:
448,192,110763,1,0,0:0:0:0:
320,192,110829,1,0,0:0:0:0:
192,192,110895,1,0,0:0:0:0:
64,192,110961,1,0,0:0:0:0:
448,192,111026,1,0,0:0:0:0:
320,192,111026,1,0,0:0:0:0:
192,192,111092,1,0,0:0:0:0:
64,192,111158,1,0,0:0:0:0:
320,192,111158,1,0,0:0:0:0:
192,192,111224,1,0,0:0:0:0:
320,192,111290,1,0,0:0:0:0:
448,192,111290,1,0,0:0:0:0:
64,192,111355,1,0,0:0:0:0:
192,192,111421,1,0,0:0:0:0:
320,192,111487,1,0,0:0:0:0:
448,192,111553,1,0,0:0:0:0:
192,192,111553,1,0,0:0:0:0:
64,192,111553,1,0,0:0:0:0:
320,192,111619,1,0,0:0:0:0:
192,192,111684,1,0,0:0:0:0:
64,192,111750,1,0,0:0:0:0:
192,192,111816,1,0,0:0:0:0:
320,192,111816,1,0,0:0:0:0:
448,192,111816,1,0,0:0:0:0:
64,192,111882,1,0,0:0:0:0:
192,192,111948,1,0,0:0:0:0:
320,192,112013,1,0,0:0:0:0:
448,192,112079,1,0,0:0:0:0:
192,192,112079,1,0,0:0:0:0:
320,192,112145,1,0,0:0:0:0:
192,192,112211,1,0,0:0:0:0:
64,192,112211,1,0,0:0:0:0:
320,192,112276,1,0,0:0:0:0:
448,192,112342,1,0,0:0:0:0:
192,192,112342,1,0,0:0:0:0:
64,192,112342,1,0,0:0:0:0:
320,192,112408,1,0,0:0:0:0:
192,192,112474,1,0,0:0:0:0:
448,192,112540,1,0,0:0:0:0:
320,192,112605,1,0,0:0:0:0:
192,192,112605,1,0,0:0:0:0:
64,192,112605,1,0,0:0:0:0:
448,192,112671,1,0,0:0:0:0:
192,192,112737,1,0,0:0:0:0:
320,192,112737,1,0,0:0:0:0:
64,192,112803,1,0,0:0:0:0:
192,192,112869,1,0,0:0:0:0:
448,192,112869,1,0,0:0:0:0:
320,192,112934,1,0,0:0:0:0:
448,192,113000,1,0,0:0:0:0:
192,192,113000,1,0,0:0:0:0:
64,192,113066,1,0,0:0:0:0:
192,192,113132,1,0,0:0:0:0:
320,192,113132,1,0,0:0:0:0:
448,192,113198,1,0,0:0:0:0:
64,192,113263,1,0,0:0:0:0:
192,192,113263,1,0,0:0:0:0:
320,192,113329,1,0,0:0:0:0:
448,192,113395,1,0,0:0:0:0:
192,192,113395,1,0,0:0:0:0:
64,192,113461,1,0,0:0:0:0:
192,192,113526,1,0,0:0:0:0:
320,192,113526,1,0,0:0:0:0:
448,192,113592,1,0,0:0:0:0:
320,192,113658,1,0,0:0:0:0:
192,192,113658,1,0,0:0:0:0:
64,192,113658,1,0,0:0:0:0:
448,192,113724,1,0,0:0:0:0:
320,192,113790,1,0,0:0:0:0:
64,192,113790,1,0,0:0:0:0:
192,192,113855,1,0,0:0:0:0:
320,192,113921,1,0,0:0:0:0:
448,192,113921,1,0,0:0:0:0:
64,192,113921,1,0,0:0:0:0:
192,192,113987,1,0,0:0:0:0:
448,192,114053,1,0,0:0:0:0:
320,192,114119,1,0,0:0:0:0:
192,192,114184,1,0,0:0:0:0:
448,192,114184,1,0,0:0:0:0:
64,192,114184,1,0,0:0:0:0:
320,192,114250,1,0,0:0:0:0:
192,192,114316,1,0,0:0:0:0:
448,192,114316,1,0,0:0:0:0:
64,192,114316,1,0,0:0:0:0:
320,192,114382,1,0,0:0:0:0:
192,192,114448,1,0,0:0:0:0:
64,192,114448,1,0,0:0:0:0:
448,192,114448,1,0,0:0:0:0:
320,192,114513,1,0,0:0:0:0:
448,192,114513,1,0,0:0:0:0:
192,192,114579,1,0,0:0:0:0:
64,192,114579,1,0,0:0:0:0:
320,192,114645,1,0,0:0:0:0:
448,192,114645,1,0,0:0:0:0:
64,192,114711,1,4,0:0:0:0:
192,192,114711,1,4,0:0:0:0:
320,192,114711,1,4,0:0:0:0:
448,192,114711,1,4,0:0:0:0:
64,192,114842,1,0,0:0:0:0:
192,192,114842,1,0,0:0:0:0:
448,192,114842,1,0,0:0:0:0:
320,192,114974,1,0,0:0:0:0:
448,192,114974,1,0,0:0:0:0:
64,192,114974,1,0,0:0:0:0:
64,192,115105,1,0,0:0:0:0:
192,192,115105,1,0,0:0:0:0:
320,192,115105,1,0,0:0:0:0:
448,192,115237,1,0,0:0:0:0:
320,192,115237,1,0,0:0:0:0:
192,192,115237,1,0,0:0:0:0:
64,192,115369,1,0,0:0:0:0:
320,192,115369,1,0,0:0:0:0:
448,192,115369,1,0,0:0:0:0:
320,192,115500,1,4,0:0:0:0:
448,192,115500,1,4,0:0:0:0:
192,192,115500,1,4,0:0:0:0:
64,192,115500,1,4,0:0:0:0:
192,192,115632,1,0,0:0:0:0:
320,192,115632,1,0,0:0:0:0:
64,192,115763,1,0,0:0:0:0:
320,192,115763,1,0,0:0:0:0:
448,192,115763,1,0,0:0:0:0:
192,192,115829,1,0,0:0:0:0:
320,192,115895,1,0,0:0:0:0:
64,192,115961,1,0,0:0:0:0:
192,192,116026,1,0,0:0:0:0:
320,192,116026,1,0,0:0:0:0:
448,192,116026,1,0,0:0:0:0:
64,192,116092,1,0,0:0:0:0:
320,192,116158,1,0,0:0:0:0:
192,192,116224,1,0,0:0:0:0:
320,192,116290,1,0,0:0:0:0:
448,192,116290,1,0,0:0:0:0:
64,192,116290,1,0,0:0:0:0:
192,192,116355,1,0,0:0:0:0:
320,192,116421,1,0,0:0:0:0:
64,192,116487,1,0,0:0:0:0:
192,192,116553,1,0,0:0:0:0:
320,192,116553,1,0,0:0:0:0:
448,192,116553,1,0,0:0:0:0:
64,192,116619,1,0,0:0:0:0:
320,192,116684,1,0,0:0:0:0:
192,192,116750,1,0,0:0:0:0:
320,192,116816,1,0,0:0:0:0:
448,192,116816,1,0,0:0:0:0:
64,192,116816,1,0,0:0:0:0:
192,192,116948,1,0,0:0:0:0:
320,192,116948,1,0,0:0:0:0:
448,192,116948,1,0,0:0:0:0:
64,192,117079,1,0,0:0:0:0:
192,192,117079,1,0,0:0:0:0:
320,192,117079,1,0,0:0:0:0:
320,192,117211,1,0,0:0:0:0:
448,192,117211,1,0,0:0:0:0:
192,192,117211,1,0,0:0:0:0:
64,192,117342,1,0,0:0:0:0:
192,192,117342,1,0,0:0:0:0:
448,192,117342,1,0,0:0:0:0:
448,192,117474,1,0,0:0:0:0:
320,192,117474,1,0,0:0:0:0:
64,192,117474,1,0,0:0:0:0:
64,192,117605,1,4,0:0:0:0:
192,192,117605,1,4,0:0:0:0:
320,192,117605,1,4,0:0:0:0:
448,192,117605,1,4,0:0:0:0:
64,192,117737,1,0,0:0:0:0:
448,192,117737,1,0,0:0:0:0:
320,192,117869,1,0,0:0:0:0:
448,192,117869,1,0,0:0:0:0:
64,192,117869,1,0,0:0:0:0:
192,192,117934,1,0,0:0:0:0:
320,192,118000,1,0,0:0:0:0:
64,192,118066,1,0,0:0:0:0:
192,192,118132,1,0,0:0:0:0:
448,192,118132,1,0,0:0:0:0:
320,192,118132,1,0,0:0:0:0:
64,192,118198,1,0,0:0:0:0:
320,192,118263,1,0,0:0:0:0:
192,192,118329,1,0,0:0:0:0:
320,192,118395,1,0,0:0:0:0:
448,192,118395,1,0,0:0:0:0:
64,192,118395,1,0,0:0:0:0:
192,192,118461,1,0,0:0:0:0:
64,192,118526,1,0,0:0:0:0:
320,192,118592,1,0,0:0:0:0:
192,192,118658,1,0,0:0:0:0:
448,192,118658,1,0,0:0:0:0:
64,192,118658,1,0,0:0:0:0:
320,192,118724,1,0,0:0:0:0:
64,192,118790,1,0,0:0:0:0:
192,192,118855,1,0,0:0:0:0:
320,192,118921,1,0,0:0:0:0:
448,192,118921,1,0,0:0:0:0:
64,192,118921,1,0,0:0:0:0:
320,192,119053,1,0,0:0:0:0:
448,192,119053,1,0,0:0:0:0:
64,192,119053,1,0,0:0:0:0:
64,192,119184,1,0,0:0:0:0:
192,192,119184,1,0,0:0:0:0:
448,192,119184,1,0,0:0:0:0:
64,192,119316,1,0,0:0:0:0:
192,192,119316,1,0,0:0:0:0:
448,192,119316,1,0,0:0:0:0:
192,192,119448,1,0,0:0:0:0:
320,192,119448,1,0,0:0:0:0:
448,192,119448,1,0,0:0:0:0:
192,192,119579,1,0,0:0:0:0:
320,192,119579,1,0,0:0:0:0:
448,192,119579,1,0,0:0:0:0:
64,192,119711,1,4,0:0:0:0:
192,192,119711,1,4,0:0:0:0:
320,192,119711,1,4,0:0:0:0:
448,192,119711,1,4,0:0:0:0:
64,192,119842,1,0,0:0:0:0:
192,192,119842,1,0,0:0:0:0:
320,192,119974,1,0,0:0:0:0:
448,192,119974,1,0,0:0:0:0:
64,192,119974,1,0,0:0:0:0:
192,192,120040,1,0,0:0:0:0:
448,192,120105,1,0,0:0:0:0:
320,192,120171,1,0,0:0:0:0:
192,192,120237,1,0,0:0:0:0:
448,192,120237,1,0,0:0:0:0:
64,192,120237,1,0,0:0:0:0:
320,192,120303,1,0,0:0:0:0:
64,192,120369,1,0,0:0:0:0:
192,192,120434,1,0,0:0:0:0:
320,192,120500,1,0,0:0:0:0:
448,192,120500,1,0,0:0:0:0:
64,192,120500,1,0,0:0:0:0:
192,192,120566,1,0,0:0:0:0:
448,192,120632,1,0,0:0:0:0:
64,192,120698,1,0,0:0:0:0:
192,192,120763,1,0,0:0:0:0:
320,192,120763,1,0,0:0:0:0:
448,192,120763,1,0,0:0:0:0:
64,192,120829,1,0,0:0:0:0:
448,192,120895,1,0,0:0:0:0:
192,192,120961,1,0,0:0:0:0:
320,192,121026,1,0,0:0:0:0:
448,192,121026,1,0,0:0:0:0:
64,192,121026,1,0,0:0:0:0:
64,192,121158,1,0,0:0:0:0:
192,192,121158,1,0,0:0:0:0:
448,192,121158,1,0,0:0:0:0:
448,192,121290,1,0,0:0:0:0:
320,192,121290,1,0,0:0:0:0:
192,192,121290,1,0,0:0:0:0:
64,192,121421,1,0,0:0:0:0:
192,192,121421,1,0,0:0:0:0:
320,192,121421,1,0,0:0:0:0:
320,192,121553,1,0,0:0:0:0:
448,192,121553,1,0,0:0:0:0:
64,192,121553,1,0,0:0:0:0:
192,192,121684,1,0,0:0:0:0:
320,192,121684,1,0,0:0:0:0:
448,192,121684,1,0,0:0:0:0:
64,192,121816,1,4,0:0:0:0:
320,192,121816,1,4,0:0:0:0:
448,192,121816,1,4,0:0:0:0:
192,192,121816,1,4,0:0:0:0:
64,192,121948,1,0,0:0:0:0:
192,192,121948,1,0,0:0:0:0:
448,192,121948,1,0,0:0:0:0:
320,192,122079,1,4,0:0:0:0:
448,192,122079,1,4,0:0:0:0:
192,192,122079,1,4,0:0:0:0:
64,192,122079,1,4,0:0:0:0:
64,192,122211,1,0,0:0:0:0:
192,192,122211,1,0,0:0:0:0:
448,192,122211,1,0,0:0:0:0:
64,192,122342,1,4,0:0:0:0:
320,192,122342,1,4,0:0:0:0:
192,192,122342,1,4,0:0:0:0:
448,192,122342,1,4,0:0:0:0:
64,192,122474,1,0,0:0:0:0:
192,192,122474,1,0,0:0:0:0:
448,192,122474,1,0,0:0:0:0:
320,192,122605,1,0,0:0:0:0:
192,192,122605,1,0,0:0:0:0:
448,192,122605,1,0,0:0:0:0:
192,192,122671,1,0,0:0:0:0:
64,192,122671,1,0,0:0:0:0:
320,192,122737,1,0,0:0:0:0:
448,192,122737,1,0,0:0:0:0:
192,192,122803,1,0,0:0:0:0:
64,192,122803,1,0,0:0:0:0:
320,192,122869,1,0,0:0:0:0:
192,192,122869,1,0,0:0:0:0:
448,192,122869,1,0,0:0:0:0:
192,192,122934,1,0,0:0:0:0:
64,192,122934,1,0,0:0:0:0:
320,192,123000,1,0,0:0:0:0:
448,192,123000,1,0,0:0:0:0:
192,192,123066,1,0,0:0:0:0:
64,192,123066,1,0,0:0:0:0:
192,192,123132,1,0,0:0:0:0:
320,192,123132,1,0,0:0:0:0:
448,192,123132,1,0,0:0:0:0:
