osu file format v14

[General]
AudioFilename: Lv18,24 Deublithick.mp3
AudioLeadIn: 0
PreviewTime: 34711
Countdown: 0
SampleSet: Normal
StackLeniency: 0.7
Mode: 3
LetterboxInBreaks: 0
SpecialStyle: 0
WidescreenStoryboard: 0

[Editor]
Bookmarks: 17869,30500,34711,51553,68395,72605,89448,106290
DistanceSpacing: 2
BeatDivisor: 4
GridSize: 16
TimelineZoom: 3.299999

[Metadata]
Title:Deublithick
TitleUnicode:Deublithick
Artist:Gekikara Mania
ArtistUnicode:激辛マニア
Creator:_underjoy
Version:Ultra
Source:BMS
Tags:overjoy horror break blocko capsafangirl lolimeister tds 穴楽 anaraku THE BMS OF FIGHTERS 2011 BOF2011 Intersection of conflict 発狂マニア 仮 Hakkyou Mania kari deublithicc
BeatmapID:1536787
BeatmapSetID:725078

[Difficulty]
HPDrainRate:8.5
CircleSize:7
OverallDifficulty:8.5
ApproachRate:5
SliderMultiplier:1.4
SliderTickRate:1

[Events]
//Background and Video events
0,0,"horror-artworkhigh-definition-original-halloween-evil-windows-scary-spooky-artistic-fear-terrfying-art-creepy-fantasy-dark.jpg",0,0
//Break Periods
//Storyboard Layer 0 (Background)
//Storyboard Layer 1 (Fail)
//Storyboard Layer 2 (Pass)
//Storyboard Layer 3 (Foreground)
//Storyboard Sound Samples

[TimingPoints]
1027,263.157894736842,4,1,1,40,1,0
68395,-100,4,1,1,45,0,0
69448,-100,4,1,1,50,0,0
70500,-100,4,1,1,55,0,0
71553,-100,4,1,1,60,0,0
72605,-100,4,1,1,65,0,1
89448,-100,4,1,1,50,0,0
106290,-100,4,1,1,65,0,1
123132,-100,4,1,1,50,0,0

[HitObjects]
36,192,1027,5,2,0:0:0:0:
109,192,1027,1,0,0:0:0:0:
329,192,1027,1,0,0:0:0:0:
402,192,1290,1,0,0:0:0:0:
182,192,1290,1,0,0:0:0:0:
109,192,1421,1,0,0:0:0:0:
475,192,1553,1,8,0:0:0:0:
256,192,1553,1,0,0:0:0:0:
36,192,1816,1,2,0:0:0:0:
109,192,1816,1,0,0:0:0:0:
329,192,1816,1,0,0:0:0:0:
36,192,2079,1,2,0:0:0:0:
109,192,2079,1,0,0:0:0:0:
329,192,2079,1,0,0:0:0:0:
182,192,2342,1,0,0:0:0:0:
256,192,2342,1,0,0:0:0:0:
402,192,2342,1,0,0:0:0:0:
109,192,2605,1,8,0:0:0:0:
475,192,2605,1,0,0:0:0:0:
256,192,2605,1,0,0:0:0:0:
182,192,2869,1,0,0:0:0:0:
402,192,2869,1,0,0:0:0:0:
36,192,3132,1,2,0:0:0:0:
109,192,3132,1,0,0:0:0:0:
329,192,3132,1,0,0:0:0:0:
256,192,3395,1,0,0:0:0:0:
475,192,3395,1,0,0:0:0:0:
109,192,3526,1,0,0:0:0:0:
402,192,3658,1,8,0:0:0:0:
182,192,3658,1,0,0:0:0:0:
256,192,3790,1,0,0:0:0:0:
109,192,3921,1,2,0:0:0:0:
36,192,3921,1,0,0:0:0:0:
329,192,3921,1,0,0:0:0:0:
36,192,4184,1,2,0:0:0:0:
109,192,4184,1,0,0:0:0:0:
329,192,4184,1,0,0:0:0:0:
402,192,4448,1,0,0:0:0:0:
182,192,4448,1,0,0:0:0:0:
256,192,4448,1,0,0:0:0:0:
109,192,4579,1,0,0:0:0:0:
329,192,4711,1,8,0:0:0:0:
475,192,4711,1,0,0:0:0:0:
256,192,4711,1,0,0:0:0:0:
402,192,4974,1,0,0:0:0:0:
256,192,4974,1,0,0:0:0:0:
109,192,4974,1,0,0:0:0:0:
36,192,5237,5,2,0:0:0:0:
109,192,5237,1,0,0:0:0:0:
329,192,5237,1,0,0:0:0:0:
402,192,5500,1,0,0:0:0:0:
182,192,5500,1,0,0:0:0:0:
109,192,5632,1,0,0:0:0:0:
475,192,5763,1,8,0:0:0:0:
256,192,5763,1,0,0:0:0:0:
36,192,6026,1,2,0:0:0:0:
109,192,6026,1,0,0:0:0:0:
329,192,6026,1,0,0:0:0:0:
36,192,6290,1,2,0:0:0:0:
109,192,6290,1,0,0:0:0:0:
329,192,6290,1,0,0:0:0:0:
182,192,6553,1,0,0:0:0:0:
256,192,6553,1,0,0:0:0:0:
402,192,6553,1,0,0:0:0:0:
109,192,6816,1,8,0:0:0:0:
475,192,6816,1,0,0:0:0:0:
256,192,6816,1,0,0:0:0:0:
182,192,7079,1,0,0:0:0:0:
402,192,7079,1,0,0:0:0:0:
36,192,7342,1,2,0:0:0:0:
109,192,7342,1,0,0:0:0:0:
329,192,7342,1,0,0:0:0:0:
256,192,7605,1,0,0:0:0:0:
475,192,7605,1,0,0:0:0:0:
109,192,7737,1,0,0:0:0:0:
402,192,7869,1,8,0:0:0:0:
182,192,7869,1,0,0:0:0:0:
256,192,8000,1,0,0:0:0:0:
109,192,8132,1,2,0:0:0:0:
36,192,8132,1,0,0:0:0:0:
329,192,8132,1,0,0:0:0:0:
36,192,8395,1,2,0:0:0:0:
109,192,8395,1,0,0:0:0:0:
329,192,8395,1,0,0:0:0:0:
402,192,8658,1,0,0:0:0:0:
182,192,8658,1,0,0:0:0:0:
256,192,8658,1,0,0:0:0:0:
109,192,8790,1,0,0:0:0:0:
329,192,8921,1,8,0:0:0:0:
475,192,8921,1,0,0:0:0:0:
256,192,8921,1,0,0:0:0:0:
402,192,9184,1,0,0:0:0:0:
256,192,9184,1,0,0:0:0:0:
109,192,9184,1,0,0:0:0:0:
36,192,9448,1,2,0:0:0:0:
182,192,9448,1,0,0:0:0:0:
329,192,9448,1,0,0:0:0:0:
109,192,9711,1,0,0:0:0:0:
402,192,9711,1,0,0:0:0:0:
182,192,9842,1,0,0:0:0:0:
256,192,9974,1,8,0:0:0:0:
475,192,9974,1,0,0:0:0:0:
36,192,10237,1,2,0:0:0:0:
182,192,10237,1,0,0:0:0:0:
329,192,10237,1,0,0:0:0:0:
36,192,10500,1,2,0:0:0:0:
182,192,10500,1,0,0:0:0:0:
329,192,10500,1,0,0:0:0:0:
109,192,10763,1,0,0:0:0:0:
256,192,10763,1,0,0:0:0:0:
475,192,10763,1,0,0:0:0:0:
182,192,11026,1,8,0:0:0:0:
329,192,11026,1,0,0:0:0:0:
475,192,11026,1,0,0:0:0:0:
402,192,11290,1,8,0:0:0:0:
109,192,11290,1,0,0:0:0:0:
36,192,11553,1,2,0:0:0:0:
182,192,11553,1,0,0:0:0:0:
329,192,11553,1,0,0:0:0:0:
256,192,11816,1,0,0:0:0:0:
475,192,11816,1,0,0:0:0:0:
182,192,11948,1,0,0:0:0:0:
402,192,12079,1,8,0:0:0:0:
329,192,12079,1,0,0:0:0:0:
256,192,12211,1,0,0:0:0:0:
182,192,12342,1,2,0:0:0:0:
36,192,12342,1,0,0:0:0:0:
329,192,12342,1,0,0:0:0:0:
36,192,12605,1,2,0:0:0:0:
182,192,12605,1,0,0:0:0:0:
329,192,12605,1,0,0:0:0:0:
402,192,12869,1,0,0:0:0:0:
109,192,12869,1,0,0:0:0:0:
256,192,12869,1,0,0:0:0:0:
182,192,13000,1,0,0:0:0:0:
329,192,13000,1,0,0:0:0:0:
256,192,13132,1,8,0:0:0:0:
402,192,13132,1,0,0:0:0:0:
475,192,13132,1,0,0:0:0:0:
402,192,13395,1,8,0:0:0:0:
182,192,13395,1,0,0:0:0:0:
256,192,13395,1,0,0:0:0:0:
36,192,13658,1,2,0:0:0:0:
182,192,13658,1,0,0:0:0:0:
329,192,13658,1,0,0:0:0:0:
109,192,13921,1,0,0:0:0:0:
402,192,13921,1,0,0:0:0:0:
182,192,14053,1,0,0:0:0:0:
256,192,14184,1,8,0:0:0:0:
475,192,14184,1,0,0:0:0:0:
36,192,14448,1,2,0:0:0:0:
182,192,14448,1,0,0:0:0:0:
329,192,14448,1,0,0:0:0:0:
36,192,14711,1,2,0:0:0:0:
182,192,14711,1,0,0:0:0:0:
329,192,14711,1,0,0:0:0:0:
109,192,14974,1,0,0:0:0:0:
256,192,14974,1,0,0:0:0:0:
475,192,14974,1,0,0:0:0:0:
182,192,15237,1,8,0:0:0:0:
329,192,15237,1,0,0:0:0:0:
475,192,15237,1,0,0:0:0:0:
402,192,15500,1,8,0:0:0:0:
109,192,15500,1,0,0:0:0:0:
36,192,15763,1,2,0:0:0:0:
182,192,15763,1,0,0:0:0:0:
329,192,15763,1,0,0:0:0:0:
256,192,16026,1,0,0:0:0:0:
402,192,16026,1,0,0:0:0:0:
182,192,16158,1,0,0:0:0:0:
475,192,16290,1,8,0:0:0:0:
329,192,16290,1,0,0:0:0:0:
256,192,16421,1,0,0:0:0:0:
182,192,16553,1,2,0:0:0:0:
36,192,16553,1,0,0:0:0:0:
329,192,16553,1,0,0:0:0:0:
36,192,16816,1,2,0:0:0:0:
182,192,16816,1,0,0:0:0:0:
329,192,16816,1,0,0:0:0:0:
402,192,17079,1,0,0:0:0:0:
109,192,17079,1,0,0:0:0:0:
256,192,17079,1,0,0:0:0:0:
182,192,17211,1,0,0:0:0:0:
329,192,17211,1,0,0:0:0:0:
256,192,17342,1,8,0:0:0:0:
402,192,17342,1,0,0:0:0:0:
475,192,17342,1,0,0:0:0:0:
402,192,17605,1,8,0:0:0:0:
182,192,17605,1,0,0:0:0:0:
256,192,17605,1,0,0:0:0:0:
36,192,17869,1,2,0:0:0:0:
329,192,17869,1,0,0:0:0:0:
475,192,17869,1,0,0:0:0:0:
109,192,17869,1,0,0:0:0:0:
402,192,18132,1,0,0:0:0:0:
182,192,18132,1,0,0:0:0:0:
256,192,18263,1,0,0:0:0:0:
475,192,18263,1,0,0:0:0:0:
329,192,18395,1,8,0:0:0:0:
109,192,18395,1,0,0:0:0:0:
402,192,18395,1,0,0:0:0:0:
256,192,18658,1,2,0:0:0:0:
36,192,18658,1,0,0:0:0:0:
475,192,18658,1,0,0:0:0:0:
182,192,18790,1,0,0:0:0:0:
475,192,18921,1,2,0:0:0:0:
256,192,18921,1,0,0:0:0:0:
36,192,18921,1,0,0:0:0:0:
329,192,19184,1,0,0:0:0:0:
402,192,19184,1,0,0:0:0:0:
109,192,19184,1,0,0:0:0:0:
182,192,19448,1,8,0:0:0:0:
475,192,19448,1,0,0:0:0:0:
256,192,19448,1,0,0:0:0:0:
182,192,19711,1,8,0:0:0:0:
402,192,19711,1,0,0:0:0:0:
36,192,19711,1,0,0:0:0:0:
329,192,19974,1,2,0:0:0:0:
256,192,19974,1,0,0:0:0:0:
109,192,19974,1,0,0:0:0:0:
475,192,19974,1,0,0:0:0:0:
36,192,20237,1,0,0:0:0:0:
256,192,20237,1,0,0:0:0:0:
329,192,20369,1,0,0:0:0:0:
109,192,20369,1,0,0:0:0:0:
182,192,20500,1,8,0:0:0:0:
402,192,20500,1,0,0:0:0:0:
475,192,20500,1,0,0:0:0:0:
109,192,20632,1,0,0:0:0:0:
329,192,20632,1,0,0:0:0:0:
36,192,20763,1,2,0:0:0:0:
475,192,20763,1,0,0:0:0:0:
256,192,20763,1,0,0:0:0:0:
256,192,21026,1,2,0:0:0:0:
36,192,21026,1,0,0:0:0:0:
475,192,21026,1,0,0:0:0:0:
402,192,21290,1,8,0:0:0:0:
329,192,21290,1,0,0:0:0:0:
182,192,21290,1,0,0:0:0:0:
109,192,21421,1,2,0:0:0:0:
36,192,21421,1,0,0:0:0:0:
182,192,21553,1,8,0:0:0:0:
329,192,21553,1,0,0:0:0:0:
402,192,21553,1,0,0:0:0:0:
256,192,21816,1,0,0:0:0:0:
475,192,21816,1,0,0:0:0:0:
36,192,21816,1,0,0:0:0:0:
402,192,21948,1,0,0:0:0:0:
182,192,21948,1,0,0:0:0:0:
36,192,22079,1,2,0:0:0:0:
329,192,22079,1,0,0:0:0:0:
475,192,22079,1,0,0:0:0:0:
109,192,22079,1,0,0:0:0:0:
402,192,22342,1,0,0:0:0:0:
182,192,22342,1,0,0:0:0:0:
256,192,22474,1,0,0:0:0:0:
475,192,22474,1,0,0:0:0:0:
329,192,22605,1,8,0:0:0:0:
109,192,22605,1,0,0:0:0:0:
402,192,22605,1,0,0:0:0:0:
256,192,22869,1,2,0:0:0:0:
36,192,22869,1,0,0:0:0:0:
475,192,22869,1,0,0:0:0:0:
182,192,23000,1,0,0:0:0:0:
475,192,23132,1,2,0:0:0:0:
256,192,23132,1,0,0:0:0:0:
36,192,23132,1,0,0:0:0:0:
329,192,23395,1,0,0:0:0:0:
402,192,23395,1,0,0:0:0:0:
109,192,23395,1,0,0:0:0:0:
182,192,23658,1,8,0:0:0:0:
475,192,23658,1,0,0:0:0:0:
256,192,23658,1,0,0:0:0:0:
182,192,23921,1,8,0:0:0:0:
402,192,23921,1,0,0:0:0:0:
36,192,23921,1,0,0:0:0:0:
329,192,24184,1,2,0:0:0:0:
256,192,24184,1,0,0:0:0:0:
109,192,24184,1,0,0:0:0:0:
475,192,24184,1,0,0:0:0:0:
36,192,24448,1,0,0:0:0:0:
256,192,24448,1,0,0:0:0:0:
329,192,24579,1,0,0:0:0:0:
109,192,24579,1,0,0:0:0:0:
182,192,24711,1,8,0:0:0:0:
402,192,24711,1,0,0:0:0:0:
475,192,24711,1,0,0:0:0:0:
109,192,24842,1,0,0:0:0:0:
329,192,24842,1,0,0:0:0:0:
36,192,24974,1,2,0:0:0:0:
475,192,24974,1,0,0:0:0:0:
256,192,24974,1,0,0:0:0:0:
256,192,25237,1,2,0:0:0:0:
36,192,25237,1,0,0:0:0:0:
475,192,25237,1,0,0:0:0:0:
402,192,25500,1,8,0:0:0:0:
329,192,25500,1,0,0:0:0:0:
182,192,25500,1,0,0:0:0:0:
109,192,25632,1,2,0:0:0:0:
36,192,25632,1,0,0:0:0:0:
182,192,25763,1,8,0:0:0:0:
329,192,25763,1,0,0:0:0:0:
402,192,25763,1,0,0:0:0:0:
109,192,26026,1,0,0:0:0:0:
475,192,26026,1,0,0:0:0:0:
36,192,26026,1,0,0:0:0:0:
402,192,26158,1,0,0:0:0:0:
256,192,26158,1,0,0:0:0:0:
182,192,26290,1,2,0:0:0:0:
36,192,26290,1,0,0:0:0:0:
329,192,26290,1,0,0:0:0:0:
475,192,26290,1,0,0:0:0:0:
256,192,26553,1,0,0:0:0:0:
475,192,26553,1,0,0:0:0:0:
402,192,26684,1,0,0:0:0:0:
182,192,26684,1,0,0:0:0:0:
329,192,26816,1,8,0:0:0:0:
36,192,26816,1,0,0:0:0:0:
109,192,26816,1,0,0:0:0:0:
256,192,27079,1,2,0:0:0:0:
402,192,27079,1,0,0:0:0:0:
475,192,27079,1,0,0:0:0:0:
109,192,27211,1,0,0:0:0:0:
256,192,27342,1,2,0:0:0:0:
402,192,27342,1,0,0:0:0:0:
475,192,27342,1,0,0:0:0:0:
36,192,27605,1,0,0:0:0:0:
329,192,27605,1,0,0:0:0:0:
182,192,27605,1,0,0:0:0:0:
109,192,27869,1,8,0:0:0:0:
256,192,27869,1,0,0:0:0:0:
402,192,27869,1,0,0:0:0:0:
256,192,28132,1,8,0:0:0:0:
329,192,28132,1,0,0:0:0:0:
475,192,28132,1,0,0:0:0:0:
402,192,28395,1,2,0:0:0:0:
182,192,28395,1,0,0:0:0:0:
109,192,28395,1,0,0:0:0:0:
36,192,28395,1,0,0:0:0:0:
329,192,28658,1,0,0:0:0:0:
109,192,28658,1,0,0:0:0:0:
256,192,28790,1,0,0:0:0:0:
36,192,28790,1,0,0:0:0:0:
256,192,28921,1,8,0:0:0:0:
475,192,28921,1,0,0:0:0:0:
402,192,28921,1,0,0:0:0:0:
109,192,29053,1,0,0:0:0:0:
329,192,29053,1,0,0:0:0:0:
36,192,29184,1,2,0:0:0:0:
182,192,29184,1,0,0:0:0:0:
475,192,29184,1,0,0:0:0:0:
329,192,29316,1,0,0:0:0:0:
182,192,29448,1,2,0:0:0:0:
36,192,29448,1,0,0:0:0:0:
475,192,29448,1,0,0:0:0:0:
402,192,29711,1,8,0:0:0:0:
329,192,29711,1,0,0:0:0:0:
109,192,29711,1,0,0:0:0:0:
182,192,29842,1,2,0:0:0:0:
256,192,29842,1,0,0:0:0:0:
402,192,29974,1,8,0:0:0:0:
329,192,29974,1,0,0:0:0:0:
109,192,29974,1,0,0:0:0:0:
36,192,30237,1,0,0:0:0:0:
182,192,30237,1,0,0:0:0:0:
475,192,30237,1,0,0:0:0:0:
402,192,30369,1,0,0:0:0:0:
256,192,30369,1,0,0:0:0:0:
182,192,30500,1,2,0:0:0:0:
36,192,30500,1,0,0:0:0:0:
329,192,30500,1,0,0:0:0:0:
475,192,30500,1,0,0:0:0:0:
256,192,30763,1,0,0:0:0:0:
475,192,30763,1,0,0:0:0:0:
182,192,30895,1,0,0:0:0:0:
402,192,30895,1,0,0:0:0:0:
329,192,31026,1,8,0:0:0:0:
36,192,31026,1,0,0:0:0:0:
109,192,31026,1,0,0:0:0:0:
256,192,31290,1,2,0:0:0:0:
402,192,31290,1,0,0:0:0:0:
475,192,31290,1,0,0:0:0:0:
329,192,31421,1,0,0:0:0:0:
182,192,31421,1,0,0:0:0:0:
256,192,31553,1,2,0:0:0:0:
402,192,31553,1,0,0:0:0:0:
475,192,31553,1,0,0:0:0:0:
36,192,31816,1,8,0:0:0:0:
329,192,31816,1,0,0:0:0:0:
182,192,31816,1,0,0:0:0:0:
475,192,31948,1,0,0:0:0:0:
256,192,31948,1,0,0:0:0:0:
109,192,32079,1,8,0:0:0:0:
402,192,32079,1,0,0:0:0:0:
182,192,32079,1,0,0:0:0:0:
256,192,32342,1,8,0:0:0:0:
329,192,32342,1,0,0:0:0:0:
475,192,32342,1,0,0:0:0:0:
402,192,32605,1,2,0:0:0:0:
182,192,32605,1,0,0:0:0:0:
109,192,32605,1,0,0:0:0:0:
36,192,32605,1,0,0:0:0:0:
329,192,32869,1,0,0:0:0:0:
109,192,32869,1,0,0:0:0:0:
256,192,33000,1,0,0:0:0:0:
36,192,33000,1,0,0:0:0:0:
256,192,33132,1,8,0:0:0:0:
402,192,33132,1,0,0:0:0:0:
475,192,33132,1,0,0:0:0:0:
109,192,33263,1,0,0:0:0:0:
329,192,33263,1,0,0:0:0:0:
36,192,33395,1,2,0:0:0:0:
182,192,33395,1,0,0:0:0:0:
475,192,33395,1,0,0:0:0:0:
329,192,33526,1,0,0:0:0:0:
182,192,33658,1,2,0:0:0:0:
36,192,33658,1,0,0:0:0:0:
475,192,33658,1,0,0:0:0:0:
256,192,33790,1,0,0:0:0:0:
182,192,33855,1,0,0:0:0:0:
402,192,33921,1,2,0:0:0:0:
109,192,33921,1,0,0:0:0:0:
475,192,33921,1,0,0:0:0:0:
182,192,34053,1,0,0:0:0:0:
329,192,34053,1,0,0:0:0:0:
36,192,34053,1,0,0:0:0:0:
329,192,34184,1,8,0:0:0:0:
109,192,34184,1,0,0:0:0:0:
256,192,34184,1,0,0:0:0:0:
182,192,34316,1,0,0:0:0:0:
402,192,34316,1,0,0:0:0:0:
329,192,34448,1,8,0:0:0:0:
475,192,34448,1,0,0:0:0:0:
109,192,34448,1,0,0:0:0:0:
256,192,34513,1,0,0:0:0:0:
182,192,34579,1,8,0:0:0:0:
36,192,34579,1,0,0:0:0:0:
402,192,34579,1,0,0:0:0:0:
329,192,34645,1,0,0:0:0:0:
402,192,34711,1,4,0:0:0:0:
475,192,34711,1,2,0:0:0:0:
256,192,34711,1,0,0:0:0:0:
109,192,34711,1,0,0:0:0:0:
36,192,34711,1,0,0:0:0:0:
182,192,34842,1,0,0:0:0:0:
329,192,34842,1,0,0:0:0:0:
256,192,34974,1,2,0:0:0:0:
402,192,34974,1,0,0:0:0:0:
475,192,34974,1,0,0:0:0:0:
36,192,34974,1,0,0:0:0:0:
109,192,35105,1,0,0:0:0:0:
182,192,35237,1,8,0:0:0:0:
329,192,35237,1,0,0:0:0:0:
402,192,35237,1,0,0:0:0:0:
475,192,35237,1,0,0:0:0:0:
36,192,35500,1,2,0:0:0:0:
109,192,35500,1,0,0:0:0:0:
256,192,35500,1,0,0:0:0:0:
402,192,35632,1,0,0:0:0:0:
329,192,35763,1,2,0:0:0:0:
109,192,35763,1,0,0:0:0:0:
36,192,35763,1,0,0:0:0:0:
182,192,35895,1,0,0:0:0:0:
402,192,35895,1,0,0:0:0:0:
475,192,36026,1,0,0:0:0:0:
256,192,36026,1,0,0:0:0:0:
109,192,36026,1,0,0:0:0:0:
36,192,36026,1,0,0:0:0:0:
329,192,36158,1,0,0:0:0:0:
182,192,36158,1,0,0:0:0:0:
256,192,36290,1,8,0:0:0:0:
475,192,36290,1,0,0:0:0:0:
109,192,36290,1,0,0:0:0:0:
36,192,36290,1,0,0:0:0:0:
329,192,36421,1,0,0:0:0:0:
182,192,36421,1,0,0:0:0:0:
402,192,36553,1,8,0:0:0:0:
256,192,36553,1,0,0:0:0:0:
109,192,36553,1,0,0:0:0:0:
36,192,36684,1,0,0:0:0:0:
182,192,36684,1,0,0:0:0:0:
402,192,36816,1,2,0:0:0:0:
109,192,36816,1,0,0:0:0:0:
475,192,36816,1,0,0:0:0:0:
256,192,36816,1,0,0:0:0:0:
329,192,36948,1,0,0:0:0:0:
182,192,37079,1,0,0:0:0:0:
402,192,37079,1,0,0:0:0:0:
36,192,37079,1,0,0:0:0:0:
475,192,37079,1,0,0:0:0:0:
256,192,37211,1,0,0:0:0:0:
109,192,37211,1,0,0:0:0:0:
182,192,37342,1,8,0:0:0:0:
329,192,37342,1,0,0:0:0:0:
475,192,37342,1,0,0:0:0:0:
36,192,37342,1,0,0:0:0:0:
256,192,37474,1,0,0:0:0:0:
402,192,37605,1,2,0:0:0:0:
475,192,37605,1,0,0:0:0:0:
109,192,37605,1,0,0:0:0:0:
36,192,37605,1,0,0:0:0:0:
182,192,37737,1,0,0:0:0:0:
329,192,37737,1,0,0:0:0:0:
256,192,37869,1,2,0:0:0:0:
109,192,37869,1,0,0:0:0:0:
402,192,37869,1,0,0:0:0:0:
36,192,37869,1,0,0:0:0:0:
109,192,38132,1,2,0:0:0:0:
182,192,38132,1,0,0:0:0:0:
329,192,38132,1,0,0:0:0:0:
475,192,38132,1,0,0:0:0:0:
475,192,38395,1,8,0:0:0:0:
402,192,38395,1,0,0:0:0:0:
256,192,38395,1,0,0:0:0:0:
36,192,38395,1,0,0:0:0:0:
182,192,38395,1,0,0:0:0:0:
36,192,38658,1,8,0:0:0:0:
109,192,38658,1,0,0:0:0:0:
256,192,38658,1,0,0:0:0:0:
329,192,38658,1,0,0:0:0:0:
475,192,38658,1,0,0:0:0:0:
182,192,38921,1,2,0:0:0:0:
36,192,38921,1,0,0:0:0:0:
402,192,38921,1,0,0:0:0:0:
475,192,38921,1,0,0:0:0:0:
329,192,39053,1,0,0:0:0:0:
109,192,39053,1,0,0:0:0:0:
36,192,39184,1,2,0:0:0:0:
402,192,39184,1,0,0:0:0:0:
256,192,39184,1,0,0:0:0:0:
475,192,39184,1,0,0:0:0:0:
109,192,39448,1,8,0:0:0:0:
182,192,39448,1,0,0:0:0:0:
329,192,39448,1,0,0:0:0:0:
475,192,39448,1,0,0:0:0:0:
36,192,39711,1,2,0:0:0:0:
109,192,39711,1,0,0:0:0:0:
182,192,39711,1,0,0:0:0:0:
329,192,39842,1,0,0:0:0:0:
475,192,39842,1,0,0:0:0:0:
182,192,39974,1,2,0:0:0:0:
109,192,39974,1,0,0:0:0:0:
36,192,39974,1,0,0:0:0:0:
256,192,40105,1,0,0:0:0:0:
402,192,40105,1,0,0:0:0:0:
109,192,40237,1,2,0:0:0:0:
329,192,40237,1,0,0:0:0:0:
475,192,40237,1,0,0:0:0:0:
36,192,40237,1,0,0:0:0:0:
182,192,40369,1,0,0:0:0:0:
402,192,40369,1,0,0:0:0:0:
256,192,40500,1,8,0:0:0:0:
329,192,40500,1,0,0:0:0:0:
475,192,40500,1,0,0:0:0:0:
36,192,40500,1,0,0:0:0:0:
182,192,40632,1,0,0:0:0:0:
402,192,40632,1,0,0:0:0:0:
109,192,40763,1,8,0:0:0:0:
329,192,40763,1,0,0:0:0:0:
256,192,40763,1,0,0:0:0:0:
36,192,40895,1,0,0:0:0:0:
182,192,40895,1,0,0:0:0:0:
109,192,41026,1,2,0:0:0:0:
402,192,41026,1,0,0:0:0:0:
475,192,41026,1,0,0:0:0:0:
329,192,41158,1,0,0:0:0:0:
256,192,41158,1,0,0:0:0:0:
36,192,41290,1,0,0:0:0:0:
182,192,41290,1,0,0:0:0:0:
402,192,41290,1,0,0:0:0:0:
109,192,41290,1,0,0:0:0:0:
256,192,41421,1,0,0:0:0:0:
329,192,41553,1,8,0:0:0:0:
475,192,41553,1,0,0:0:0:0:
36,192,41553,1,0,0:0:0:0:
182,192,41553,1,0,0:0:0:0:
109,192,41816,1,2,0:0:0:0:
256,192,41816,1,0,0:0:0:0:
402,192,41816,1,0,0:0:0:0:
329,192,41948,1,0,0:0:0:0:
182,192,41948,1,0,0:0:0:0:
256,192,42079,1,2,0:0:0:0:
36,192,42079,1,0,0:0:0:0:
402,192,42079,1,0,0:0:0:0:
109,192,42079,1,0,0:0:0:0:
475,192,42342,1,2,0:0:0:0:
329,192,42342,1,0,0:0:0:0:
182,192,42342,1,0,0:0:0:0:
36,192,42342,1,0,0:0:0:0:
109,192,42605,1,8,0:0:0:0:
256,192,42605,1,0,0:0:0:0:
329,192,42605,1,0,0:0:0:0:
182,192,42605,1,0,0:0:0:0:
402,192,42605,1,0,0:0:0:0:
475,192,42869,1,8,0:0:0:0:
402,192,42869,1,0,0:0:0:0:
256,192,42869,1,0,0:0:0:0:
109,192,42869,1,0,0:0:0:0:
36,192,42869,1,0,0:0:0:0:
182,192,43132,1,2,0:0:0:0:
36,192,43132,1,0,0:0:0:0:
329,192,43132,1,0,0:0:0:0:
475,192,43132,1,0,0:0:0:0:
402,192,43263,1,0,0:0:0:0:
256,192,43263,1,0,0:0:0:0:
329,192,43395,1,2,0:0:0:0:
109,192,43395,1,0,0:0:0:0:
36,192,43395,1,0,0:0:0:0:
475,192,43395,1,0,0:0:0:0:
256,192,43526,1,0,0:0:0:0:
402,192,43658,1,8,0:0:0:0:
182,192,43658,1,0,0:0:0:0:
109,192,43658,1,0,0:0:0:0:
36,192,43658,1,0,0:0:0:0:
475,192,43921,1,2,0:0:0:0:
402,192,43921,1,0,0:0:0:0:
256,192,43921,1,0,0:0:0:0:
109,192,44053,1,0,0:0:0:0:
182,192,44184,1,2,0:0:0:0:
402,192,44184,1,0,0:0:0:0:
475,192,44184,1,0,0:0:0:0:
329,192,44316,1,0,0:0:0:0:
109,192,44316,1,0,0:0:0:0:
36,192,44448,1,2,0:0:0:0:
256,192,44448,1,0,0:0:0:0:
402,192,44448,1,0,0:0:0:0:
475,192,44448,1,0,0:0:0:0:
182,192,44579,1,0,0:0:0:0:
329,192,44579,1,0,0:0:0:0:
256,192,44711,1,8,0:0:0:0:
36,192,44711,1,0,0:0:0:0:
402,192,44711,1,0,0:0:0:0:
475,192,44711,1,0,0:0:0:0:
182,192,44842,1,0,0:0:0:0:
329,192,44842,1,0,0:0:0:0:
109,192,44974,1,8,0:0:0:0:
256,192,44974,1,0,0:0:0:0:
402,192,44974,1,0,0:0:0:0:
475,192,45105,1,0,0:0:0:0:
329,192,45105,1,0,0:0:0:0:
109,192,45237,1,2,0:0:0:0:
402,192,45237,1,0,0:0:0:0:
36,192,45237,1,0,0:0:0:0:
256,192,45237,1,0,0:0:0:0:
182,192,45369,1,0,0:0:0:0:
329,192,45500,1,0,0:0:0:0:
109,192,45500,1,0,0:0:0:0:
475,192,45500,1,0,0:0:0:0:
36,192,45500,1,0,0:0:0:0:
256,192,45632,1,0,0:0:0:0:
402,192,45632,1,0,0:0:0:0:
329,192,45763,1,8,0:0:0:0:
182,192,45763,1,0,0:0:0:0:
36,192,45763,1,0,0:0:0:0:
475,192,45763,1,0,0:0:0:0:
256,192,45895,1,0,0:0:0:0:
109,192,46026,1,2,0:0:0:0:
36,192,46026,1,0,0:0:0:0:
402,192,46026,1,0,0:0:0:0:
475,192,46026,1,0,0:0:0:0:
329,192,46158,1,0,0:0:0:0:
182,192,46158,1,0,0:0:0:0:
256,192,46290,1,2,0:0:0:0:
402,192,46290,1,0,0:0:0:0:
109,192,46290,1,0,0:0:0:0:
475,192,46290,1,0,0:0:0:0:
402,192,46553,1,2,0:0:0:0:
329,192,46553,1,0,0:0:0:0:
182,192,46553,1,0,0:0:0:0:
36,192,46553,1,0,0:0:0:0:
36,192,46816,1,8,0:0:0:0:
109,192,46816,1,0,0:0:0:0:
256,192,46816,1,0,0:0:0:0:
475,192,46816,1,0,0:0:0:0:
329,192,46816,1,0,0:0:0:0:
475,192,47079,1,8,0:0:0:0:
402,192,47079,1,0,0:0:0:0:
256,192,47079,1,0,0:0:0:0:
182,192,47079,1,0,0:0:0:0:
36,192,47079,1,0,0:0:0:0:
329,192,47342,1,2,0:0:0:0:
475,192,47342,1,0,0:0:0:0:
109,192,47342,1,0,0:0:0:0:
36,192,47342,1,0,0:0:0:0:
182,192,47474,1,0,0:0:0:0:
402,192,47474,1,0,0:0:0:0:
475,192,47605,1,2,0:0:0:0:
109,192,47605,1,0,0:0:0:0:
256,192,47605,1,0,0:0:0:0:
36,192,47605,1,0,0:0:0:0:
402,192,47869,1,8,0:0:0:0:
329,192,47869,1,0,0:0:0:0:
182,192,47869,1,0,0:0:0:0:
36,192,47869,1,0,0:0:0:0:
475,192,48132,1,2,0:0:0:0:
402,192,48132,1,0,0:0:0:0:
329,192,48132,1,0,0:0:0:0:
182,192,48263,1,0,0:0:0:0:
36,192,48263,1,0,0:0:0:0:
329,192,48395,1,2,0:0:0:0:
402,192,48395,1,0,0:0:0:0:
475,192,48395,1,0,0:0:0:0:
256,192,48526,1,0,0:0:0:0:
109,192,48526,1,0,0:0:0:0:
402,192,48658,1,2,0:0:0:0:
182,192,48658,1,0,0:0:0:0:
36,192,48658,1,0,0:0:0:0:
475,192,48658,1,0,0:0:0:0:
329,192,48790,1,0,0:0:0:0:
109,192,48790,1,0,0:0:0:0:
256,192,48921,1,8,0:0:0:0:
182,192,48921,1,0,0:0:0:0:
36,192,48921,1,0,0:0:0:0:
475,192,48921,1,0,0:0:0:0:
329,192,49053,1,0,0:0:0:0:
109,192,49053,1,0,0:0:0:0:
402,192,49184,1,8,0:0:0:0:
182,192,49184,1,0,0:0:0:0:
256,192,49184,1,0,0:0:0:0:
475,192,49316,1,0,0:0:0:0:
329,192,49316,1,0,0:0:0:0:
402,192,49448,1,2,0:0:0:0:
109,192,49448,1,0,0:0:0:0:
36,192,49448,1,0,0:0:0:0:
182,192,49579,1,0,0:0:0:0:
256,192,49579,1,0,0:0:0:0:
475,192,49711,1,0,0:0:0:0:
329,192,49711,1,0,0:0:0:0:
109,192,49711,1,0,0:0:0:0:
402,192,49711,1,0,0:0:0:0:
256,192,49842,1,0,0:0:0:0:
182,192,49974,1,8,0:0:0:0:
36,192,49974,1,0,0:0:0:0:
475,192,49974,1,0,0:0:0:0:
329,192,49974,1,0,0:0:0:0:
402,192,50237,1,2,0:0:0:0:
256,192,50237,1,0,0:0:0:0:
109,192,50237,1,0,0:0:0:0:
182,192,50369,1,0,0:0:0:0:
329,192,50369,1,0,0:0:0:0:
256,192,50500,1,2,0:0:0:0:
475,192,50500,1,0,0:0:0:0:
109,192,50500,1,0,0:0:0:0:
402,192,50500,1,0,0:0:0:0:
36,192,50763,1,2,0:0:0:0:
182,192,50763,1,0,0:0:0:0:
329,192,50763,1,0,0:0:0:0:
475,192,50763,1,0,0:0:0:0:
402,192,51026,1,8,0:0:0:0:
256,192,51026,1,0,0:0:0:0:
182,192,51026,1,0,0:0:0:0:
329,192,51026,1,0,0:0:0:0:
109,192,51026,1,0,0:0:0:0:
36,192,51290,1,8,0:0:0:0:
109,192,51290,1,0,0:0:0:0:
256,192,51290,1,0,0:0:0:0:
402,192,51290,1,0,0:0:0:0:
475,192,51290,1,0,0:0:0:0:
182,192,51553,1,2,0:0:0:0:
36,192,51553,1,0,0:0:0:0:
329,192,51553,1,0,0:0:0:0:
475,192,51553,1,0,0:0:0:0:
256,192,52079,1,0,0:0:0:0:
256,192,52342,1,2,0:0:0:0:
109,192,52342,1,0,0:0:0:0:
329,192,52342,1,0,0:0:0:0:
36,192,52342,1,0,0:0:0:0:
109,192,52605,1,2,0:0:0:0:
182,192,52605,1,0,0:0:0:0:
329,192,52605,1,0,0:0:0:0:
402,192,52605,1,0,0:0:0:0:
256,192,52869,1,0,0:0:0:0:
329,192,53132,1,8,0:0:0:0:
475,192,53132,1,0,0:0:0:0:
109,192,53132,1,0,0:0:0:0:
36,192,53132,1,0,0:0:0:0:
36,192,53658,1,2,0:0:0:0:
109,192,53658,1,2,0:0:0:0:
182,192,53658,1,0,0:0:0:0:
329,192,53658,1,0,0:0:0:0:
256,192,53658,1,0,0:0:0:0:
109,192,54097,1,2,0:0:0:0:
182,192,54097,1,2,0:0:0:0:
256,192,54097,1,0,0:0:0:0:
329,192,54097,1,0,0:0:0:0:
402,192,54097,1,0,0:0:0:0:
182,192,54448,1,2,0:0:0:0:
256,192,54448,1,8,0:0:0:0:
329,192,54448,1,0,0:0:0:0:
402,192,54448,1,0,0:0:0:0:
475,192,54448,1,0,0:0:0:0:
36,192,54711,1,2,0:0:0:0:
109,192,54711,1,0,0:0:0:0:
329,192,54711,1,0,0:0:0:0:
402,192,54711,1,0,0:0:0:0:
256,192,54974,1,0,0:0:0:0:
182,192,55237,1,8,0:0:0:0:
329,192,55237,1,0,0:0:0:0:
256,192,55763,1,2,0:0:0:0:
36,192,55763,1,0,0:0:0:0:
475,192,55763,1,0,0:0:0:0:
182,192,56290,1,8,0:0:0:0:
329,192,56290,1,0,0:0:0:0:
402,192,56290,1,0,0:0:0:0:
36,192,56290,1,0,0:0:0:0:
256,192,56553,1,2,0:0:0:0:
109,192,56553,1,0,0:0:0:0:
475,192,56816,1,2,0:0:0:0:
256,192,56816,1,0,0:0:0:0:
109,192,56816,1,0,0:0:0:0:
402,192,56816,1,0,0:0:0:0:
329,192,57079,1,0,0:0:0:0:
329,192,57342,1,8,0:0:0:0:
182,192,57342,1,0,0:0:0:0:
36,192,57342,1,0,0:0:0:0:
402,192,57342,1,0,0:0:0:0:
109,192,57605,1,0,0:0:0:0:
36,192,57869,1,2,0:0:0:0:
182,192,57869,1,2,0:0:0:0:
256,192,57869,1,0,0:0:0:0:
329,192,57869,1,0,0:0:0:0:
475,192,57869,1,0,0:0:0:0:
475,192,58132,1,2,0:0:0:0:
402,192,58132,1,2,0:0:0:0:
256,192,58132,1,0,0:0:0:0:
109,192,58132,1,0,0:0:0:0:
36,192,58132,1,0,0:0:0:0:
109,192,58395,1,2,0:0:0:0:
182,192,58395,1,2,0:0:0:0:
256,192,58395,1,0,0:0:0:0:
329,192,58395,1,0,0:0:0:0:
402,192,58395,1,0,0:0:0:0:
36,192,58658,1,8,0:0:0:0:
109,192,58658,1,2,0:0:0:0:
182,192,58658,1,0,0:0:0:0:
329,192,58658,1,0,0:0:0:0:
402,192,58658,1,0,0:0:0:0:
475,192,58658,1,0,0:0:0:0:
182,192,58921,1,2,0:0:0:0:
329,192,58921,1,0,0:0:0:0:
402,192,59184,1,0,0:0:0:0:
109,192,59448,1,8,0:0:0:0:
36,192,59711,1,0,0:0:0:0:
182,192,59711,1,0,0:0:0:0:
256,192,59711,1,0,0:0:0:0:
402,192,59711,1,0,0:0:0:0:
109,192,59974,1,2,0:0:0:0:
329,192,59974,1,0,0:0:0:0:
475,192,59974,1,0,0:0:0:0:
402,192,59974,1,0,0:0:0:0:
182,192,59974,1,0,0:0:0:0:
402,192,60237,1,2,0:0:0:0:
329,192,60237,1,0,0:0:0:0:
256,192,60237,1,0,0:0:0:0:
109,192,60237,1,0,0:0:0:0:
36,192,60237,1,0,0:0:0:0:
36,192,60500,1,8,0:0:0:0:
182,192,60500,1,0,0:0:0:0:
256,192,60500,1,0,0:0:0:0:
329,192,60500,1,0,0:0:0:0:
475,192,60500,1,0,0:0:0:0:
109,192,60763,1,8,0:0:0:0:
182,192,60763,1,0,0:0:0:0:
256,192,60763,1,0,0:0:0:0:
402,192,60763,1,0,0:0:0:0:
475,192,60763,1,0,0:0:0:0:
329,192,61026,1,2,0:0:0:0:
475,192,61026,1,0,0:0:0:0:
36,192,61026,1,0,0:0:0:0:
256,192,61158,1,0,0:0:0:0:
109,192,61158,1,0,0:0:0:0:
402,192,61290,1,2,0:0:0:0:
36,192,61290,1,0,0:0:0:0:
182,192,61290,1,0,0:0:0:0:
329,192,61553,1,2,0:0:0:0:
256,192,61553,1,8,0:0:0:0:
475,192,61553,1,0,0:0:0:0:
109,192,61553,1,0,0:0:0:0:
36,192,61553,1,0,0:0:0:0:
182,192,61816,1,8,0:0:0:0:
402,192,61816,1,0,0:0:0:0:
475,192,62079,1,2,0:0:0:0:
402,192,62079,1,0,0:0:0:0:
329,192,62079,1,0,0:0:0:0:
256,192,62079,1,0,0:0:0:0:
109,192,62079,1,0,0:0:0:0:
182,192,62342,1,2,0:0:0:0:
256,192,62342,1,0,0:0:0:0:
329,192,62342,1,0,0:0:0:0:
475,192,62342,1,0,0:0:0:0:
36,192,62342,1,0,0:0:0:0:
36,192,62605,1,0,0:0:0:0:
182,192,62605,1,0,0:0:0:0:
402,192,62605,1,0,0:0:0:0:
475,192,62605,1,0,0:0:0:0:
109,192,62605,1,0,0:0:0:0:
36,192,62869,1,8,0:0:0:0:
256,192,62869,1,0,0:0:0:0:
329,192,62869,1,0,0:0:0:0:
109,192,62869,1,0,0:0:0:0:
402,192,62869,1,0,0:0:0:0:
182,192,63132,1,2,0:0:0:0:
36,192,63132,1,0,0:0:0:0:
475,192,63132,1,0,0:0:0:0:
329,192,63132,1,0,0:0:0:0:
256,192,63263,1,0,0:0:0:0:
402,192,63395,1,2,0:0:0:0:
109,192,63395,1,0,0:0:0:0:
36,192,63658,1,8,0:0:0:0:
182,192,63658,1,2,0:0:0:0:
256,192,63658,1,0,0:0:0:0:
329,192,63658,1,0,0:0:0:0:
475,192,63658,1,0,0:0:0:0:
256,192,63921,1,0,0:0:0:0:
182,192,64184,1,2,0:0:0:0:
109,192,64184,1,0,0:0:0:0:
36,192,64184,1,0,0:0:0:0:
329,192,64184,1,0,0:0:0:0:
402,192,64184,1,0,0:0:0:0:
109,192,64448,1,2,0:0:0:0:
182,192,64448,1,0,0:0:0:0:
402,192,64448,1,0,0:0:0:0:
475,192,64448,1,0,0:0:0:0:
256,192,64448,1,0,0:0:0:0:
329,192,64711,1,0,0:0:0:0:
475,192,64711,1,0,0:0:0:0:
36,192,64711,1,0,0:0:0:0:
402,192,64974,1,8,0:0:0:0:
256,192,64974,1,0,0:0:0:0:
109,192,64974,1,0,0:0:0:0:
182,192,64974,1,0,0:0:0:0:
36,192,65237,1,2,0:0:0:0:
109,192,65237,1,0,0:0:0:0:
329,192,65237,1,0,0:0:0:0:
402,192,65237,1,0,0:0:0:0:
475,192,65237,1,0,0:0:0:0:
109,192,65500,1,2,0:0:0:0:
182,192,65500,1,0,0:0:0:0:
402,192,65500,1,0,0:0:0:0:
475,192,65500,1,0,0:0:0:0:
36,192,65500,1,0,0:0:0:0:
329,192,65763,1,0,0:0:0:0:
36,192,65763,1,0,0:0:0:0:
182,192,65763,1,0,0:0:0:0:
256,192,65763,1,0,0:0:0:0:
475,192,66026,1,8,0:0:0:0:
109,192,66026,1,0,0:0:0:0:
256,192,66026,1,0,0:0:0:0:
329,192,66026,1,0,0:0:0:0:
402,192,66290,1,0,0:0:0:0:
182,192,66290,1,0,0:0:0:0:
36,192,66290,1,0,0:0:0:0:
475,192,66290,1,0,0:0:0:0:
182,192,66421,1,0,0:0:0:0:
36,192,66421,1,0,0:0:0:0:
329,192,66553,1,0,0:0:0:0:
475,192,66553,1,0,0:0:0:0:
329,192,66684,1,0,0:0:0:0:
475,192,66684,1,0,0:0:0:0:
256,192,66816,1,0,0:0:0:0:
109,192,66816,1,0,0:0:0:0:
402,192,66882,1,0,0:0:0:0:
109,192,66948,1,0,0:0:0:0:
402,192,67013,1,0,0:0:0:0:
182,192,67079,1,0,0:0:0:0:
36,192,67079,1,0,0:0:0:0:
475,192,67145,1,0,0:0:0:0:
182,192,67211,1,0,0:0:0:0:
475,192,67276,1,0,0:0:0:0:
182,192,67342,1,0,0:0:0:0:
475,192,67408,1,0,0:0:0:0:
182,192,67474,1,0,0:0:0:0:
475,192,67540,1,0,0:0:0:0:
182,192,67605,1,0,0:0:0:0:
36,192,67605,1,0,0:0:0:0:
475,192,67737,1,0,0:0:0:0:
109,192,67869,1,0,0:0:0:0:
256,192,67869,1,0,0:0:0:0:
475,192,68000,1,0,0:0:0:0:
182,192,68132,1,0,0:0:0:0:
329,192,68132,1,0,0:0:0:0:
36,192,68395,1,2,0:0:0:0:
109,192,68395,1,0,0:0:0:0:
256,192,68395,1,0,0:0:0:0:
402,192,68395,1,0,0:0:0:0:
182,192,68461,1,0,0:0:0:0:
109,192,68526,1,2,0:0:0:0:
329,192,68526,1,0,0:0:0:0:
256,192,68658,1,8,0:0:0:0:
475,192,68658,1,0,0:0:0:0:
182,192,68790,1,0,0:0:0:0:
402,192,68855,1,0,0:0:0:0:
329,192,68921,1,2,0:0:0:0:
109,192,68921,1,0,0:0:0:0:
36,192,68921,1,0,0:0:0:0:
256,192,68987,1,0,0:0:0:0:
475,192,69053,1,2,0:0:0:0:
182,192,69184,1,8,0:0:0:0:
329,192,69184,1,0,0:0:0:0:
36,192,69184,1,0,0:0:0:0:
475,192,69316,1,0,0:0:0:0:
402,192,69448,1,2,0:0:0:0:
256,192,69448,1,0,0:0:0:0:
109,192,69448,1,0,0:0:0:0:
36,192,69448,1,0,0:0:0:0:
329,192,69513,1,0,0:0:0:0:
182,192,69579,1,2,0:0:0:0:
329,192,69645,1,0,0:0:0:0:
256,192,69711,1,8,0:0:0:0:
475,192,69711,1,0,0:0:0:0:
402,192,69711,1,0,0:0:0:0:
109,192,69711,1,0,0:0:0:0:
109,192,69842,1,0,0:0:0:0:
182,192,69974,1,2,0:0:0:0:
36,192,69974,1,0,0:0:0:0:
402,192,69974,1,0,0:0:0:0:
329,192,69974,1,0,0:0:0:0:
402,192,70105,1,2,0:0:0:0:
256,192,70237,1,8,0:0:0:0:
109,192,70237,1,0,0:0:0:0:
36,192,70237,1,0,0:0:0:0:
329,192,70237,1,0,0:0:0:0:
256,192,70369,1,0,0:0:0:0:
475,192,70500,1,2,0:0:0:0:
402,192,70500,1,0,0:0:0:0:
182,192,70500,1,0,0:0:0:0:
36,192,70500,1,0,0:0:0:0:
36,192,70632,1,2,0:0:0:0:
182,192,70632,1,0,0:0:0:0:
109,192,70763,1,2,0:0:0:0:
256,192,70763,1,0,0:0:0:0:
329,192,70763,1,0,0:0:0:0:
475,192,70763,1,0,0:0:0:0:
329,192,70895,1,2,0:0:0:0:
475,192,70895,1,0,0:0:0:0:
182,192,70961,1,0,0:0:0:0:
109,192,71026,1,2,0:0:0:0:
36,192,71026,1,0,0:0:0:0:
256,192,71026,1,0,0:0:0:0:
402,192,71026,1,0,0:0:0:0:
109,192,71158,1,2,0:0:0:0:
256,192,71158,1,0,0:0:0:0:
329,192,71290,1,2,0:0:0:0:
402,192,71290,1,8,0:0:0:0:
475,192,71290,1,0,0:0:0:0:
182,192,71290,1,0,0:0:0:0:
36,192,71290,1,0,0:0:0:0:
329,192,71421,1,2,0:0:0:0:
182,192,71421,1,0,0:0:0:0:
256,192,71553,1,2,0:0:0:0:
402,192,71553,1,0,0:0:0:0:
109,192,71553,1,0,0:0:0:0:
256,192,71684,1,2,0:0:0:0:
402,192,71684,1,0,0:0:0:0:
109,192,71684,1,0,0:0:0:0:
182,192,71816,1,2,0:0:0:0:
329,192,71816,1,0,0:0:0:0:
475,192,71816,1,0,0:0:0:0:
36,192,71816,1,0,0:0:0:0:
36,192,71948,1,2,0:0:0:0:
182,192,71948,1,0,0:0:0:0:
329,192,71948,1,0,0:0:0:0:
475,192,71948,1,0,0:0:0:0:
36,192,72079,1,2,0:0:0:0:
109,192,72079,1,2,0:0:0:0:
256,192,72079,1,0,0:0:0:0:
402,192,72145,1,0,0:0:0:0:
475,192,72145,1,0,0:0:0:0:
109,192,72211,1,2,0:0:0:0:
36,192,72211,1,2,0:0:0:0:
256,192,72211,1,0,0:0:0:0:
402,192,72276,1,0,0:0:0:0:
475,192,72276,1,0,0:0:0:0:
36,192,72342,1,2,0:0:0:0:
109,192,72342,1,2,0:0:0:0:
182,192,72342,1,0,0:0:0:0:
475,192,72408,1,0,0:0:0:0:
329,192,72408,1,0,0:0:0:0:
36,192,72474,1,2,0:0:0:0:
109,192,72474,1,2,0:0:0:0:
182,192,72474,1,0,0:0:0:0:
329,192,72540,1,0,0:0:0:0:
475,192,72540,1,0,0:0:0:0:
182,192,72605,1,2,0:0:0:0:
109,192,72605,1,4,0:0:0:0:
36,192,72605,1,2,0:0:0:0:
402,192,72605,1,0,0:0:0:0:
256,192,72737,1,2,0:0:0:0:
475,192,72737,1,0,0:0:0:0:
182,192,72803,1,0,0:0:0:0:
36,192,72869,1,2,0:0:0:0:
109,192,72869,1,0,0:0:0:0:
329,192,72869,1,0,0:0:0:0:
256,192,72934,1,0,0:0:0:0:
402,192,73000,1,2,0:0:0:0:
475,192,73000,1,0,0:0:0:0:
182,192,73000,1,0,0:0:0:0:
329,192,73066,1,0,0:0:0:0:
109,192,73132,1,2,0:0:0:0:
36,192,73132,1,0,0:0:0:0:
256,192,73132,1,0,0:0:0:0:
402,192,73198,1,0,0:0:0:0:
182,192,73263,1,2,0:0:0:0:
36,192,73263,1,0,0:0:0:0:
475,192,73263,1,0,0:0:0:0:
256,192,73329,1,0,0:0:0:0:
329,192,73395,1,2,0:0:0:0:
109,192,73395,1,0,0:0:0:0:
402,192,73395,1,0,0:0:0:0:
182,192,73461,1,0,0:0:0:0:
256,192,73526,1,2,0:0:0:0:
36,192,73526,1,0,0:0:0:0:
475,192,73526,1,0,0:0:0:0:
402,192,73592,1,0,0:0:0:0:
329,192,73658,1,2,0:0:0:0:
182,192,73658,1,0,0:0:0:0:
109,192,73658,1,0,0:0:0:0:
475,192,73724,1,0,0:0:0:0:
36,192,73790,1,2,0:0:0:0:
256,192,73790,1,0,0:0:0:0:
402,192,73790,1,0,0:0:0:0:
109,192,73855,1,0,0:0:0:0:
182,192,73921,1,2,0:0:0:0:
329,192,73921,1,0,0:0:0:0:
475,192,73921,1,0,0:0:0:0:
109,192,73987,1,0,0:0:0:0:
256,192,74053,1,2,0:0:0:0:
36,192,74053,1,0,0:0:0:0:
402,192,74053,1,0,0:0:0:0:
329,192,74119,1,0,0:0:0:0:
182,192,74184,1,2,0:0:0:0:
402,192,74184,1,0,0:0:0:0:
475,192,74184,1,0,0:0:0:0:
109,192,74316,1,2,0:0:0:0:
329,192,74316,1,0,0:0:0:0:
475,192,74316,1,0,0:0:0:0:
182,192,74382,1,0,0:0:0:0:
36,192,74448,1,2,0:0:0:0:
256,192,74448,1,8,0:0:0:0:
402,192,74448,1,0,0:0:0:0:
109,192,74448,1,0,0:0:0:0:
329,192,74513,1,0,0:0:0:0:
475,192,74579,1,2,0:0:0:0:
182,192,74579,1,0,0:0:0:0:
402,192,74579,1,0,0:0:0:0:
256,192,74645,1,0,0:0:0:0:
329,192,74711,1,2,0:0:0:0:
109,192,74711,1,0,0:0:0:0:
36,192,74711,1,0,0:0:0:0:
475,192,74776,1,0,0:0:0:0:
402,192,74842,1,2,0:0:0:0:
256,192,74842,1,0,0:0:0:0:
182,192,74842,1,0,0:0:0:0:
36,192,74908,1,0,0:0:0:0:
329,192,74974,1,2,0:0:0:0:
475,192,74974,1,2,0:0:0:0:
109,192,74974,1,0,0:0:0:0:
182,192,75040,1,2,0:0:0:0:
402,192,75040,1,2,0:0:0:0:
109,192,75105,1,2,0:0:0:0:
256,192,75105,1,2,0:0:0:0:
36,192,75105,1,0,0:0:0:0:
329,192,75171,1,2,0:0:0:0:
182,192,75171,1,2,0:0:0:0:
109,192,75237,1,2,0:0:0:0:
36,192,75237,1,0,0:0:0:0:
402,192,75237,1,0,0:0:0:0:
256,192,75303,1,0,0:0:0:0:
182,192,75369,1,2,0:0:0:0:
329,192,75369,1,0,0:0:0:0:
475,192,75369,1,0,0:0:0:0:
109,192,75434,1,0,0:0:0:0:
256,192,75500,1,2,0:0:0:0:
402,192,75500,1,2,0:0:0:0:
36,192,75500,1,0,0:0:0:0:
475,192,75500,1,0,0:0:0:0:
109,192,75566,1,2,0:0:0:0:
182,192,75566,1,2,0:0:0:0:
329,192,75632,1,2,0:0:0:0:
402,192,75632,1,2,0:0:0:0:
475,192,75632,1,2,0:0:0:0:
109,192,75698,1,2,0:0:0:0:
36,192,75698,1,2,0:0:0:0:
475,192,75763,1,2,0:0:0:0:
402,192,75763,1,0,0:0:0:0:
256,192,75763,1,0,0:0:0:0:
182,192,75829,1,0,0:0:0:0:
109,192,75895,1,2,0:0:0:0:
36,192,75895,1,0,0:0:0:0:
329,192,75895,1,0,0:0:0:0:
402,192,75961,1,0,0:0:0:0:
36,192,76026,1,2,0:0:0:0:
475,192,76026,1,0,0:0:0:0:
256,192,76026,1,0,0:0:0:0:
182,192,76092,1,0,0:0:0:0:
329,192,76158,1,2,0:0:0:0:
109,192,76158,1,0,0:0:0:0:
402,192,76158,1,0,0:0:0:0:
256,192,76224,1,0,0:0:0:0:
182,192,76290,1,2,0:0:0:0:
475,192,76290,1,2,0:0:0:0:
36,192,76290,1,0,0:0:0:0:
109,192,76290,1,0,0:0:0:0:
329,192,76355,1,2,0:0:0:0:
402,192,76355,1,2,0:0:0:0:
256,192,76421,1,2,0:0:0:0:
182,192,76421,1,2,0:0:0:0:
109,192,76421,1,0,0:0:0:0:
402,192,76487,1,2,0:0:0:0:
475,192,76487,1,2,0:0:0:0:
182,192,76553,1,2,0:0:0:0:
256,192,76553,1,2,0:0:0:0:
329,192,76553,1,0,0:0:0:0:
109,192,76619,1,2,0:0:0:0:
36,192,76619,1,2,0:0:0:0:
256,192,76684,1,2,0:0:0:0:
329,192,76684,1,2,0:0:0:0:
402,192,76684,1,0,0:0:0:0:
182,192,76750,1,2,0:0:0:0:
109,192,76750,1,2,0:0:0:0:
475,192,76816,1,4,0:0:0:0:
402,192,76816,1,2,0:0:0:0:
329,192,76816,1,0,0:0:0:0:
36,192,76816,1,0,0:0:0:0:
256,192,76882,1,0,0:0:0:0:
402,192,76948,1,2,0:0:0:0:
182,192,76948,1,0,0:0:0:0:
329,192,77013,1,0,0:0:0:0:
109,192,77079,1,2,0:0:0:0:
36,192,77079,1,0,0:0:0:0:
256,192,77079,1,0,0:0:0:0:
182,192,77145,1,0,0:0:0:0:
256,192,77211,1,2,0:0:0:0:
475,192,77211,1,0,0:0:0:0:
402,192,77211,1,0,0:0:0:0:
36,192,77276,1,0,0:0:0:0:
329,192,77342,1,2,0:0:0:0:
475,192,77342,1,0,0:0:0:0:
109,192,77342,1,0,0:0:0:0:
182,192,77408,1,0,0:0:0:0:
36,192,77474,1,2,0:0:0:0:
402,192,77474,1,0,0:0:0:0:
256,192,77474,1,0,0:0:0:0:
329,192,77540,1,0,0:0:0:0:
109,192,77605,1,2,0:0:0:0:
475,192,77605,1,0,0:0:0:0:
182,192,77605,1,0,0:0:0:0:
256,192,77671,1,0,0:0:0:0:
36,192,77737,1,2,0:0:0:0:
109,192,77737,1,0,0:0:0:0:
402,192,77737,1,0,0:0:0:0:
329,192,77803,1,0,0:0:0:0:
182,192,77869,1,2,0:0:0:0:
36,192,77869,1,0,0:0:0:0:
402,192,77869,1,0,0:0:0:0:
256,192,77934,1,0,0:0:0:0:
402,192,78000,1,2,0:0:0:0:
475,192,78000,1,0,0:0:0:0:
109,192,78000,1,0,0:0:0:0:
182,192,78066,1,0,0:0:0:0:
109,192,78132,1,2,0:0:0:0:
36,192,78132,1,0,0:0:0:0:
329,192,78132,1,0,0:0:0:0:
256,192,78198,1,0,0:0:0:0:
402,192,78263,1,2,0:0:0:0:
182,192,78263,1,0,0:0:0:0:
475,192,78263,1,0,0:0:0:0:
329,192,78329,1,0,0:0:0:0:
109,192,78395,1,2,0:0:0:0:
36,192,78395,1,0,0:0:0:0:
402,192,78395,1,0,0:0:0:0:
329,192,78526,1,2,0:0:0:0:
475,192,78526,1,0,0:0:0:0:
182,192,78526,1,0,0:0:0:0:
109,192,78592,1,0,0:0:0:0:
402,192,78658,1,8,0:0:0:0:
256,192,78658,1,2,0:0:0:0:
475,192,78658,1,0,0:0:0:0:
36,192,78658,1,0,0:0:0:0:
182,192,78724,1,0,0:0:0:0:
329,192,78790,1,2,0:0:0:0:
475,192,78790,1,0,0:0:0:0:
109,192,78790,1,0,0:0:0:0:
256,192,78855,1,0,0:0:0:0:
182,192,78921,1,2,0:0:0:0:
402,192,78921,1,0,0:0:0:0:
36,192,78921,1,0,0:0:0:0:
109,192,78987,1,0,0:0:0:0:
329,192,79053,1,2,0:0:0:0:
256,192,79053,1,0,0:0:0:0:
475,192,79053,1,0,0:0:0:0:
182,192,79119,1,0,0:0:0:0:
329,192,79184,1,2,0:0:0:0:
109,192,79184,1,2,0:0:0:0:
402,192,79184,1,0,0:0:0:0:
36,192,79250,1,2,0:0:0:0:
256,192,79250,1,2,0:0:0:0:
402,192,79316,1,2,0:0:0:0:
182,192,79316,1,2,0:0:0:0:
475,192,79316,1,0,0:0:0:0:
109,192,79382,1,2,0:0:0:0:
329,192,79382,1,2,0:0:0:0:
256,192,79448,1,2,0:0:0:0:
36,192,79448,1,0,0:0:0:0:
475,192,79448,1,0,0:0:0:0:
329,192,79513,1,0,0:0:0:0:
182,192,79579,1,2,0:0:0:0:
109,192,79579,1,0,0:0:0:0:
402,192,79579,1,0,0:0:0:0:
256,192,79645,1,0,0:0:0:0:
329,192,79711,1,2,0:0:0:0:
475,192,79711,1,2,0:0:0:0:
36,192,79711,1,0,0:0:0:0:
109,192,79711,1,0,0:0:0:0:
182,192,79776,1,2,0:0:0:0:
402,192,79776,1,2,0:0:0:0:
109,192,79842,1,2,0:0:0:0:
36,192,79842,1,2,0:0:0:0:
256,192,79842,1,0,0:0:0:0:
182,192,79908,1,2,0:0:0:0:
329,192,79908,1,2,0:0:0:0:
109,192,79974,1,2,0:0:0:0:
36,192,79974,1,0,0:0:0:0:
402,192,79974,1,0,0:0:0:0:
256,192,80040,1,0,0:0:0:0:
182,192,80105,1,2,0:0:0:0:
475,192,80105,1,0,0:0:0:0:
329,192,80105,1,0,0:0:0:0:
109,192,80171,1,0,0:0:0:0:
402,192,80237,1,2,0:0:0:0:
36,192,80237,1,0,0:0:0:0:
256,192,80237,1,0,0:0:0:0:
329,192,80303,1,0,0:0:0:0:
182,192,80369,1,2,0:0:0:0:
109,192,80369,1,0,0:0:0:0:
402,192,80369,1,0,0:0:0:0:
256,192,80434,1,0,0:0:0:0:
329,192,80500,1,2,0:0:0:0:
36,192,80500,1,2,0:0:0:0:
109,192,80500,1,0,0:0:0:0:
475,192,80566,1,2,0:0:0:0:
402,192,80566,1,2,0:0:0:0:
256,192,80632,1,2,0:0:0:0:
182,192,80632,1,2,0:0:0:0:
329,192,80632,1,0,0:0:0:0:
109,192,80698,1,2,0:0:0:0:
36,192,80698,1,2,0:0:0:0:
402,192,80763,1,2,0:0:0:0:
475,192,80763,1,2,0:0:0:0:
256,192,80763,1,0,0:0:0:0:
329,192,80829,1,2,0:0:0:0:
182,192,80829,1,2,0:0:0:0:
109,192,80895,1,2,0:0:0:0:
36,192,80895,1,2,0:0:0:0:
256,192,80895,1,0,0:0:0:0:
182,192,80961,1,2,0:0:0:0:
329,192,80961,1,2,0:0:0:0:
402,192,81026,1,2,0:0:0:0:
475,192,81026,1,4,0:0:0:0:
256,192,81026,1,0,0:0:0:0:
36,192,81026,1,0,0:0:0:0:
109,192,81026,1,0,0:0:0:0:
182,192,81158,1,2,0:0:0:0:
329,192,81158,1,0,0:0:0:0:
36,192,81224,1,0,0:0:0:0:
402,192,81290,1,2,0:0:0:0:
256,192,81290,1,0,0:0:0:0:
109,192,81290,1,0,0:0:0:0:
182,192,81355,1,0,0:0:0:0:
36,192,81421,1,2,0:0:0:0:
329,192,81421,1,0,0:0:0:0:
475,192,81421,1,0,0:0:0:0:
256,192,81487,1,0,0:0:0:0:
402,192,81553,1,2,0:0:0:0:
475,192,81553,1,0,0:0:0:0:
182,192,81553,1,0,0:0:0:0:
36,192,81619,1,0,0:0:0:0:
329,192,81684,1,2,0:0:0:0:
402,192,81684,1,0,0:0:0:0:
109,192,81684,1,0,0:0:0:0:
182,192,81750,1,0,0:0:0:0:
109,192,81816,1,2,0:0:0:0:
475,192,81816,1,0,0:0:0:0:
256,192,81816,1,0,0:0:0:0:
329,192,81882,1,0,0:0:0:0:
256,192,81948,1,2,0:0:0:0:
36,192,81948,1,0,0:0:0:0:
402,192,81948,1,0,0:0:0:0:
109,192,82013,1,0,0:0:0:0:
182,192,82079,1,2,0:0:0:0:
329,192,82079,1,0,0:0:0:0:
402,192,82079,1,0,0:0:0:0:
36,192,82145,1,0,0:0:0:0:
475,192,82211,1,2,0:0:0:0:
256,192,82211,1,0,0:0:0:0:
109,192,82211,1,0,0:0:0:0:
402,192,82276,1,0,0:0:0:0:
329,192,82342,1,2,0:0:0:0:
182,192,82342,1,0,0:0:0:0:
36,192,82342,1,0,0:0:0:0:
402,192,82408,1,0,0:0:0:0:
256,192,82474,1,2,0:0:0:0:
475,192,82474,1,0,0:0:0:0:
109,192,82474,1,0,0:0:0:0:
182,192,82540,1,0,0:0:0:0:
329,192,82605,1,2,0:0:0:0:
109,192,82605,1,0,0:0:0:0:
36,192,82605,1,0,0:0:0:0:
402,192,82737,1,2,0:0:0:0:
182,192,82737,1,0,0:0:0:0:
36,192,82737,1,0,0:0:0:0:
329,192,82803,1,0,0:0:0:0:
475,192,82869,1,8,0:0:0:0:
256,192,82869,1,2,0:0:0:0:
109,192,82869,1,0,0:0:0:0:
402,192,82869,1,0,0:0:0:0:
182,192,82934,1,0,0:0:0:0:
36,192,83000,1,2,0:0:0:0:
329,192,83000,1,0,0:0:0:0:
109,192,83000,1,0,0:0:0:0:
256,192,83066,1,0,0:0:0:0:
182,192,83132,1,2,0:0:0:0:
402,192,83132,1,0,0:0:0:0:
475,192,83132,1,0,0:0:0:0:
36,192,83198,1,0,0:0:0:0:
109,192,83263,1,2,0:0:0:0:
256,192,83263,1,0,0:0:0:0:
329,192,83263,1,0,0:0:0:0:
475,192,83329,1,0,0:0:0:0:
182,192,83395,1,2,0:0:0:0:
36,192,83395,1,2,0:0:0:0:
402,192,83395,1,0,0:0:0:0:
329,192,83461,1,2,0:0:0:0:
109,192,83461,1,2,0:0:0:0:
402,192,83526,1,2,0:0:0:0:
256,192,83526,1,2,0:0:0:0:
475,192,83526,1,0,0:0:0:0:
182,192,83592,1,2,0:0:0:0:
329,192,83592,1,2,0:0:0:0:
402,192,83658,1,2,0:0:0:0:
475,192,83658,1,0,0:0:0:0:
109,192,83658,1,0,0:0:0:0:
256,192,83724,1,0,0:0:0:0:
329,192,83790,1,2,0:0:0:0:
182,192,83790,1,0,0:0:0:0:
36,192,83790,1,0,0:0:0:0:
402,192,83855,1,0,0:0:0:0:
256,192,83921,1,2,0:0:0:0:
109,192,83921,1,2,0:0:0:0:
475,192,83921,1,0,0:0:0:0:
36,192,83921,1,0,0:0:0:0:
402,192,83987,1,2,0:0:0:0:
329,192,83987,1,2,0:0:0:0:
182,192,84053,1,2,0:0:0:0:
109,192,84053,1,2,0:0:0:0:
36,192,84053,1,0,0:0:0:0:
402,192,84119,1,2,0:0:0:0:
475,192,84119,1,2,0:0:0:0:
36,192,84184,1,2,0:0:0:0:
109,192,84184,1,0,0:0:0:0:
256,192,84184,1,0,0:0:0:0:
329,192,84250,1,0,0:0:0:0:
402,192,84316,1,2,0:0:0:0:
475,192,84316,1,0,0:0:0:0:
182,192,84316,1,0,0:0:0:0:
109,192,84382,1,0,0:0:0:0:
475,192,84448,1,2,0:0:0:0:
36,192,84448,1,0,0:0:0:0:
256,192,84448,1,0,0:0:0:0:
329,192,84513,1,0,0:0:0:0:
182,192,84579,1,2,0:0:0:0:
402,192,84579,1,0,0:0:0:0:
109,192,84579,1,0,0:0:0:0:
256,192,84645,1,0,0:0:0:0:
329,192,84711,1,2,0:0:0:0:
36,192,84711,1,2,0:0:0:0:
475,192,84711,1,0,0:0:0:0:
402,192,84711,1,0,0:0:0:0:
182,192,84776,1,2,0:0:0:0:
109,192,84776,1,2,0:0:0:0:
256,192,84842,1,2,0:0:0:0:
329,192,84842,1,2,0:0:0:0:
402,192,84842,1,0,0:0:0:0:
109,192,84908,1,2,0:0:0:0:
36,192,84908,1,2,0:0:0:0:
329,192,84974,1,2,0:0:0:0:
256,192,84974,1,2,0:0:0:0:
182,192,84974,1,0,0:0:0:0:
402,192,85040,1,2,0:0:0:0:
475,192,85040,1,2,0:0:0:0:
256,192,85105,1,2,0:0:0:0:
182,192,85105,1,2,0:0:0:0:
109,192,85105,1,0,0:0:0:0:
329,192,85171,1,2,0:0:0:0:
402,192,85171,1,2,0:0:0:0:
36,192,85237,1,2,0:0:0:0:
109,192,85237,1,4,0:0:0:0:
182,192,85237,1,0,0:0:0:0:
475,192,85237,1,0,0:0:0:0:
256,192,85303,1,0,0:0:0:0:
36,192,85369,1,2,0:0:0:0:
329,192,85369,1,0,0:0:0:0:
109,192,85434,1,0,0:0:0:0:
402,192,85500,1,2,0:0:0:0:
475,192,85500,1,0,0:0:0:0:
182,192,85500,1,0,0:0:0:0:
256,192,85566,1,0,0:0:0:0:
109,192,85632,1,2,0:0:0:0:
475,192,85632,1,0,0:0:0:0:
329,192,85632,1,0,0:0:0:0:
182,192,85698,1,0,0:0:0:0:
36,192,85763,1,2,0:0:0:0:
109,192,85763,1,0,0:0:0:0:
402,192,85763,1,0,0:0:0:0:
329,192,85829,1,0,0:0:0:0:
475,192,85895,1,2,0:0:0:0:
109,192,85895,1,0,0:0:0:0:
256,192,85895,1,0,0:0:0:0:
329,192,85961,1,0,0:0:0:0:
182,192,86026,1,2,0:0:0:0:
402,192,86026,1,0,0:0:0:0:
36,192,86026,1,0,0:0:0:0:
109,192,86092,1,0,0:0:0:0:
402,192,86158,1,2,0:0:0:0:
475,192,86158,1,0,0:0:0:0:
256,192,86158,1,0,0:0:0:0:
36,192,86224,1,0,0:0:0:0:
182,192,86290,1,2,0:0:0:0:
329,192,86290,1,0,0:0:0:0:
475,192,86290,1,0,0:0:0:0:
256,192,86355,1,0,0:0:0:0:
109,192,86421,1,2,0:0:0:0:
36,192,86421,1,0,0:0:0:0:
402,192,86421,1,0,0:0:0:0:
329,192,86487,1,0,0:0:0:0:
402,192,86553,1,2,0:0:0:0:
475,192,86553,1,0,0:0:0:0:
182,192,86553,1,0,0:0:0:0:
256,192,86619,1,0,0:0:0:0:
109,192,86684,1,2,0:0:0:0:
329,192,86684,1,0,0:0:0:0:
36,192,86684,1,0,0:0:0:0:
182,192,86750,1,0,0:0:0:0:
402,192,86816,1,2,0:0:0:0:
475,192,86816,1,0,0:0:0:0:
109,192,86816,1,0,0:0:0:0:
182,192,86948,1,2,0:0:0:0:
36,192,86948,1,0,0:0:0:0:
329,192,86948,1,0,0:0:0:0:
402,192,87013,1,0,0:0:0:0:
109,192,87079,1,2,0:0:0:0:
256,192,87079,1,8,0:0:0:0:
36,192,87079,1,0,0:0:0:0:
475,192,87079,1,0,0:0:0:0:
329,192,87145,1,0,0:0:0:0:
182,192,87211,1,2,0:0:0:0:
402,192,87211,1,0,0:0:0:0:
109,192,87211,1,0,0:0:0:0:
36,192,87276,1,0,0:0:0:0:
475,192,87342,1,2,0:0:0:0:
256,192,87342,1,0,0:0:0:0:
329,192,87342,1,0,0:0:0:0:
182,192,87408,1,0,0:0:0:0:
36,192,87474,1,2,0:0:0:0:
109,192,87474,1,0,0:0:0:0:
402,192,87474,1,0,0:0:0:0:
329,192,87540,1,0,0:0:0:0:
402,192,87605,1,2,0:0:0:0:
256,192,87605,1,2,0:0:0:0:
475,192,87671,1,2,0:0:0:0:
182,192,87671,1,2,0:0:0:0:
109,192,87737,1,2,0:0:0:0:
329,192,87737,1,0,0:0:0:0:
36,192,87737,1,0,0:0:0:0:
402,192,87803,1,2,0:0:0:0:
182,192,87803,1,2,0:0:0:0:
475,192,87869,1,2,0:0:0:0:
36,192,87869,1,0,0:0:0:0:
256,192,87869,1,0,0:0:0:0:
109,192,87934,1,0,0:0:0:0:
329,192,88000,1,2,0:0:0:0:
402,192,88000,1,0,0:0:0:0:
182,192,88000,1,0,0:0:0:0:
256,192,88066,1,0,0:0:0:0:
182,192,88132,1,2,0:0:0:0:
36,192,88132,1,2,0:0:0:0:
475,192,88132,1,0,0:0:0:0:
402,192,88132,1,0,0:0:0:0:
329,192,88198,1,2,0:0:0:0:
109,192,88198,1,2,0:0:0:0:
402,192,88263,1,2,0:0:0:0:
475,192,88263,1,2,0:0:0:0:
256,192,88263,1,0,0:0:0:0:
329,192,88329,1,2,0:0:0:0:
182,192,88329,1,2,0:0:0:0:
402,192,88395,1,2,0:0:0:0:
475,192,88395,1,0,0:0:0:0:
109,192,88395,1,0,0:0:0:0:
256,192,88461,1,0,0:0:0:0:
329,192,88526,1,2,0:0:0:0:
36,192,88526,1,0,0:0:0:0:
182,192,88526,1,0,0:0:0:0:
402,192,88592,1,0,0:0:0:0:
109,192,88658,1,2,0:0:0:0:
475,192,88658,1,0,0:0:0:0:
256,192,88658,1,0,0:0:0:0:
182,192,88724,1,0,0:0:0:0:
329,192,88724,1,0,0:0:0:0:
402,192,88790,1,2,0:0:0:0:
256,192,88790,1,0,0:0:0:0:
36,192,88790,1,0,0:0:0:0:
109,192,88855,1,0,0:0:0:0:
329,192,88855,1,0,0:0:0:0:
182,192,88921,1,2,0:0:0:0:
402,192,88921,1,2,0:0:0:0:
475,192,88921,1,0,0:0:0:0:
109,192,88987,1,2,0:0:0:0:
36,192,88987,1,0,0:0:0:0:
329,192,89053,1,2,0:0:0:0:
402,192,89053,1,2,0:0:0:0:
475,192,89053,1,0,0:0:0:0:
182,192,89119,1,2,0:0:0:0:
36,192,89119,1,0,0:0:0:0:
256,192,89184,1,2,0:0:0:0:
329,192,89184,1,2,0:0:0:0:
475,192,89184,1,0,0:0:0:0:
109,192,89250,1,2,0:0:0:0:
36,192,89250,1,0,0:0:0:0:
182,192,89316,1,2,0:0:0:0:
256,192,89316,1,2,0:0:0:0:
402,192,89316,1,0,0:0:0:0:
329,192,89382,1,2,0:0:0:0:
475,192,89382,1,0,0:0:0:0:
36,192,89448,1,2,0:0:0:0:
109,192,89448,1,0,0:0:0:0:
182,192,89448,1,0,0:0:0:0:
402,192,89448,1,0,0:0:0:0:
256,192,89579,1,0,0:0:0:0:
182,192,89711,1,2,0:0:0:0:
329,192,89711,1,0,0:0:0:0:
475,192,89711,1,0,0:0:0:0:
182,192,89842,1,2,0:0:0:0:
329,192,89842,1,0,0:0:0:0:
475,192,89908,1,0,0:0:0:0:
256,192,89974,1,8,0:0:0:0:
109,192,89974,1,0,0:0:0:0:
402,192,89974,1,0,0:0:0:0:
109,192,90105,1,0,0:0:0:0:
329,192,90237,1,8,0:0:0:0:
36,192,90237,1,0,0:0:0:0:
475,192,90237,1,0,0:0:0:0:
329,192,90369,1,0,0:0:0:0:
182,192,90369,1,0,0:0:0:0:
109,192,90500,1,2,0:0:0:0:
256,192,90500,1,0,0:0:0:0:
402,192,90500,1,0,0:0:0:0:
475,192,90500,1,0,0:0:0:0:
182,192,90632,1,0,0:0:0:0:
36,192,90632,1,0,0:0:0:0:
329,192,90763,1,8,0:0:0:0:
475,192,90763,1,0,0:0:0:0:
182,192,90763,1,0,0:0:0:0:
256,192,90895,1,0,0:0:0:0:
36,192,90895,1,0,0:0:0:0:
182,192,90961,1,0,0:0:0:0:
402,192,91026,1,2,0:0:0:0:
475,192,91026,1,0,0:0:0:0:
109,192,91026,1,0,0:0:0:0:
182,192,91158,1,2,0:0:0:0:
329,192,91158,1,0,0:0:0:0:
256,192,91290,1,8,0:0:0:0:
109,192,91290,1,0,0:0:0:0:
36,192,91290,1,0,0:0:0:0:
182,192,91421,1,0,0:0:0:0:
329,192,91421,1,0,0:0:0:0:
256,192,91553,1,2,0:0:0:0:
402,192,91553,1,0,0:0:0:0:
475,192,91553,1,0,0:0:0:0:
36,192,91553,1,0,0:0:0:0:
109,192,91684,1,0,0:0:0:0:
475,192,91816,1,2,0:0:0:0:
402,192,91816,1,2,0:0:0:0:
182,192,91816,1,0,0:0:0:0:
109,192,91948,1,2,0:0:0:0:
329,192,91948,1,2,0:0:0:0:
402,192,91948,1,0,0:0:0:0:
182,192,92013,1,0,0:0:0:0:
329,192,92079,1,8,0:0:0:0:
36,192,92079,1,0,0:0:0:0:
256,192,92079,1,0,0:0:0:0:
475,192,92211,1,2,0:0:0:0:
182,192,92211,1,2,0:0:0:0:
256,192,92211,1,0,0:0:0:0:
109,192,92342,1,2,0:0:0:0:
475,192,92342,1,2,0:0:0:0:
402,192,92342,1,0,0:0:0:0:
182,192,92342,1,0,0:0:0:0:
109,192,92474,1,2,0:0:0:0:
36,192,92474,1,2,0:0:0:0:
329,192,92474,1,0,0:0:0:0:
402,192,92605,1,8,0:0:0:0:
475,192,92605,1,0,0:0:0:0:
256,192,92605,1,0,0:0:0:0:
182,192,92605,1,0,0:0:0:0:
109,192,92737,1,2,0:0:0:0:
36,192,92737,1,2,0:0:0:0:
329,192,92737,1,0,0:0:0:0:
36,192,92869,1,2,0:0:0:0:
475,192,92869,1,2,0:0:0:0:
182,192,92869,1,0,0:0:0:0:
402,192,92869,1,0,0:0:0:0:
256,192,93000,1,2,0:0:0:0:
109,192,93000,1,2,0:0:0:0:
329,192,93000,1,0,0:0:0:0:
36,192,93066,1,0,0:0:0:0:
402,192,93132,1,2,0:0:0:0:
182,192,93132,1,0,0:0:0:0:
256,192,93132,1,0,0:0:0:0:
475,192,93132,1,0,0:0:0:0:
475,192,93263,1,2,0:0:0:0:
109,192,93263,1,0,0:0:0:0:
329,192,93263,1,0,0:0:0:0:
256,192,93395,1,2,0:0:0:0:
182,192,93395,1,0,0:0:0:0:
36,192,93395,1,0,0:0:0:0:
402,192,93395,1,0,0:0:0:0:
109,192,93526,1,2,0:0:0:0:
329,192,93526,1,0,0:0:0:0:
36,192,93526,1,0,0:0:0:0:
475,192,93658,1,2,0:0:0:0:
402,192,93658,1,0,0:0:0:0:
256,192,93658,1,0,0:0:0:0:
182,192,93658,1,0,0:0:0:0:
109,192,93658,1,0,0:0:0:0:
329,192,93790,1,2,0:0:0:0:
36,192,93790,1,0,0:0:0:0:
182,192,93790,1,0,0:0:0:0:
402,192,93790,1,0,0:0:0:0:
109,192,93921,1,2,0:0:0:0:
256,192,93921,1,0,0:0:0:0:
329,192,93921,1,0,0:0:0:0:
475,192,93921,1,0,0:0:0:0:
402,192,94053,1,4,0:0:0:0:
182,192,94053,1,2,0:0:0:0:
256,192,94053,1,0,0:0:0:0:
36,192,94053,1,0,0:0:0:0:
475,192,94053,1,0,0:0:0:0:
109,192,94184,1,0,0:0:0:0:
329,192,94184,1,0,0:0:0:0:
36,192,94250,1,0,0:0:0:0:
256,192,94250,1,0,0:0:0:0:
182,192,94316,1,0,0:0:0:0:
475,192,94316,1,0,0:0:0:0:
329,192,94382,1,0,0:0:0:0:
109,192,94382,1,0,0:0:0:0:
256,192,94448,1,0,0:0:0:0:
402,192,94448,1,0,0:0:0:0:
182,192,94513,1,0,0:0:0:0:
36,192,94513,1,0,0:0:0:0:
256,192,94579,1,0,0:0:0:0:
475,192,94579,1,0,0:0:0:0:
329,192,94645,1,0,0:0:0:0:
109,192,94645,1,0,0:0:0:0:
36,192,94711,1,2,0:0:0:0:
182,192,94711,1,0,0:0:0:0:
402,192,94711,1,0,0:0:0:0:
475,192,94711,1,0,0:0:0:0:
109,192,94842,1,2,0:0:0:0:
256,192,94842,1,0,0:0:0:0:
329,192,94842,1,0,0:0:0:0:
36,192,94842,1,0,0:0:0:0:
182,192,94974,1,2,0:0:0:0:
109,192,94974,1,0,0:0:0:0:
329,192,94974,1,0,0:0:0:0:
402,192,94974,1,0,0:0:0:0:
256,192,95105,1,2,0:0:0:0:
182,192,95105,1,4,0:0:0:0:
36,192,95105,1,0,0:0:0:0:
402,192,95105,1,0,0:0:0:0:
475,192,95105,1,0,0:0:0:0:
109,192,95237,1,0,0:0:0:0:
329,192,95237,1,0,0:0:0:0:
182,192,95303,1,0,0:0:0:0:
402,192,95303,1,0,0:0:0:0:
256,192,95369,1,0,0:0:0:0:
475,192,95369,1,0,0:0:0:0:
329,192,95434,1,0,0:0:0:0:
109,192,95434,1,0,0:0:0:0:
402,192,95500,1,8,0:0:0:0:
182,192,95500,1,0,0:0:0:0:
36,192,95566,1,0,0:0:0:0:
329,192,95566,1,0,0:0:0:0:
256,192,95632,1,0,0:0:0:0:
109,192,95632,1,0,0:0:0:0:
182,192,95698,1,0,0:0:0:0:
402,192,95698,1,0,0:0:0:0:
109,192,95763,1,2,0:0:0:0:
36,192,95763,1,0,0:0:0:0:
329,192,95763,1,0,0:0:0:0:
256,192,95829,1,0,0:0:0:0:
475,192,95829,1,0,0:0:0:0:
109,192,95895,1,2,0:0:0:0:
36,192,95895,1,0,0:0:0:0:
256,192,95961,1,0,0:0:0:0:
475,192,95961,1,0,0:0:0:0:
182,192,96026,1,8,0:0:0:0:
402,192,96026,1,2,0:0:0:0:
329,192,96026,1,0,0:0:0:0:
109,192,96092,1,0,0:0:0:0:
256,192,96158,1,2,0:0:0:0:
475,192,96158,1,0,0:0:0:0:
36,192,96158,1,0,0:0:0:0:
182,192,96224,1,0,0:0:0:0:
329,192,96224,1,0,0:0:0:0:
475,192,96290,1,2,0:0:0:0:
402,192,96290,1,0,0:0:0:0:
109,192,96290,1,0,0:0:0:0:
256,192,96355,1,0,0:0:0:0:
36,192,96355,1,0,0:0:0:0:
402,192,96421,1,2,0:0:0:0:
475,192,96421,1,0,0:0:0:0:
256,192,96487,1,0,0:0:0:0:
36,192,96487,1,0,0:0:0:0:
109,192,96553,1,8,0:0:0:0:
329,192,96553,1,2,0:0:0:0:
475,192,96553,1,0,0:0:0:0:
182,192,96619,1,0,0:0:0:0:
402,192,96684,1,2,0:0:0:0:
256,192,96684,1,0,0:0:0:0:
182,192,96750,1,0,0:0:0:0:
475,192,96816,1,2,0:0:0:0:
329,192,96816,1,2,0:0:0:0:
109,192,96816,1,0,0:0:0:0:
36,192,96816,1,0,0:0:0:0:
36,192,96948,1,2,0:0:0:0:
109,192,96948,1,2,0:0:0:0:
329,192,96948,1,0,0:0:0:0:
475,192,96948,1,0,0:0:0:0:
402,192,97079,1,8,0:0:0:0:
182,192,97079,1,2,0:0:0:0:
329,192,97079,1,2,0:0:0:0:
36,192,97079,1,0,0:0:0:0:
36,192,97211,1,2,0:0:0:0:
182,192,97211,1,2,0:0:0:0:
329,192,97211,1,0,0:0:0:0:
402,192,97211,1,0,0:0:0:0:
475,192,97342,1,2,0:0:0:0:
402,192,97342,1,2,0:0:0:0:
256,192,97342,1,0,0:0:0:0:
109,192,97342,1,0,0:0:0:0:
36,192,97342,1,0,0:0:0:0:
329,192,97474,1,2,0:0:0:0:
256,192,97474,1,0,0:0:0:0:
475,192,97474,1,0,0:0:0:0:
182,192,97474,1,0,0:0:0:0:
36,192,97474,1,0,0:0:0:0:
402,192,97605,1,2,0:0:0:0:
329,192,97605,1,8,0:0:0:0:
182,192,97605,1,2,0:0:0:0:
109,192,97605,1,0,0:0:0:0:
256,192,97605,1,0,0:0:0:0:
36,192,97737,1,2,0:0:0:0:
109,192,97737,1,2,0:0:0:0:
256,192,97737,1,0,0:0:0:0:
402,192,97737,1,0,0:0:0:0:
475,192,97737,1,0,0:0:0:0:
475,192,97869,1,2,0:0:0:0:
402,192,97869,1,0,0:0:0:0:
329,192,97869,1,0,0:0:0:0:
182,192,97869,1,0,0:0:0:0:
256,192,98000,1,0,0:0:0:0:
402,192,98132,1,2,0:0:0:0:
109,192,98132,1,0,0:0:0:0:
36,192,98132,1,0,0:0:0:0:
402,192,98263,1,2,0:0:0:0:
109,192,98263,1,0,0:0:0:0:
36,192,98329,1,0,0:0:0:0:
256,192,98395,1,8,0:0:0:0:
329,192,98395,1,0,0:0:0:0:
182,192,98395,1,0,0:0:0:0:
402,192,98526,1,0,0:0:0:0:
182,192,98658,1,8,0:0:0:0:
475,192,98658,1,0,0:0:0:0:
36,192,98658,1,0,0:0:0:0:
182,192,98790,1,0,0:0:0:0:
329,192,98790,1,0,0:0:0:0:
402,192,98921,1,2,0:0:0:0:
256,192,98921,1,0,0:0:0:0:
109,192,98921,1,0,0:0:0:0:
36,192,98921,1,0,0:0:0:0:
329,192,99053,1,0,0:0:0:0:
475,192,99053,1,0,0:0:0:0:
182,192,99184,1,8,0:0:0:0:
36,192,99184,1,0,0:0:0:0:
329,192,99184,1,0,0:0:0:0:
256,192,99316,1,0,0:0:0:0:
475,192,99316,1,0,0:0:0:0:
329,192,99382,1,0,0:0:0:0:
109,192,99448,1,2,0:0:0:0:
36,192,99448,1,0,0:0:0:0:
402,192,99448,1,0,0:0:0:0:
329,192,99579,1,0,0:0:0:0:
182,192,99579,1,0,0:0:0:0:
256,192,99711,1,8,0:0:0:0:
402,192,99711,1,0,0:0:0:0:
475,192,99711,1,0,0:0:0:0:
329,192,99842,1,0,0:0:0:0:
182,192,99842,1,0,0:0:0:0:
256,192,99974,1,2,0:0:0:0:
109,192,99974,1,0,0:0:0:0:
36,192,99974,1,0,0:0:0:0:
475,192,99974,1,0,0:0:0:0:
402,192,100105,1,0,0:0:0:0:
36,192,100237,1,2,0:0:0:0:
182,192,100237,1,2,0:0:0:0:
329,192,100237,1,0,0:0:0:0:
402,192,100369,1,2,0:0:0:0:
256,192,100369,1,2,0:0:0:0:
109,192,100369,1,0,0:0:0:0:
329,192,100434,1,0,0:0:0:0:
182,192,100500,1,8,0:0:0:0:
475,192,100500,1,0,0:0:0:0:
402,192,100500,1,0,0:0:0:0:
109,192,100632,1,2,0:0:0:0:
475,192,100632,1,2,0:0:0:0:
256,192,100632,1,0,0:0:0:0:
402,192,100763,1,2,0:0:0:0:
182,192,100763,1,2,0:0:0:0:
36,192,100763,1,0,0:0:0:0:
329,192,100763,1,0,0:0:0:0:
109,192,100895,1,2,0:0:0:0:
475,192,100895,1,2,0:0:0:0:
256,192,100895,1,0,0:0:0:0:
109,192,101026,1,8,0:0:0:0:
36,192,101026,1,0,0:0:0:0:
182,192,101026,1,0,0:0:0:0:
329,192,101026,1,0,0:0:0:0:
402,192,101158,1,2,0:0:0:0:
475,192,101158,1,2,0:0:0:0:
256,192,101158,1,0,0:0:0:0:
475,192,101290,1,2,0:0:0:0:
182,192,101290,1,2,0:0:0:0:
329,192,101290,1,0,0:0:0:0:
36,192,101290,1,0,0:0:0:0:
256,192,101421,1,2,0:0:0:0:
402,192,101421,1,2,0:0:0:0:
109,192,101421,1,0,0:0:0:0:
36,192,101487,1,0,0:0:0:0:
182,192,101553,1,2,0:0:0:0:
475,192,101553,1,0,0:0:0:0:
329,192,101553,1,0,0:0:0:0:
109,192,101553,1,0,0:0:0:0:
475,192,101684,1,2,0:0:0:0:
256,192,101684,1,0,0:0:0:0:
402,192,101684,1,0,0:0:0:0:
109,192,101816,1,2,0:0:0:0:
36,192,101816,1,0,0:0:0:0:
329,192,101816,1,0,0:0:0:0:
182,192,101948,1,2,0:0:0:0:
475,192,101948,1,0,0:0:0:0:
402,192,101948,1,0,0:0:0:0:
36,192,102079,1,2,0:0:0:0:
109,192,102079,1,0,0:0:0:0:
256,192,102079,1,0,0:0:0:0:
329,192,102079,1,0,0:0:0:0:
402,192,102079,1,0,0:0:0:0:
182,192,102211,1,2,0:0:0:0:
475,192,102211,1,0,0:0:0:0:
329,192,102211,1,0,0:0:0:0:
109,192,102211,1,0,0:0:0:0:
402,192,102342,1,2,0:0:0:0:
256,192,102342,1,0,0:0:0:0:
182,192,102342,1,0,0:0:0:0:
36,192,102342,1,0,0:0:0:0:
109,192,102474,1,4,0:0:0:0:
329,192,102474,1,2,0:0:0:0:
256,192,102474,1,0,0:0:0:0:
475,192,102474,1,0,0:0:0:0:
36,192,102474,1,0,0:0:0:0:
402,192,102605,1,0,0:0:0:0:
182,192,102605,1,0,0:0:0:0:
109,192,102671,1,0,0:0:0:0:
329,192,102671,1,0,0:0:0:0:
256,192,102737,1,0,0:0:0:0:
36,192,102737,1,0,0:0:0:0:
182,192,102803,1,0,0:0:0:0:
402,192,102803,1,0,0:0:0:0:
329,192,102869,1,8,0:0:0:0:
109,192,102869,1,0,0:0:0:0:
475,192,102934,1,0,0:0:0:0:
256,192,102934,1,0,0:0:0:0:
402,192,103000,1,0,0:0:0:0:
182,192,103000,1,0,0:0:0:0:
109,192,103066,1,0,0:0:0:0:
329,192,103066,1,0,0:0:0:0:
475,192,103132,1,2,0:0:0:0:
256,192,103132,1,0,0:0:0:0:
402,192,103132,1,0,0:0:0:0:
36,192,103132,1,0,0:0:0:0:
402,192,103263,1,2,0:0:0:0:
256,192,103263,1,0,0:0:0:0:
36,192,103263,1,0,0:0:0:0:
475,192,103263,1,0,0:0:0:0:
329,192,103395,1,2,0:0:0:0:
402,192,103395,1,0,0:0:0:0:
182,192,103395,1,0,0:0:0:0:
109,192,103395,1,0,0:0:0:0:
256,192,103526,1,2,0:0:0:0:
329,192,103526,1,4,0:0:0:0:
475,192,103526,1,0,0:0:0:0:
109,192,103526,1,0,0:0:0:0:
36,192,103526,1,0,0:0:0:0:
402,192,103658,1,0,0:0:0:0:
182,192,103658,1,0,0:0:0:0:
329,192,103724,1,0,0:0:0:0:
109,192,103724,1,0,0:0:0:0:
256,192,103790,1,0,0:0:0:0:
36,192,103790,1,0,0:0:0:0:
182,192,103855,1,0,0:0:0:0:
402,192,103855,1,0,0:0:0:0:
329,192,103921,1,8,0:0:0:0:
109,192,103921,1,0,0:0:0:0:
475,192,103987,1,0,0:0:0:0:
182,192,103987,1,0,0:0:0:0:
256,192,104053,1,0,0:0:0:0:
402,192,104053,1,0,0:0:0:0:
329,192,104119,1,0,0:0:0:0:
109,192,104119,1,0,0:0:0:0:
402,192,104184,1,2,0:0:0:0:
475,192,104184,1,0,0:0:0:0:
182,192,104184,1,0,0:0:0:0:
36,192,104184,1,0,0:0:0:0:
109,192,104316,1,2,0:0:0:0:
256,192,104316,1,0,0:0:0:0:
329,192,104316,1,0,0:0:0:0:
475,192,104316,1,0,0:0:0:0:
182,192,104448,1,8,0:0:0:0:
402,192,104448,1,0,0:0:0:0:
329,192,104448,1,0,0:0:0:0:
36,192,104448,1,0,0:0:0:0:
256,192,104579,1,2,0:0:0:0:
182,192,104579,1,0,0:0:0:0:
109,192,104579,1,0,0:0:0:0:
402,192,104579,1,0,0:0:0:0:
475,192,104711,1,2,0:0:0:0:
329,192,104711,1,0,0:0:0:0:
36,192,104711,1,0,0:0:0:0:
109,192,104711,1,0,0:0:0:0:
256,192,104842,1,2,0:0:0:0:
182,192,104842,1,0,0:0:0:0:
402,192,104842,1,0,0:0:0:0:
36,192,104842,1,0,0:0:0:0:
109,192,104974,1,8,0:0:0:0:
329,192,104974,1,0,0:0:0:0:
475,192,104974,1,0,0:0:0:0:
402,192,104974,1,0,0:0:0:0:
182,192,104974,1,0,0:0:0:0:
256,192,105105,1,0,0:0:0:0:
36,192,105105,1,0,0:0:0:0:
109,192,105105,1,0,0:0:0:0:
475,192,105105,1,0,0:0:0:0:
402,192,105237,1,2,0:0:0:0:
329,192,105237,1,0,0:0:0:0:
182,192,105237,1,0,0:0:0:0:
109,192,105303,1,0,0:0:0:0:
256,192,105369,1,0,0:0:0:0:
475,192,105369,1,0,0:0:0:0:
402,192,105500,1,2,0:0:0:0:
329,192,105500,1,8,0:0:0:0:
182,192,105500,1,0,0:0:0:0:
109,192,105500,1,0,0:0:0:0:
36,192,105500,1,0,0:0:0:0:
109,192,105632,1,2,0:0:0:0:
182,192,105632,1,2,0:0:0:0:
402,192,105632,1,0,0:0:0:0:
475,192,105632,1,0,0:0:0:0:
256,192,105632,1,0,0:0:0:0:
36,192,105763,1,2,0:0:0:0:
109,192,105763,1,0,0:0:0:0:
329,192,105763,1,0,0:0:0:0:
182,192,105829,1,0,0:0:0:0:
402,192,105829,1,0,0:0:0:0:
256,192,105895,1,2,0:0:0:0:
36,192,105895,1,0,0:0:0:0:
475,192,105895,1,0,0:0:0:0:
109,192,105961,1,0,0:0:0:0:
182,192,105961,1,0,0:0:0:0:
402,192,106026,1,2,0:0:0:0:
475,192,106026,1,2,0:0:0:0:
329,192,106026,1,0,0:0:0:0:
109,192,106092,1,2,0:0:0:0:
36,192,106092,1,2,0:0:0:0:
182,192,106092,1,0,0:0:0:0:
329,192,106158,1,2,0:0:0:0:
402,192,106158,1,2,0:0:0:0:
475,192,106158,1,0,0:0:0:0:
36,192,106224,1,2,0:0:0:0:
109,192,106224,1,2,0:0:0:0:
256,192,106290,1,2,0:0:0:0:
329,192,106290,1,4,0:0:0:0:
402,192,106290,1,0,0:0:0:0:
475,192,106290,1,0,0:0:0:0:
182,192,106290,1,0,0:0:0:0:
36,192,106355,1,0,0:0:0:0:
109,192,106355,1,0,0:0:0:0:
402,192,106421,1,0,0:0:0:0:
475,192,106421,1,0,0:0:0:0:
329,192,106487,1,0,0:0:0:0:
182,192,106487,1,0,0:0:0:0:
256,192,106553,1,2,0:0:0:0:
109,192,106553,1,2,0:0:0:0:
36,192,106553,1,0,0:0:0:0:
402,192,106619,1,0,0:0:0:0:
475,192,106619,1,0,0:0:0:0:
182,192,106684,1,2,0:0:0:0:
329,192,106684,1,2,0:0:0:0:
109,192,106684,1,0,0:0:0:0:
402,192,106750,1,0,0:0:0:0:
256,192,106750,1,0,0:0:0:0:
475,192,106816,1,2,0:0:0:0:
36,192,106816,1,2,0:0:0:0:
182,192,106816,1,0,0:0:0:0:
329,192,106882,1,0,0:0:0:0:
109,192,106882,1,0,0:0:0:0:
256,192,106948,1,2,0:0:0:0:
402,192,106948,1,2,0:0:0:0:
475,192,106948,1,0,0:0:0:0:
182,192,107013,1,0,0:0:0:0:
329,192,107013,1,0,0:0:0:0:
36,192,107079,1,2,0:0:0:0:
109,192,107079,1,2,0:0:0:0:
402,192,107079,1,0,0:0:0:0:
475,192,107145,1,0,0:0:0:0:
182,192,107145,1,0,0:0:0:0:
256,192,107211,1,0,0:0:0:0:
36,192,107211,1,0,0:0:0:0:
109,192,107276,1,0,0:0:0:0:
329,192,107276,1,0,0:0:0:0:
182,192,107342,1,2,0:0:0:0:
402,192,107342,1,2,0:0:0:0:
475,192,107342,1,0,0:0:0:0:
256,192,107408,1,0,0:0:0:0:
36,192,107408,1,0,0:0:0:0:
329,192,107474,1,0,0:0:0:0:
475,192,107474,1,0,0:0:0:0:
402,192,107540,1,0,0:0:0:0:
182,192,107540,1,0,0:0:0:0:
36,192,107605,1,2,0:0:0:0:
109,192,107605,1,8,0:0:0:0:
256,192,107605,1,2,0:0:0:0:
475,192,107671,1,0,0:0:0:0:
182,192,107671,1,0,0:0:0:0:
402,192,107737,1,0,0:0:0:0:
109,192,107737,1,0,0:0:0:0:
329,192,107803,1,0,0:0:0:0:
36,192,107803,1,0,0:0:0:0:
475,192,107869,1,2,0:0:0:0:
402,192,107869,1,2,0:0:0:0:
256,192,107869,1,0,0:0:0:0:
182,192,107934,1,0,0:0:0:0:
36,192,107934,1,0,0:0:0:0:
329,192,108000,1,2,0:0:0:0:
475,192,108000,1,0,0:0:0:0:
109,192,108000,1,0,0:0:0:0:
256,192,108066,1,0,0:0:0:0:
402,192,108066,1,0,0:0:0:0:
36,192,108132,1,8,0:0:0:0:
182,192,108132,1,2,0:0:0:0:
329,192,108132,1,2,0:0:0:0:
402,192,108198,1,0,0:0:0:0:
475,192,108198,1,0,0:0:0:0:
256,192,108263,1,0,0:0:0:0:
109,192,108263,1,0,0:0:0:0:
329,192,108329,1,0,0:0:0:0:
182,192,108329,1,0,0:0:0:0:
256,192,108395,1,2,0:0:0:0:
475,192,108395,1,2,0:0:0:0:
402,192,108395,1,0,0:0:0:0:
36,192,108461,1,0,0:0:0:0:
109,192,108461,1,0,0:0:0:0:
475,192,108526,1,2,0:0:0:0:
182,192,108526,1,2,0:0:0:0:
329,192,108526,1,0,0:0:0:0:
402,192,108592,1,0,0:0:0:0:
256,192,108592,1,0,0:0:0:0:
36,192,108658,1,2,0:0:0:0:
329,192,108658,1,2,0:0:0:0:
109,192,108658,1,0,0:0:0:0:
402,192,108724,1,0,0:0:0:0:
182,192,108724,1,0,0:0:0:0:
475,192,108790,1,2,0:0:0:0:
256,192,108790,1,2,0:0:0:0:
36,192,108790,1,0,0:0:0:0:
109,192,108855,1,0,0:0:0:0:
329,192,108855,1,0,0:0:0:0:
182,192,108921,1,2,0:0:0:0:
402,192,108921,1,2,0:0:0:0:
475,192,108921,1,0,0:0:0:0:
109,192,108987,1,0,0:0:0:0:
256,192,108987,1,0,0:0:0:0:
36,192,109053,1,2,0:0:0:0:
329,192,109053,1,2,0:0:0:0:
402,192,109053,1,0,0:0:0:0:
182,192,109119,1,0,0:0:0:0:
475,192,109184,1,2,0:0:0:0:
256,192,109184,1,2,0:0:0:0:
109,192,109184,1,0,0:0:0:0:
36,192,109184,1,0,0:0:0:0:
329,192,109250,1,0,0:0:0:0:
402,192,109316,1,0,0:0:0:0:
182,192,109316,1,0,0:0:0:0:
256,192,109382,1,0,0:0:0:0:
109,192,109382,1,0,0:0:0:0:
329,192,109448,1,2,0:0:0:0:
402,192,109448,1,2,0:0:0:0:
36,192,109448,1,0,0:0:0:0:
475,192,109513,1,0,0:0:0:0:
182,192,109513,1,0,0:0:0:0:
109,192,109579,1,0,0:0:0:0:
256,192,109579,1,0,0:0:0:0:
402,192,109645,1,0,0:0:0:0:
182,192,109645,1,0,0:0:0:0:
475,192,109711,1,2,0:0:0:0:
36,192,109711,1,8,0:0:0:0:
329,192,109711,1,2,0:0:0:0:
109,192,109776,1,0,0:0:0:0:
256,192,109776,1,0,0:0:0:0:
475,192,109842,1,0,0:0:0:0:
182,192,109842,1,0,0:0:0:0:
402,192,109908,1,0,0:0:0:0:
256,192,109908,1,0,0:0:0:0:
329,192,109974,1,2,0:0:0:0:
36,192,109974,1,2,0:0:0:0:
109,192,109974,1,0,0:0:0:0:
475,192,110040,1,0,0:0:0:0:
182,192,110040,1,0,0:0:0:0:
402,192,110105,1,2,0:0:0:0:
109,192,110105,1,0,0:0:0:0:
256,192,110105,1,0,0:0:0:0:
329,192,110171,1,0,0:0:0:0:
36,192,110171,1,0,0:0:0:0:
475,192,110237,1,8,0:0:0:0:
182,192,110237,1,2,0:0:0:0:
402,192,110237,1,2,0:0:0:0:
256,192,110303,1,0,0:0:0:0:
36,192,110303,1,0,0:0:0:0:
329,192,110369,1,0,0:0:0:0:
109,192,110369,1,0,0:0:0:0:
182,192,110434,1,0,0:0:0:0:
402,192,110434,1,0,0:0:0:0:
329,192,110500,1,2,0:0:0:0:
36,192,110500,1,2,0:0:0:0:
256,192,110500,1,0,0:0:0:0:
109,192,110500,1,0,0:0:0:0:
475,192,110566,1,0,0:0:0:0:
402,192,110566,1,0,0:0:0:0:
36,192,110632,1,2,0:0:0:0:
182,192,110632,1,2,0:0:0:0:
329,192,110698,1,0,0:0:0:0:
109,192,110698,1,0,0:0:0:0:
256,192,110763,1,2,0:0:0:0:
402,192,110763,1,2,0:0:0:0:
475,192,110763,1,0,0:0:0:0:
36,192,110829,1,0,0:0:0:0:
182,192,110829,1,0,0:0:0:0:
329,192,110895,1,2,0:0:0:0:
109,192,110895,1,2,0:0:0:0:
402,192,110895,1,0,0:0:0:0:
182,192,110961,1,0,0:0:0:0:
475,192,110961,1,0,0:0:0:0:
36,192,111026,1,2,0:0:0:0:
256,192,111026,1,2,0:0:0:0:
329,192,111026,1,0,0:0:0:0:
402,192,111092,1,0,0:0:0:0:
109,192,111092,1,0,0:0:0:0:
256,192,111158,1,2,0:0:0:0:
36,192,111158,1,2,0:0:0:0:
182,192,111158,1,0,0:0:0:0:
329,192,111224,1,0,0:0:0:0:
475,192,111224,1,0,0:0:0:0:
109,192,111290,1,2,0:0:0:0:
402,192,111290,1,2,0:0:0:0:
182,192,111290,1,0,0:0:0:0:
36,192,111355,1,0,0:0:0:0:
329,192,111355,1,0,0:0:0:0:
256,192,111421,1,0,0:0:0:0:
475,192,111421,1,0,0:0:0:0:
402,192,111487,1,0,0:0:0:0:
182,192,111487,1,0,0:0:0:0:
329,192,111553,1,2,0:0:0:0:
109,192,111553,1,2,0:0:0:0:
36,192,111553,1,0,0:0:0:0:
475,192,111619,1,0,0:0:0:0:
256,192,111619,1,0,0:0:0:0:
182,192,111684,1,0,0:0:0:0:
36,192,111684,1,0,0:0:0:0:
109,192,111750,1,0,0:0:0:0:
329,192,111750,1,0,0:0:0:0:
475,192,111816,1,2,0:0:0:0:
402,192,111816,1,2,0:0:0:0:
256,192,111816,1,8,0:0:0:0:
329,192,111882,1,0,0:0:0:0:
36,192,111882,1,0,0:0:0:0:
109,192,111948,1,0,0:0:0:0:
475,192,111948,1,0,0:0:0:0:
182,192,112013,1,0,0:0:0:0:
402,192,112013,1,0,0:0:0:0:
36,192,112079,1,2,0:0:0:0:
109,192,112079,1,2,0:0:0:0:
329,192,112079,1,0,0:0:0:0:
402,192,112145,1,0,0:0:0:0:
256,192,112145,1,0,0:0:0:0:
182,192,112211,1,2,0:0:0:0:
36,192,112211,1,2,0:0:0:0:
475,192,112211,1,0,0:0:0:0:
329,192,112276,1,0,0:0:0:0:
109,192,112276,1,0,0:0:0:0:
475,192,112342,1,8,0:0:0:0:
402,192,112342,1,2,0:0:0:0:
256,192,112342,1,2,0:0:0:0:
329,192,112408,1,0,0:0:0:0:
36,192,112408,1,0,0:0:0:0:
109,192,112474,1,0,0:0:0:0:
402,192,112474,1,0,0:0:0:0:
182,192,112540,1,0,0:0:0:0:
475,192,112540,1,0,0:0:0:0:
329,192,112605,1,2,0:0:0:0:
36,192,112605,1,2,0:0:0:0:
109,192,112605,1,0,0:0:0:0:
256,192,112671,1,0,0:0:0:0:
402,192,112671,1,0,0:0:0:0:
182,192,112737,1,2,0:0:0:0:
329,192,112737,1,2,0:0:0:0:
475,192,112737,1,0,0:0:0:0:
36,192,112803,1,0,0:0:0:0:
256,192,112803,1,0,0:0:0:0:
475,192,112869,1,2,0:0:0:0:
402,192,112869,1,2,0:0:0:0:
109,192,112869,1,0,0:0:0:0:
329,192,112934,1,0,0:0:0:0:
182,192,112934,1,0,0:0:0:0:
36,192,113000,1,2,0:0:0:0:
256,192,113000,1,2,0:0:0:0:
475,192,113000,1,0,0:0:0:0:
402,192,113066,1,0,0:0:0:0:
182,192,113066,1,0,0:0:0:0:
329,192,113132,1,2,0:0:0:0:
109,192,113132,1,2,0:0:0:0:
36,192,113132,1,0,0:0:0:0:
402,192,113198,1,0,0:0:0:0:
256,192,113198,1,0,0:0:0:0:
475,192,113263,1,2,0:0:0:0:
182,192,113263,1,2,0:0:0:0:
109,192,113263,1,0,0:0:0:0:
329,192,113329,1,0,0:0:0:0:
36,192,113395,1,8,0:0:0:0:
182,192,113395,1,2,0:0:0:0:
402,192,113395,1,2,0:0:0:0:
475,192,113395,1,0,0:0:0:0:
256,192,113461,1,0,0:0:0:0:
109,192,113526,1,2,0:0:0:0:
329,192,113526,1,2,0:0:0:0:
402,192,113526,1,0,0:0:0:0:
256,192,113592,1,0,0:0:0:0:
475,192,113592,1,0,0:0:0:0:
182,192,113658,1,2,0:0:0:0:
109,192,113658,1,2,0:0:0:0:
36,192,113658,1,0,0:0:0:0:
329,192,113658,1,0,0:0:0:0:
402,192,113724,1,0,0:0:0:0:
475,192,113724,1,0,0:0:0:0:
36,192,113790,1,2,0:0:0:0:
256,192,113790,1,2,0:0:0:0:
182,192,113790,1,0,0:0:0:0:
109,192,113855,1,0,0:0:0:0:
329,192,113855,1,0,0:0:0:0:
402,192,113921,1,8,0:0:0:0:
475,192,113921,1,2,0:0:0:0:
256,192,113921,1,2,0:0:0:0:
182,192,113987,1,0,0:0:0:0:
329,192,113987,1,0,0:0:0:0:
36,192,114053,1,0,0:0:0:0:
109,192,114053,1,0,0:0:0:0:
256,192,114119,1,0,0:0:0:0:
402,192,114119,1,0,0:0:0:0:
182,192,114184,1,2,0:0:0:0:
36,192,114184,1,2,0:0:0:0:
109,192,114184,1,0,0:0:0:0:
329,192,114250,1,0,0:0:0:0:
475,192,114250,1,0,0:0:0:0:
109,192,114316,1,2,0:0:0:0:
36,192,114316,1,0,0:0:0:0:
256,192,114316,1,0,0:0:0:0:
402,192,114382,1,0,0:0:0:0:
475,192,114382,1,0,0:0:0:0:
36,192,114448,1,2,0:0:0:0:
329,192,114448,1,2,0:0:0:0:
182,192,114448,1,8,0:0:0:0:
402,192,114513,1,0,0:0:0:0:
475,192,114513,1,0,0:0:0:0:
256,192,114579,1,0,0:0:0:0:
109,192,114579,1,0,0:0:0:0:
36,192,114579,1,0,0:0:0:0:
329,192,114645,1,0,0:0:0:0:
475,192,114645,1,0,0:0:0:0:
36,192,114711,1,4,0:0:0:0:
109,192,114711,1,2,0:0:0:0:
182,192,114711,1,2,0:0:0:0:
256,192,114711,1,0,0:0:0:0:
402,192,114711,1,0,0:0:0:0:
329,192,114776,1,0,0:0:0:0:
475,192,114842,1,2,0:0:0:0:
402,192,114842,1,2,0:0:0:0:
182,192,114842,1,0,0:0:0:0:
109,192,114842,1,0,0:0:0:0:
256,192,114908,1,0,0:0:0:0:
329,192,114974,1,2,0:0:0:0:
182,192,114974,1,2,0:0:0:0:
36,192,114974,1,0,0:0:0:0:
402,192,114974,1,0,0:0:0:0:
109,192,115040,1,0,0:0:0:0:
256,192,115105,1,2,0:0:0:0:
329,192,115105,1,2,0:0:0:0:
475,192,115105,1,0,0:0:0:0:
36,192,115105,1,0,0:0:0:0:
182,192,115171,1,0,0:0:0:0:
109,192,115237,1,2,0:0:0:0:
256,192,115237,1,2,0:0:0:0:
402,192,115237,1,0,0:0:0:0:
475,192,115237,1,0,0:0:0:0:
36,192,115303,1,0,0:0:0:0:
182,192,115369,1,2,0:0:0:0:
402,192,115369,1,2,0:0:0:0:
329,192,115369,1,0,0:0:0:0:
475,192,115369,1,0,0:0:0:0:
256,192,115434,1,0,0:0:0:0:
36,192,115500,1,8,0:0:0:0:
109,192,115500,1,2,0:0:0:0:
329,192,115500,1,2,0:0:0:0:
402,192,115500,1,0,0:0:0:0:
182,192,115566,1,0,0:0:0:0:
256,192,115632,1,0,0:0:0:0:
475,192,115632,1,0,0:0:0:0:
329,192,115698,1,0,0:0:0:0:
109,192,115698,1,0,0:0:0:0:
36,192,115763,1,2,0:0:0:0:
182,192,115763,1,2,0:0:0:0:
402,192,115763,1,0,0:0:0:0:
475,192,115763,1,0,0:0:0:0:
256,192,115829,1,0,0:0:0:0:
109,192,115895,1,2,0:0:0:0:
36,192,115895,1,2,0:0:0:0:
329,192,115895,1,0,0:0:0:0:
475,192,115895,1,0,0:0:0:0:
182,192,115961,1,0,0:0:0:0:
402,192,116026,1,2,0:0:0:0:
36,192,116026,1,2,0:0:0:0:
256,192,116026,1,8,0:0:0:0:
475,192,116026,1,0,0:0:0:0:
109,192,116092,1,0,0:0:0:0:
329,192,116092,1,0,0:0:0:0:
402,192,116158,1,0,0:0:0:0:
182,192,116158,1,0,0:0:0:0:
109,192,116224,1,0,0:0:0:0:
329,192,116224,1,0,0:0:0:0:
402,192,116290,1,2,0:0:0:0:
475,192,116290,1,2,0:0:0:0:
36,192,116290,1,0,0:0:0:0:
256,192,116290,1,0,0:0:0:0:
182,192,116355,1,0,0:0:0:0:
329,192,116421,1,2,0:0:0:0:
109,192,116421,1,2,0:0:0:0:
475,192,116421,1,0,0:0:0:0:
36,192,116421,1,0,0:0:0:0:
256,192,116487,1,0,0:0:0:0:
182,192,116553,1,8,0:0:0:0:
109,192,116553,1,2,0:0:0:0:
475,192,116553,1,2,0:0:0:0:
402,192,116553,1,0,0:0:0:0:
329,192,116619,1,0,0:0:0:0:
256,192,116684,1,0,0:0:0:0:
36,192,116684,1,0,0:0:0:0:
182,192,116684,1,0,0:0:0:0:
329,192,116750,1,0,0:0:0:0:
475,192,116816,1,2,0:0:0:0:
402,192,116816,1,2,0:0:0:0:
109,192,116816,1,0,0:0:0:0:
36,192,116816,1,0,0:0:0:0:
182,192,116882,1,0,0:0:0:0:
109,192,116948,1,2,0:0:0:0:
256,192,116948,1,2,0:0:0:0:
329,192,116948,1,0,0:0:0:0:
475,192,116948,1,0,0:0:0:0:
402,192,117013,1,0,0:0:0:0:
182,192,117079,1,2,0:0:0:0:
329,192,117079,1,2,0:0:0:0:
475,192,117079,1,0,0:0:0:0:
36,192,117079,1,0,0:0:0:0:
256,192,117145,1,0,0:0:0:0:
402,192,117211,1,2,0:0:0:0:
182,192,117211,1,2,0:0:0:0:
109,192,117211,1,0,0:0:0:0:
475,192,117211,1,0,0:0:0:0:
329,192,117276,1,0,0:0:0:0:
402,192,117342,1,2,0:0:0:0:
256,192,117342,1,2,0:0:0:0:
109,192,117342,1,0,0:0:0:0:
36,192,117342,1,0,0:0:0:0:
182,192,117408,1,0,0:0:0:0:
329,192,117474,1,2,0:0:0:0:
256,192,117474,1,2,0:0:0:0:
475,192,117474,1,0,0:0:0:0:
36,192,117474,1,0,0:0:0:0:
109,192,117540,1,0,0:0:0:0:
475,192,117605,1,8,0:0:0:0:
402,192,117605,1,2,0:0:0:0:
182,192,117605,1,2,0:0:0:0:
36,192,117605,1,0,0:0:0:0:
256,192,117671,1,0,0:0:0:0:
329,192,117737,1,0,0:0:0:0:
109,192,117737,1,0,0:0:0:0:
402,192,117803,1,0,0:0:0:0:
182,192,117803,1,0,0:0:0:0:
475,192,117869,1,2,0:0:0:0:
329,192,117869,1,2,0:0:0:0:
109,192,117869,1,0,0:0:0:0:
36,192,117869,1,0,0:0:0:0:
256,192,117934,1,0,0:0:0:0:
402,192,118000,1,2,0:0:0:0:
475,192,118000,1,2,0:0:0:0:
182,192,118000,1,0,0:0:0:0:
36,192,118000,1,0,0:0:0:0:
329,192,118066,1,0,0:0:0:0:
109,192,118132,1,2,0:0:0:0:
475,192,118132,1,2,0:0:0:0:
256,192,118132,1,8,0:0:0:0:
36,192,118132,1,0,0:0:0:0:
402,192,118198,1,0,0:0:0:0:
182,192,118198,1,0,0:0:0:0:
109,192,118263,1,0,0:0:0:0:
329,192,118263,1,0,0:0:0:0:
402,192,118329,1,0,0:0:0:0:
182,192,118329,1,0,0:0:0:0:
109,192,118395,1,2,0:0:0:0:
36,192,118395,1,2,0:0:0:0:
475,192,118395,1,0,0:0:0:0:
256,192,118395,1,0,0:0:0:0:
329,192,118461,1,0,0:0:0:0:
182,192,118526,1,2,0:0:0:0:
402,192,118526,1,2,0:0:0:0:
36,192,118526,1,0,0:0:0:0:
475,192,118526,1,0,0:0:0:0:
256,192,118592,1,0,0:0:0:0:
329,192,118658,1,8,0:0:0:0:
402,192,118658,1,2,0:0:0:0:
475,192,118658,1,2,0:0:0:0:
109,192,118658,1,0,0:0:0:0:
182,192,118724,1,0,0:0:0:0:
256,192,118790,1,0,0:0:0:0:
36,192,118790,1,0,0:0:0:0:
329,192,118790,1,0,0:0:0:0:
109,192,118855,1,0,0:0:0:0:
182,192,118921,1,2,0:0:0:0:
402,192,118921,1,2,0:0:0:0:
256,192,118921,1,0,0:0:0:0:
36,192,118921,1,0,0:0:0:0:
329,192,118987,1,0,0:0:0:0:
182,192,119053,1,2,0:0:0:0:
402,192,119053,1,2,0:0:0:0:
475,192,119053,1,0,0:0:0:0:
109,192,119053,1,0,0:0:0:0:
256,192,119119,1,0,0:0:0:0:
36,192,119184,1,2,0:0:0:0:
329,192,119184,1,2,0:0:0:0:
475,192,119184,1,0,0:0:0:0:
109,192,119184,1,0,0:0:0:0:
182,192,119250,1,0,0:0:0:0:
36,192,119316,1,2,0:0:0:0:
109,192,119316,1,2,0:0:0:0:
256,192,119316,1,0,0:0:0:0:
402,192,119316,1,0,0:0:0:0:
329,192,119382,1,0,0:0:0:0:
182,192,119448,1,2,0:0:0:0:
36,192,119448,1,2,0:0:0:0:
475,192,119448,1,0,0:0:0:0:
402,192,119448,1,0,0:0:0:0:
256,192,119513,1,0,0:0:0:0:
109,192,119579,1,2,0:0:0:0:
329,192,119579,1,2,0:0:0:0:
475,192,119579,1,0,0:0:0:0:
182,192,119579,1,0,0:0:0:0:
402,192,119645,1,0,0:0:0:0:
36,192,119711,1,2,0:0:0:0:
475,192,119711,1,2,0:0:0:0:
256,192,119711,1,8,0:0:0:0:
109,192,119711,1,0,0:0:0:0:
329,192,119776,1,0,0:0:0:0:
402,192,119842,1,0,0:0:0:0:
182,192,119842,1,0,0:0:0:0:
109,192,119908,1,0,0:0:0:0:
256,192,119908,1,0,0:0:0:0:
36,192,119974,1,2,0:0:0:0:
329,192,119974,1,2,0:0:0:0:
475,192,119974,1,0,0:0:0:0:
402,192,119974,1,0,0:0:0:0:
182,192,120040,1,0,0:0:0:0:
256,192,120105,1,2,0:0:0:0:
402,192,120105,1,2,0:0:0:0:
109,192,120105,1,0,0:0:0:0:
36,192,120105,1,0,0:0:0:0:
329,192,120171,1,0,0:0:0:0:
36,192,120237,1,2,0:0:0:0:
475,192,120237,1,2,0:0:0:0:
256,192,120237,1,8,0:0:0:0:
182,192,120237,1,0,0:0:0:0:
402,192,120303,1,0,0:0:0:0:
109,192,120303,1,0,0:0:0:0:
329,192,120369,1,0,0:0:0:0:
182,192,120369,1,0,0:0:0:0:
109,192,120434,1,0,0:0:0:0:
402,192,120434,1,0,0:0:0:0:
36,192,120500,1,2,0:0:0:0:
475,192,120500,1,2,0:0:0:0:
329,192,120500,1,0,0:0:0:0:
256,192,120500,1,0,0:0:0:0:
182,192,120566,1,0,0:0:0:0:
109,192,120632,1,2,0:0:0:0:
256,192,120632,1,2,0:0:0:0:
402,192,120632,1,0,0:0:0:0:
475,192,120632,1,0,0:0:0:0:
329,192,120698,1,0,0:0:0:0:
36,192,120763,1,8,0:0:0:0:
182,192,120763,1,2,0:0:0:0:
109,192,120763,1,2,0:0:0:0:
475,192,120763,1,0,0:0:0:0:
256,192,120829,1,0,0:0:0:0:
329,192,120895,1,0,0:0:0:0:
109,192,120895,1,0,0:0:0:0:
402,192,120895,1,0,0:0:0:0:
182,192,120961,1,0,0:0:0:0:
36,192,121026,1,2,0:0:0:0:
256,192,121026,1,2,0:0:0:0:
402,192,121026,1,0,0:0:0:0:
475,192,121026,1,0,0:0:0:0:
329,192,121092,1,0,0:0:0:0:
182,192,121158,1,2,0:0:0:0:
402,192,121158,1,2,0:0:0:0:
475,192,121158,1,0,0:0:0:0:
36,192,121158,1,0,0:0:0:0:
256,192,121224,1,0,0:0:0:0:
329,192,121290,1,2,0:0:0:0:
109,192,121290,1,2,0:0:0:0:
36,192,121290,1,0,0:0:0:0:
402,192,121290,1,0,0:0:0:0:
256,192,121355,1,0,0:0:0:0:
402,192,121421,1,2,0:0:0:0:
475,192,121421,1,2,0:0:0:0:
182,192,121421,1,0,0:0:0:0:
109,192,121421,1,0,0:0:0:0:
329,192,121487,1,0,0:0:0:0:
256,192,121553,1,2,0:0:0:0:
109,192,121553,1,2,0:0:0:0:
36,192,121553,1,0,0:0:0:0:
475,192,121553,1,0,0:0:0:0:
402,192,121619,1,0,0:0:0:0:
329,192,121684,1,2,0:0:0:0:
109,192,121684,1,2,0:0:0:0:
182,192,121684,1,0,0:0:0:0:
36,192,121684,1,0,0:0:0:0:
402,192,121750,1,0,0:0:0:0:
36,192,121816,1,2,0:0:0:0:
182,192,121816,1,8,0:0:0:0:
256,192,121816,1,2,0:0:0:0:
475,192,121816,1,0,0:0:0:0:
109,192,121882,1,0,0:0:0:0:
329,192,121882,1,0,0:0:0:0:
182,192,121948,1,2,0:0:0:0:
402,192,121948,1,2,0:0:0:0:
475,192,121948,1,0,0:0:0:0:
329,192,122013,1,0,0:0:0:0:
109,192,122013,1,0,0:0:0:0:
36,192,122079,1,2,0:0:0:0:
256,192,122079,1,2,0:0:0:0:
402,192,122079,1,0,0:0:0:0:
475,192,122079,1,0,0:0:0:0:
182,192,122211,1,2,0:0:0:0:
109,192,122211,1,2,0:0:0:0:
475,192,122211,1,0,0:0:0:0:
402,192,122211,1,0,0:0:0:0:
329,192,122211,1,0,0:0:0:0:
36,192,122342,1,8,0:0:0:0:
109,192,122342,1,2,0:0:0:0:
329,192,122342,1,2,0:0:0:0:
256,192,122342,1,0,0:0:0:0:
402,192,122342,1,0,0:0:0:0:
36,192,122474,1,2,0:0:0:0:
256,192,122474,1,2,0:0:0:0:
475,192,122474,1,0,0:0:0:0:
182,192,122474,1,0,0:0:0:0:
329,192,122474,1,0,0:0:0:0:
109,192,122605,1,2,0:0:0:0:
36,192,122605,1,2,0:0:0:0:
182,192,122605,1,0,0:0:0:0:
256,192,122605,1,0,0:0:0:0:
329,192,122671,1,2,0:0:0:0:
402,192,122671,1,2,0:0:0:0:
475,192,122671,1,0,0:0:0:0:
182,192,122737,1,2,0:0:0:0:
109,192,122737,1,2,0:0:0:0:
36,192,122737,1,0,0:0:0:0:
329,192,122803,1,2,0:0:0:0:
402,192,122803,1,2,0:0:0:0:
475,192,122803,1,0,0:0:0:0:
182,192,122869,1,2,0:0:0:0:
109,192,122869,1,2,0:0:0:0:
36,192,122869,1,8,0:0:0:0:
256,192,122869,1,0,0:0:0:0:
329,192,122934,1,2,0:0:0:0:
402,192,122934,1,2,0:0:0:0:
475,192,122934,1,0,0:0:0:0:
182,192,123000,1,2,0:0:0:0:
109,192,123000,1,2,0:0:0:0:
36,192,123000,1,0,0:0:0:0:
329,192,123066,1,2,0:0:0:0:
402,192,123066,1,2,0:0:0:0:
475,192,123066,1,0,0:0:0:0:
109,192,123132,1,2,0:0:0:0:
36,192,123132,1,4,0:0:0:0:
256,192,123132,1,2,0:0:0:0:
182,192,123132,1,0,0:0:0:0:
