osu file format v14

[General]
AudioFilename: audio.mp3
AudioLeadIn: 0
PreviewTime: 54158
Countdown: 0
SampleSet: Soft
StackLeniency: 0.5
Mode: 0
LetterboxInBreaks: 0
WidescreenStoryboard: 1

[Editor]
DistanceSpacing: 1
BeatDivisor: 4
GridSize: 4
TimelineZoom: 2.2

[Metadata]
Title:Houkou Orpheus
TitleUnicode:彷徨オルフェウス
Artist:Gekidan Record feat. Nekomata Master
ArtistUnicode:劇団レコード feat. 猫叉Master
Creator:DeviousPanda
Version:Normal
Source:REFLEC BEAT 悠久のリフレシア
Tags:corsace ro16 nm6 bemani konami video game The Reflesia of Eternity 猫叉劇団 Nekomata Gekidan Tomoaki Hirono Naoyuki Sato other instrumental
BeatmapID:2613065
BeatmapSetID:1257522

[Difficulty]
HPDrainRate:2
CircleSize:3
OverallDifficulty:4
ApproachRate:5.3
SliderMultiplier:0.999999999999999
SliderTickRate:1

[Events]
//Background and Video events
0,0,"bg nekomata.png",0,0
//Break Periods
//Storyboard Layer 0 (Background)
//Storyboard Layer 1 (Fail)
//Storyboard Layer 2 (Pass)
//Storyboard Layer 3 (Foreground)
//Storyboard Layer 4 (Overlay)
//Storyboard Sound Samples

[TimingPoints]
1077,400,3,2,1,55,1,0
1877,-111.111111111111,3,2,1,55,0,0
11877,-100,3,2,1,75,0,0
40677,-111.111111111111,3,2,1,65,0,0
55077,-90.9090909090909,3,2,1,85,0,1
75477,-100,3,2,1,75,0,0
87477,-86.9565217391304,3,2,1,95,0,1
104277,-90.9090909090909,3,2,1,95,0,1
106577,-90.9090909090909,3,2,1,100,0,0
106677,-90.9090909090909,3,2,1,5,0,0

[Colours]
Combo1 : 254,235,197
Combo2 : 183,183,219
Combo3 : 248,204,156
Combo4 : 139,254,200

[HitObjects]
22,130,1877,5,0,1:0:0:0:
68,207,2277,2,0,P|135:204|185:98,1,179.999994506836,4|0,0:1|0:0,0:0:0:0:
225,32,3477,1,8,0:3:0:0:
311,7,3877,1,8,0:3:0:0:
388,52,4277,1,2,0:3:0:0:
390,141,4677,1,12,0:3:0:0:
469,302,5477,5,0,3:0:0:0:
398,357,5877,2,0,P|305:339|212:336,1,179.999994506836,2|2,1:3|1:2,0:0:0:0:
138,296,7077,2,0,P|91:285|70:163,1,179.999994506836,0|0,1:0|1:0,0:0:0:0:
154,169,8277,1,2,1:3:0:0:
207,96,8677,1,0,3:0:0:0:
145,30,9077,1,8,0:3:0:0:
71,81,9477,1,4,1:0:0:0:
335,28,10677,6,0,P|340:80|347:132,1,89.999997253418,2|10,0:1|1:3,0:0:0:0:
363,205,11477,1,2,1:3:0:0:
318,294,11877,6,0,P|257:344|178:322,1,150,4|2,1:0|1:3,0:0:0:0:
160,293,12677,1,8,0:3:0:0:
204,203,13077,1,2,1:3:0:0:
135,130,13477,2,0,L|25:119,1,99.9999999999999,4|2,1:3|0:1,0:0:0:0:
42,20,14277,6,0,L|210:9,1,150,4|10,3:2|1:3,0:0:0:0:
235,33,15077,1,8,3:0:0:0:
331,5,15477,2,0,P|397:28|419:109,1,150,4|10,1:2|1:3,0:0:0:0:
394,141,16277,1,2,3:2:0:0:
411,239,16677,6,0,L|242:260,1,150,4|2,1:2|1:3,0:0:0:0:
214,243,17477,1,10,3:0:0:0:
142,313,17877,1,10,1:3:0:0:
56,260,18277,1,0,3:0:0:0:
91,166,18677,1,8,1:3:0:0:
44,77,19077,1,6,0:1:0:0:
279,0,21077,5,2,0:0:0:0:
221,81,21477,2,0,P|239:153|248:238,1,150,12|0,1:2|1:0,0:0:0:0:
225,273,22277,1,12,0:0:0:0:
281,355,22677,2,0,P|340:352|369:309,1,99.9999999999999,10|8,1:2|0:2,0:0:0:0:
358,273,23277,1,2,1:3:0:0:
358,273,23477,1,10,1:2:0:0:
448,231,23877,6,0,P|454:157|471:80,1,150,12|0,1:2|1:0,0:0:0:0:
442,41,24677,1,8,0:3:0:0:
350,0,25077,2,0,B|282:-4|262:46|264:54|267:62|243:104|182:101,1,200,6|2,3:0|0:3,0:0:0:0:
107,154,26277,6,0,P|98:204|92:261,1,99.9999999999999,12|0,1:2|0:0,0:0:0:0:
103,301,26877,1,0,1:0:0:0:
103,301,27077,2,0,P|142:308|208:328,1,99.9999999999999,10|10,0:0|1:2,0:0:0:0:
280,265,27877,1,8,0:0:0:0:
369,310,28277,1,8,0:3:0:0:
448,248,28677,6,0,P|449:190|437:126,1,99.9999999999999,6|0,3:0|0:0,0:0:0:0:
245,113,29877,2,0,P|242:65|252:-7,2,99.9999999999999,4|8|8,1:2|0:0|1:2,0:0:0:0:
145,122,31077,6,0,P|102:150|84:217,1,99.9999999999999,6|0,1:3|0:0,0:0:0:0:
106,239,31677,1,0,1:0:0:0:
106,239,31877,1,0,3:0:0:0:
192,291,32277,2,0,P|231:280|352:267,1,150,10|0,0:0|1:0,0:0:0:0:
370,228,33077,1,8,3:0:0:0:
435,152,33477,6,0,P|436:109|443:39,1,99.9999999999999,10|2,3:0|0:0,0:0:0:0:
406,16,34077,1,2,1:3:0:0:
406,16,34277,1,8,3:0:0:0:
311,49,34677,2,0,P|318:102|321:207,1,150,14|2,1:3|1:3,0:0:0:0:
292,239,35477,1,8,3:0:0:0:
207,293,35877,6,0,P|156:284|48:271,1,150,4|2,3:2|1:3,0:0:0:0:
35,227,36677,1,0,3:0:0:0:
65,131,37077,2,0,P|135:117|220:111,1,150,10|6,0:0|1:3,0:0:0:0:
258,90,37877,1,8,3:0:0:0:
342,35,38277,5,4,1:2:0:0:
487,70,38877,1,2,1:2:0:0:
452,215,39477,1,14,3:0:0:0:
307,180,40077,1,4,1:2:0:0:
267,309,40677,6,0,P|210:318|166:338,1,89.999997253418,4|4,0:1|0:3,0:0:0:0:
95,298,41477,2,0,P|65:268|61:207,1,89.999997253418,2|8,0:0|3:0,0:0:0:0:
114,153,42277,2,0,P|111:117|106:95,1,44.999998626709,2|8,1:3|0:3,0:0:0:0:
96,65,42677,2,0,P|118:35|186:32,1,89.999997253418,8|2,0:0|1:3,0:0:0:0:
231,88,43477,1,4,0:3:0:0:
393,165,44277,6,0,P|381:217|378:266,1,89.999997253418,6|0,0:0|1:0,0:0:0:0:
317,320,45077,2,0,P|277:321|240:279,1,89.999997253418,2|2,1:3|1:0,0:0:0:0:
175,228,45877,2,0,P|132:236|90:275,1,89.999997253418,8|8,0:3|0:3,0:0:0:0:
80,306,46477,1,0,0:0:0:0:
80,306,46677,1,4,0:3:0:0:
20,238,47077,6,0,P|15:190|7:49,1,179.999994506836,8|10,3:0|1:3,0:0:0:0:
84,12,48277,2,0,P|101:29|110:53,1,44.999998626709,4|0,0:3|1:0,0:0:0:0:
113,92,48677,2,0,P|163:109|208:114,1,89.999997253418,8|6,1:3|0:0,0:0:0:0:
279,155,49477,2,0,P|360:131|379:128,1,89.999997253418,2|2,1:3|1:3,0:0:0:0:
449,161,50277,1,2,1:3:0:0:
256,192,50377,12,2,52677,1:3:0:0:
24,32,53877,5,6,3:1:0:0:
108,64,54277,2,0,P|173:49|203:39,1,89.999997253418,2|8,1:3|3:0,0:0:0:0:
305,39,55077,6,0,P|336:92|331:150,1,110.000003356934,6|0,3:1|0:0,0:0:0:0:
288,169,55677,1,2,1:3:0:0:
233,169,55877,2,0,P|184:158|155:159,1,55.0000016784668,8|12,3:0|3:2,0:0:0:0:
139,195,56277,1,6,1:3:0:0:
82,289,56677,1,8,3:0:0:0:
170,354,57077,1,8,3:2:0:0:
273,315,57477,6,0,P|331:298|397:298,1,110.000003356934,14|0,1:3|0:0,0:0:0:0:
432,279,58077,1,10,1:3:0:0:
462,233,58277,2,0,P|470:192|466:165,1,55.0000016784668,8|4,3:0|3:2,0:0:0:0:
437,133,58677,1,10,1:3:0:0:
468,27,59077,1,8,0:3:0:0:
360,2,59477,1,8,1:3:0:0:
281,79,59877,6,0,P|209:69|45:64,1,220.000006713867,2|8,0:1|3:0,0:0:0:0:
49,172,61077,2,0,P|121:182|285:187,1,220.000006713867,14|8,1:3|3:0,0:0:0:0:
323,182,62077,1,8,0:0:0:0:
369,211,62277,6,0,P|370:263|324:303,1,110.000003356934,2|8,1:0|3:2,0:0:0:0:
280,324,62877,1,10,1:3:0:0:
280,324,63077,1,8,3:2:0:0:
174,356,63477,2,0,P|119:347|42:341,1,110.000003356934,14|10,1:3|0:0,0:0:0:0:
37,301,64077,1,10,1:3:0:0:
37,301,64277,1,10,1:3:0:0:
11,193,64677,6,0,P|22:133|60:83,1,110.000003356934,6|0,3:1|0:0,0:0:0:0:
99,71,65277,1,2,1:3:0:0:
150,90,65477,2,0,P|192:111|217:115,1,55.0000016784668,8|12,3:0|3:2,0:0:0:0:
248,86,65877,1,6,1:3:0:0:
338,23,66277,1,8,3:0:0:0:
430,82,66677,1,2,1:3:0:0:
414,190,67077,6,0,P|402:245|393:311,1,110.000003356934,4|10,3:1|0:0,0:0:0:0:
348,328,67677,2,0,P|297:337|276:329,1,55.0000016784668,10|10,1:2|3:2,0:0:0:0:
255,297,68077,1,8,3:0:0:0:
255,297,68277,2,0,P|247:229|211:118,1,165.0000050354,6|8,1:3|1:3,0:0:0:0:
176,102,69077,1,8,3:0:0:0:
77,150,69477,6,0,L|67:263,1,110.000003356934,2|0,3:1|0:0,0:0:0:0:
84,311,70077,1,2,1:3:0:0:
84,311,70277,1,8,0:3:0:0:
179,365,70677,2,0,P|226:364|290:320,1,110.000003356934,2|8,1:3|3:0,0:0:0:0:
291,279,71277,1,2,1:3:0:0:
291,279,71477,1,12,3:2:0:0:
343,182,71877,6,0,P|381:142|450:134,1,110.000003356934,2|0,1:1|0:0,0:0:0:0:
466,87,72477,1,2,1:3:0:0:
446,35,72677,2,0,P|422:17|376:9,1,55.0000016784668,10|12,1:3|3:0,0:0:0:0:
348,33,73077,2,0,L|214:22,1,110.000003356934,10|8,1:3|0:0,0:0:0:0:
192,51,73677,1,10,1:3:0:0:
192,51,73877,2,0,P|168:91|170:112,1,55.0000016784668,8|0,3:0|3:0,0:0:0:0:
187,149,74277,5,2,3:1:0:0:
273,217,74677,1,10,1:3:0:0:
199,298,75077,1,8,0:3:0:0:
273,379,75477,1,4,1:1:0:0:
273,379,76677,6,0,P|218:355|166:342,1,99.9999999999999,10|4,1:3|1:2,0:0:0:0:
104,278,77477,1,6,1:3:0:0:
146,187,77877,1,6,3:1:0:0:
146,187,79077,6,0,P|208:178|258:153,1,99.9999999999999,14|2,0:0|1:0,0:0:0:0:
292,76,79877,1,8,3:0:0:0:
391,76,80277,2,0,P|446:102|500:229,1,200,14|8,1:3|3:0,0:0:0:0:
479,269,81277,1,2,1:0:0:0:
429,278,81477,1,12,3:2:0:0:
365,355,81877,5,14,1:3:0:0:
267,334,82277,1,14,1:3:0:0:
170,309,82677,2,0,B|132:258|171:190|201:196|226:205|266:157|247:96,1,250,2|10,1:0|1:3,0:0:0:0:
221,57,83877,1,12,3:2:0:0:
251,17,84077,2,0,L|363:4,1,99.9999999999999,2|8,1:0|3:0,0:0:0:0:
391,34,84677,1,14,1:3:0:0:
489,14,85077,5,2,3:1:0:0:
501,113,85477,1,2,3:1:0:0:
442,193,85877,1,2,3:1:0:0:
457,291,86277,1,4,3:1:0:0:
396,370,86677,2,0,P|365:364|290:362,1,99.9999999999999,14|8,0:0|3:2,0:0:0:0:
189,320,87477,6,0,P|126:297|108:245,1,115.000002193451,6|0,3:1|0:0,0:0:0:0:
140,207,88077,1,2,1:3:0:0:
123,152,88277,2,0,P|124:121|120:78,1,57.5000010967254,8|12,3:0|3:2,0:0:0:0:
83,51,88677,1,6,1:3:0:0:
190,9,89077,1,8,3:0:0:0:
255,103,89477,1,8,3:2:0:0:
357,51,89877,6,0,P|420:60|447:176,1,172.500003290176,14|10,1:3|1:3,0:0:0:0:
427,201,90677,1,8,3:0:0:0:
427,201,90877,1,4,3:2:0:0:
385,240,91077,2,0,P|377:286|380:319,1,57.5000010967254,10|10,1:3|1:2,0:0:0:0:
400,349,91477,1,8,0:3:0:0:
172,383,92277,6,0,P|116:362|95:300,1,115.000002193451,2|0,0:1|0:0,0:0:0:0:
113,259,92877,1,2,1:3:0:0:
156,221,93077,2,0,P|161:178|158:158,1,57.5000010967254,8|10,3:0|3:2,0:0:0:0:
117,123,93477,2,0,L|-1:138,2,115.000002193451,14|8|8,1:3|3:2|3:0,0:0:0:0:
199,42,94677,6,0,P|252:47|303:106,1,115.000002193451,2|8,1:0|3:2,0:0:0:0:
286,144,95277,1,10,1:3:0:0:
322,188,95477,2,0,P|366:183|383:170,1,57.5000010967254,8|8,3:2|3:0,0:0:0:0:
398,123,95877,1,14,1:3:0:0:
494,185,96277,2,0,P|489:230|489:307,1,115.000002193451,10|10,0:0|1:3,0:0:0:0:
382,343,97077,6,0,P|322:333|262:329,1,115.000002193451,6|0,3:1|0:0,0:0:0:0:
231,284,97677,1,2,1:3:0:0:
270,242,97877,2,0,P|319:228|349:227,1,57.5000010967254,8|12,3:0|3:2,0:0:0:0:
359,180,98277,1,6,1:3:0:0:
310,75,98677,1,8,3:0:0:0:
197,100,99077,2,0,P|170:124|149:147,1,57.5000010967254,2|10,1:3|3:2,0:0:0:0:
98,149,99477,6,0,P|107:206|121:333,1,172.500003290176,4|10,3:1|1:2,0:0:0:0:
227,361,100477,1,8,3:0:0:0:
266,318,100677,2,0,P|272:251|291:128,1,172.500003290176,6|8,1:3|1:3,0:0:0:0:
259,96,101477,1,8,3:0:0:0:
145,77,101877,6,0,P|93:99|62:162,1,115.000002193451,2|0,3:1|0:0,0:0:0:0:
83,202,102477,1,2,1:3:0:0:
57,253,102677,2,0,P|60:298|57:323,1,57.5000010967254,8|12,0:3|1:2,0:0:0:0:
95,354,103077,1,2,1:3:0:0:
208,375,103477,1,8,3:2:0:0:
285,290,103877,1,10,1:3:0:0:
396,317,104277,6,0,P|436:295|442:231,1,110.000003356934,14|0,1:3|0:0,0:0:0:0:
415,194,104877,1,8,3:0:0:0:
415,194,105077,1,8,3:0:0:0:
452,90,105477,2,0,P|417:62|351:57,1,110.000003356934,10|0,1:3|0:0,0:0:0:0:
307,85,106077,1,2,1:3:0:0:
253,74,106277,6,0,B|231:39|231:39|245:-15,1,82.5000025177002,8|8,3:0|3:0,0:0:0:0:
