osu file format v14

[General]
AudioFilename: audio.mp3
AudioLeadIn: 0
PreviewTime: 54158
Countdown: 0
SampleSet: Soft
StackLeniency: 0.6
Mode: 0
LetterboxInBreaks: 0
WidescreenStoryboard: 1

[Editor]
DistanceSpacing: 1
BeatDivisor: 4
GridSize: 4
TimelineZoom: 2.2

[Metadata]
Title:Houkou Orpheus
TitleUnicode:彷徨オルフェウス
Artist:Gekidan Record feat. Nekomata Master
ArtistUnicode:劇団レコード feat. 猫叉Master
Creator:DeviousPanda
Version:Hard
Source:REFLEC BEAT 悠久のリフレシア
Tags:corsace ro16 nm6 bemani konami video game The Reflesia of Eternity 猫叉劇団 Nekomata Gekidan Tomoaki Hirono Naoyuki Sato other instrumental
BeatmapID:2613062
BeatmapSetID:1257522

[Difficulty]
HPDrainRate:3
CircleSize:3.3
OverallDifficulty:6
ApproachRate:7.6
SliderMultiplier:1.4
SliderTickRate:1

[Events]
//Background and Video events
0,0,"bg nekomata.png",0,0
//Break Periods
//Storyboard Layer 0 (Background)
//Storyboard Layer 1 (Fail)
//Storyboard Layer 2 (Pass)
//Storyboard Layer 3 (Foreground)
//Storyboard Layer 4 (Overlay)
//Storyboard Sound Samples

[TimingPoints]
1077,400,3,2,1,55,1,0
1077,-111.111111111111,3,2,1,55,0,0
10727,-111.111111111111,3,2,1,5,0,0
10777,-111.111111111111,3,2,1,55,0,0
11877,-95.2380952380952,3,2,1,75,0,0
22277,-100,3,2,1,75,0,0
40677,-100,3,2,1,65,0,0
55077,-83.3333333333333,3,2,1,85,0,1
75477,-111.111111111111,3,2,1,75,0,0
87477,-80,3,2,1,95,0,1
106577,-80,3,2,1,100,0,0
106677,-80,3,2,1,5,0,0

[Colours]
Combo1 : 254,235,197
Combo2 : 183,183,219
Combo3 : 248,204,156
Combo4 : 139,254,200

[HitObjects]
157,104,1077,6,0,B|95:84|95:84|40:134,2,125.999996154785,2|4|0,0:0|0:0|1:0,0:0:0:0:
268,63,2277,6,0,P|261:122|249:337,1,251.999992309571,4|0,0:1|0:0,0:0:0:0:
305,378,3277,1,2,0:3:0:0:
305,378,3477,2,0,P|349:362|375:357,1,62.9999980773926,8|0,0:3|3:0,0:0:0:0:
479,291,3877,2,0,P|418:278|355:255,1,125.999996154785,8|2,0:3|0:3,0:0:0:0:
308,60,4677,5,12,0:3:0:0:
308,60,4877,2,0,P|229:76|218:140,1,125.999996154785,0|0,3:0|0:0,0:0:0:0:
145,167,5477,2,0,P|155:216|162:275,1,94.499997116089,0|0,3:0|3:0,0:0:0:0:
179,276,5877,1,2,1:3:0:0:
280,239,6277,1,2,1:3:0:0:
333,334,6677,1,2,1:2:0:0:
235,384,7077,5,0,1:0:0:0:
235,384,7277,2,0,P|155:381|97:382,1,125.999996154785,8|2,0:3|3:0,0:0:0:0:
39,342,7877,2,0,P|27:307|33:274,1,62.9999980773926,0|2,1:0|3:0,0:0:0:0:
104,196,8277,5,2,1:3:0:0:
216,217,8677,1,0,3:0:0:0:
250,111,9077,1,8,0:3:0:0:
365,64,9477,6,0,P|429:78|441:140,1,125.999996154785,4|0,1:0|0:0,0:0:0:0:
399,197,10077,1,10,1:3:0:0:
399,197,10277,2,0,P|395:248|396:282,1,62.9999980773926,2|10,0:0|0:0,0:0:0:0:
469,342,10677,5,2,0:1:0:0:
322,355,11077,1,10,1:3:0:0:
174,363,11477,2,0,P|131:357|99:339,1,62.9999980773926,2|8,1:3|1:3,0:0:0:0:
59,267,11877,6,0,P|79:236|117:220,1,73.4999977569581,4|8,1:0|3:0,0:0:0:0:
129,201,12177,2,0,P|136:146|125:72,1,110.249996635437,2|2,1:3|1:3,0:0:0:0:
207,11,12677,2,0,P|255:19|277:56,1,73.4999977569581,8|0,0:3|3:0,0:0:0:0:
321,121,13077,6,0,L|232:134,1,73.4999977569581,2|0,1:3|3:0,0:0:0:0:
230,154,13377,1,2,1:3:0:0:
186,278,13677,1,10,1:3:0:0:
252,325,13877,2,0,P|288:307|301:257,1,73.4999977569581,2|8,0:1|3:0,0:0:0:0:
387,239,14277,6,0,P|388:184|396:140,1,73.4999977569581,4|8,3:2|3:0,0:0:0:0:
406,141,14577,2,0,P|396:92|333:76,1,110.249996635437,2|10,1:3|1:3,0:0:0:0:
272,44,15077,2,0,P|219:54|155:62,1,110.249996635437,8|0,3:0|0:0,0:0:0:0:
144,84,15477,1,4,1:2:0:0:
225,197,15877,1,12,3:0:0:0:
159,308,16277,1,2,3:2:0:0:
284,372,16677,6,0,P|342:358|388:353,1,73.4999977569581,4|8,1:2|3:2,0:0:0:0:
371,340,16977,2,0,P|415:351|453:352,1,73.4999977569581,2|8,1:3|0:3,0:0:0:0:
461,370,17277,1,2,1:3:0:0:
512,305,17477,2,0,P|502:251|493:171,1,110.249996635437,10|0,3:0|0:0,0:0:0:0:
480,186,17877,6,0,B|441:169|406:192|409:205|412:218|390:248|329:241,1,146.999995513916,10|0,1:3|3:0,0:0:0:0:
284,187,18477,1,2,3:0:0:0:
340,114,18677,2,0,P|351:82|340:36,1,73.4999977569581,8|10,1:3|3:2,0:0:0:0:
253,0,19077,5,6,0:1:0:0:
254,378,21077,5,2,0:0:0:0:
254,378,21477,2,0,B|235:330|247:311|253:307|262:301|277:269|254:216,1,146.999995513916,12|0,1:2|0:0,0:0:0:0:
261,236,21977,1,0,3:0:0:0:
261,236,22077,1,0,1:0:0:0:
338,194,22277,2,0,P|388:204|440:221,1,105,12|0,0:0|0:0,0:0:0:0:
452,213,22677,6,0,B|482:183|482:183|457:65,1,140,10|8,1:2|0:2,0:0:0:0:
473,82,23177,2,0,L|485:22,1,35,0|2,3:0|1:3,0:0:0:0:
402,0,23477,1,10,1:2:0:0:
333,59,23677,1,8,0:0:0:0:
233,7,23877,6,0,P|152:20|89:27,1,140,12|0,1:2|0:0,0:0:0:0:
94,26,24377,1,8,0:0:0:0:
94,26,24477,1,0,1:0:0:0:
35,92,24677,2,0,P|18:138|23:216,1,105,8|0,0:3|3:0,0:0:0:0:
30,205,25077,6,0,B|73:194|73:194|161:286|161:286|226:267,1,210,6|8,3:0|0:3,0:0:0:0:
289,331,25877,1,2,0:3:0:0:
289,331,25977,1,8,1:3:0:0:
289,331,26077,2,0,L|296:276,1,35,8|2,1:2|1:3,0:0:0:0:
317,274,26277,6,0,B|326:224|297:185|289:187|276:191|237:154|253:80,1,210,12|0,1:2|1:0,0:0:0:0:
319,30,27077,2,0,P|377:42|411:42,1,70,10|8,0:0|0:0,0:0:0:0:
481,6,27477,5,10,1:2:0:0:
490,94,27677,1,0,3:0:0:0:
490,94,27777,2,0,P|474:138|470:184,1,70,0|0,1:0|3:0,0:0:0:0:
449,174,28077,1,0,1:0:0:0:
429,265,28277,2,0,P|376:261|332:207,1,105,8|0,0:3|3:0,0:0:0:0:
320,235,28677,6,0,P|267:215|196:272,1,140,6|0,3:0|0:0,0:0:0:0:
208,268,29177,2,0,L|200:325,1,35,8|0,0:0|1:0,0:0:0:0:
127,344,29477,1,8,0:3:0:0:
82,230,29677,5,2,3:0:0:0:
82,230,29777,1,2,0:3:0:0:
82,230,29877,2,0,P|83:189|68:137,1,70,4|0,1:2|3:0,0:0:0:0:
88,139,30177,2,0,P|115:104|191:83,1,105,2|10,1:3|1:3,0:0:0:0:
255,129,30677,2,0,L|270:181,3,35,8|0|0|0,1:2|1:0|1:0|1:0,0:0:0:0:
287,175,31077,6,0,P|359:172|385:98,1,140,6|0,1:3|0:0,0:0:0:0:
387,117,31577,1,8,0:0:0:0:
387,117,31677,1,0,1:0:0:0:
493,119,31877,1,0,3:0:0:0:
511,216,32077,1,8,0:0:0:0:
422,292,32277,6,0,P|361:281|253:278,1,140,10|8,0:0|3:2,0:0:0:0:
272,269,32777,2,0,L|252:211,1,35,8|0,0:0|1:0,0:0:0:0:
162,206,33077,1,8,3:0:0:0:
112,302,33277,1,0,3:0:0:0:
8,249,33477,6,0,P|-18:202|18:102,1,140,10|2,3:0|0:0,0:0:0:0:
0,120,33977,1,0,3:0:0:0:
0,120,34077,1,2,1:3:0:0:
36,33,34277,1,8,3:0:0:0:
128,51,34477,1,8,0:0:0:0:
110,151,34677,6,0,P|177:135|331:108,1,210,14|2,1:3|1:3,0:0:0:0:
387,46,35477,2,0,L|428:58,3,35,8|8|8|0,3:0|3:0|1:2|3:0,0:0:0:0:
434,52,35877,6,0,P|455:86|452:195,1,140,4|0,3:2|0:0,0:0:0:0:
456,183,36377,1,0,3:0:0:0:
456,183,36477,1,2,1:3:0:0:
404,265,36677,2,0,P|355:252|289:252,1,105,0|0,3:0|0:0,0:0:0:0:
289,238,37077,6,0,P|294:182|283:87,1,140,10|0,0:0|0:0,0:0:0:0:
277,92,37577,2,0,L|226:82,1,35,8|6,0:3|1:3,0:0:0:0:
156,29,37877,2,0,L|111:37,3,35,8|0|8|8,3:0|3:0|3:0|3:2,0:0:0:0:
114,43,38277,5,4,1:2:0:0:
47,221,38877,1,2,1:2:0:0:
215,355,39477,1,14,3:0:0:0:
403,237,40077,1,4,1:2:0:0:
349,51,40677,6,0,B|305:40|277:63|278:68|280:79|258:94|214:90,1,140,4|4,0:1|0:3,0:0:0:0:
153,54,41277,1,0,3:0:0:0:
153,54,41477,2,0,P|178:117|192:203,2,140,2|8|2,0:0|3:0|1:3,0:0:0:0:
52,49,42477,5,8,0:3:0:0:
1,121,42677,1,8,0:0:0:0:
60,185,42877,1,0,3:0:0:0:
16,257,43077,2,0,P|26:316|29:347,1,70,2|8,1:3|0:3,0:0:0:0:
140,375,43477,6,0,P|200:358|218:274,1,140,4|0,0:3|1:0,0:0:0:0:
179,217,44077,1,2,1:3:0:0:
301,260,44277,2,0,P|313:197|323:163,1,70,6|0,0:0|0:0,0:0:0:0:
432,58,44677,5,0,1:0:0:0:
363,6,44877,1,2,1:3:0:0:
280,38,45077,1,2,1:3:0:0:
262,123,45277,1,2,1:3:0:0:
395,173,45477,6,0,P|413:241|417:328,1,140,2|8,1:0|0:3,0:0:0:0:
336,365,46077,1,0,1:0:0:0:
263,309,46277,2,0,P|280:257|304:239,1,70,8|0,0:3|0:0,0:0:0:0:
398,170,46677,6,0,P|418:128|333:86,1,140,4|8,0:3|3:0,0:0:0:0:
279,123,47277,1,2,1:3:0:0:
234,46,47477,2,0,P|183:34|147:17,1,70,8|0,0:3|3:0,0:0:0:0:
25,106,47877,6,0,P|48:164|69:262,1,140,10|4,1:3|0:3,0:0:0:0:
210,218,48477,1,0,1:0:0:0:
131,340,48677,2,0,P|141:290|151:255,1,70,8|2,1:3|1:3,0:0:0:0:
206,40,49077,5,6,0:0:0:0:
299,11,49277,1,0,3:0:0:0:
362,73,49477,1,2,1:3:0:0:
367,156,49677,1,8,3:0:0:0:
404,224,49877,1,2,1:3:0:0:
447,248,50077,1,0,1:0:0:0:
478,241,50277,1,2,1:3:0:0:
256,192,50377,12,6,53877,3:1:0:0:
46,13,54277,5,2,1:3:0:0:
46,13,54677,2,0,L|55:46,3,35,8|0|8|0,3:0|3:0|3:0|3:0,0:0:0:0:
62,55,55077,6,0,P|108:47|140:-7,1,83.9999974365235,6|8,3:1|3:0,0:0:0:0:
164,39,55377,2,0,P|148:106|147:199,1,125.999996154785,2|2,1:3|1:3,0:0:0:0:
60,229,55877,2,0,B|45:227|45:227|25:207,3,27.9999991455078,8|8|8|12,3:0|3:2|3:2|3:2,0:0:0:0:
164,288,56277,6,0,P|230:275|279:270,1,83.9999974365235,6|8,1:3|3:0,0:0:0:0:
266,241,56577,2,0,P|321:248|357:248,1,83.9999974365235,2|8,1:3|0:3,0:0:0:0:
385,271,56877,1,2,1:3:0:0:
464,219,57077,1,8,3:2:0:0:
464,219,57177,1,2,1:3:0:0:
464,219,57277,1,10,3:3:0:0:
401,101,57477,6,0,P|354:104|319:155,1,83.9999974365235,14|8,1:3|3:0,0:0:0:0:
291,135,57777,2,0,P|286:71|266:-10,1,125.999996154785,2|10,1:3|1:3,0:0:0:0:
163,0,58277,1,8,3:0:0:0:
98,86,58477,1,4,3:2:0:0:
124,192,58677,6,0,L|192:204,3,41.9999987182618,10|10|10|2,1:3|0:0|1:2|1:3,0:0:0:0:
102,218,59077,2,0,L|34:230,2,41.9999987182618,8|0|8,0:3|3:0|1:3,0:0:0:0:
114,314,59477,5,8,1:3:0:0:
114,314,59577,1,8,0:3:0:0:
114,314,59677,2,0,P|144:320|166:332,1,41.9999987182618,8|8,3:2|1:2,0:0:0:0:
177,305,59877,6,0,P|225:277|221:216,1,83.9999974365235,2|12,0:1|0:0,0:0:0:0:
258,229,60177,2,0,P|262:177|276:109,1,83.9999974365235,10|8,1:3|3:2,0:0:0:0:
233,110,60477,1,2,1:3:0:0:
299,26,60677,1,8,3:0:0:0:
388,69,60877,1,10,3:2:0:0:
503,14,61077,6,0,P|489:84|476:217,1,167.999994873047,14|0,1:3|3:0,0:0:0:0:
477,179,61577,1,8,3:2:0:0:
477,179,61677,1,10,1:3:0:0:
432,268,61877,1,8,3:0:0:0:
337,245,62077,1,8,0:0:0:0:
265,334,62277,6,0,P|188:326|151:326,1,83.9999974365235,2|8,1:0|3:0,0:0:0:0:
142,347,62577,1,2,1:3:0:0:
84,266,62777,1,8,3:0:0:0:
84,266,62877,2,0,P|39:276|-2:277,2,83.9999974365235,10|8|8,1:3|3:2|3:0,0:0:0:0:
152,190,63477,5,14,1:3:0:0:
100,87,63677,1,8,0:3:0:0:
100,87,63777,2,0,P|50:108|45:153,1,83.9999974365235,2|8,1:3|3:0,0:0:0:0:
54,163,64077,1,10,1:3:0:0:
224,123,64277,2,0,L|231:68,3,41.9999987182618,10|0|0|0,1:3|1:0|1:0|1:0,0:0:0:0:
239,77,64677,6,0,P|289:60|329:75,1,83.9999974365235,6|8,3:1|3:0,0:0:0:0:
356,54,64977,2,0,P|346:123|344:214,1,125.999996154785,2|2,1:3|1:3,0:0:0:0:
426,271,65477,2,0,B|442:268|442:268|459:237,3,27.9999991455078,8|8|8|12,3:0|3:2|3:2|3:2,0:0:0:0:
318,346,65877,6,0,P|244:328|205:328,1,83.9999974365235,6|8,1:3|3:0,0:0:0:0:
203,296,66177,2,0,P|153:303|109:298,1,83.9999974365235,2|8,1:3|3:2,0:0:0:0:
84,331,66477,1,10,1:3:0:0:
20,253,66677,1,2,1:3:0:0:
110,175,66877,5,10,3:2:0:0:
110,175,66977,1,10,3:2:0:0:
110,175,67077,2,0,P|113:118|92:23,2,125.999996154785,4|2|10,3:1|1:3|1:2,0:0:0:0:
229,69,68077,5,8,3:0:0:0:
284,13,68277,2,0,B|361:-13|388:64|384:75|379:89|407:157|479:138,1,251.999992309571,6|8,1:3|1:3,0:0:0:0:
503,242,69077,2,0,P|497:266|495:304,3,41.9999987182618,8|8|10|8,3:0|3:0|1:3|1:2,0:0:0:0:
475,308,69477,6,0,P|426:330|369:297,1,83.9999974365235,2|8,3:1|3:0,0:0:0:0:
365,340,69777,2,0,P|355:287|328:192,1,125.999996154785,2|2,1:3|1:3,0:0:0:0:
259,159,70277,1,8,0:3:0:0:
183,208,70477,1,10,1:2:0:0:
199,302,70677,6,0,P|165:348|65:306,2,167.999994873047,2|8|12,1:3|3:0|3:2,0:0:0:0:
286,384,71677,1,8,3:0:0:0:
286,384,71777,1,0,0:0:0:0:
286,384,71877,2,0,P|295:283|323:108,1,251.999992309571,2|2,1:1|1:3,0:0:0:0:
402,69,72677,2,0,P|397:33|386:3,4,41.9999987182618,10|8|12|8|10,1:3|0:0|3:0|0:3|1:3,0:0:0:0:
256,192,73177,12,8,75077,0:3:0:0:
76,71,75477,5,4,1:1:0:0:
76,71,75677,2,0,P|95:124|97:152,1,62.9999980773926,0|8,1:0|0:3,0:0:0:0:
71,215,76077,2,0,P|107:274|174:278,1,125.999996154785,2|2,1:3|1:3,0:0:0:0:
255,196,76677,2,0,P|255:113|251:52,2,125.999996154785,10|4|6,1:3|1:2|1:3,0:0:0:0:
260,319,77877,5,6,3:1:0:0:
334,360,78077,2,0,B|375:351|388:325|385:316|388:286|433:279,2,125.999996154785,0|2|2,1:0|1:3|1:3,0:0:0:0:
257,196,79077,2,0,P|254:133|255:71,2,125.999996154785,14|2|8,0:0|1:0|3:0,0:0:0:0:
257,316,80277,5,14,1:3:0:0:
186,370,80477,2,0,P|128:344|129:278,1,125.999996154785,0|14,1:3|1:3,0:0:0:0:
89,209,81077,2,0,P|129:173|157:170,1,62.9999980773926,8|2,3:0|1:0,0:0:0:0:
191,102,81477,2,0,P|230:121|246:153,1,62.9999980773926,12|10,3:2|1:3,0:0:0:0:
257,372,81877,5,14,1:3:0:0:
257,372,82277,1,14,1:3:0:0:
258,270,82677,2,0,P|259:222|256:134,1,125.999996154785,2|8,1:0|1:3,0:0:0:0:
286,56,83277,2,0,P|320:33|358:39,1,62.9999980773926,6|8,1:3|1:3,0:0:0:0:
422,80,83677,1,10,1:3:0:0:
422,80,83877,1,12,3:2:0:0:
475,186,84077,6,0,L|325:169,1,125.999996154785,2|8,1:0|3:0,0:0:0:0:
271,189,84677,2,0,P|262:231|262:264,1,62.9999980773926,14|0,1:3|0:0,0:0:0:0:
265,342,85077,5,2,3:1:0:0:
253,51,85477,1,2,3:1:0:0:
91,197,85877,5,2,3:1:0:0:
420,185,86277,1,4,3:1:0:0:
257,193,86677,5,14,0:0:0:0:
257,193,87077,1,8,3:2:0:0:
257,193,87477,6,0,P|311:204|344:181,1,87.5,6|8,3:1|3:0,0:0:0:0:
371,198,87777,2,0,P|379:137|393:103,1,87.5,2|0,1:3|3:0,0:0:0:0:
371,77,88077,1,2,1:3:0:0:
460,4,88277,2,0,B|477:7|477:7|484:23,3,29.1666666666667,8|8|8|12,3:0|3:2|3:2|3:2,0:0:0:0:
288,0,88677,6,0,P|246:9|224:50,1,87.5,6|8,1:3|3:0,0:0:0:0:
193,69,88977,2,0,P|139:57|100:29,1,87.5,2|8,1:3|0:3,0:0:0:0:
69,51,89277,1,2,1:3:0:0:
17,138,89477,1,8,3:2:0:0:
17,138,89577,1,2,1:3:0:0:
17,138,89677,1,10,3:2:0:0:
101,213,89877,6,0,P|140:179|199:205,1,87.5,14|8,1:3|3:0,0:0:0:0:
202,212,90177,2,0,P|189:272|182:326,1,87.5,2|8,1:3|0:3,0:0:0:0:
213,330,90477,1,10,1:3:0:0:
312,299,90677,1,8,3:0:0:0:
406,335,90877,1,4,3:2:0:0:
455,208,91077,6,0,L|441:154,3,43.75,10|10|10|2,1:3|0:0|1:2|1:3,0:0:0:0:
371,107,91477,6,0,B|363:176|406:188|433:177|454:173|514:216|519:273|486:318,1,262.5,8|8,0:3|3:2,0:0:0:0:
401,353,92277,6,0,P|326:344|289:344,1,87.5,2|12,0:1|0:0,0:0:0:0:
280,311,92577,2,0,P|208:320|171:320,1,87.5,10|8,1:3|3:2,0:0:0:0:
154,287,92877,1,2,1:3:0:0:
62,337,93077,1,8,3:0:0:0:
2,254,93277,1,10,3:2:0:0:
57,143,93477,6,0,P|116:158|191:25,1,218.75,14|0,1:3|0:0,0:0:0:0:
226,18,94077,1,10,1:3:0:0:
322,77,94277,2,0,P|376:63|422:59,1,87.5,8|8,3:0|0:0,0:0:0:0:
448,181,94677,6,0,P|411:221|370:218,1,87.5,2|8,1:0|3:0,0:0:0:0:
351,237,94977,2,0,P|315:196|263:193,1,87.5,2|8,1:3|3:0,0:0:0:0:
249,154,95277,1,10,1:3:0:0:
162,199,95477,1,8,3:2:0:0:
112,96,95677,5,8,3:0:0:0:
112,96,95777,1,8,0:3:0:0:
112,96,95877,2,0,L|-8:80,1,87.5,14|8,1:3|0:3,0:0:0:0:
0,98,96177,1,2,1:3:0:0:
40,190,96377,2,0,L|23:252,1,43.75,8|10,3:0|1:3,0:0:0:0:
37,330,96677,2,0,L|97:339,3,43.75,10|0|0|0,1:3|1:0|1:0|1:0,0:0:0:0:
86,345,97077,6,0,P|137:330|162:288,1,87.5,6|8,3:1|3:0,0:0:0:0:
198,309,97377,2,0,P|195:227|202:143,1,131.25,2|2,1:3|1:3,0:0:0:0:
123,94,97877,2,0,B|106:91|106:91|83:109,3,29.1666666666667,8|8|8|12,3:0|3:2|3:2|3:2,0:0:0:0:
269,115,98277,6,0,P|300:89|304:31,1,87.5,6|8,1:3|3:0,0:0:0:0:
335,23,98577,2,0,P|417:21|493:3,1,131.25,2|10,1:3|1:3,0:0:0:0:
512,92,99077,1,2,1:3:0:0:
443,163,99277,5,10,3:2:0:0:
443,163,99377,1,10,3:2:0:0:
443,163,99477,2,0,P|369:150|163:140,1,262.5,4|10,3:1|1:2,0:0:0:0:
169,265,100477,1,8,3:0:0:0:
169,265,100677,2,0,P|243:278|449:288,1,262.5,6|8,1:3|1:3,0:0:0:0:
474,212,101477,2,0,L|465:145,3,43.75,8|8|10|8,3:0|3:0|1:3|1:2,0:0:0:0:
436,136,101877,6,0,P|389:128|356:160,1,87.5,2|8,3:1|3:0,0:0:0:0:
316,137,102177,2,0,P|304:63|273:-21,1,131.25,2|2,1:3|1:3,0:0:0:0:
176,13,102677,1,8,0:3:0:0:
149,111,102877,1,12,1:2:0:0:
229,177,103077,6,0,P|239:219|241:272,1,87.5,2|10,1:3|0:0,0:0:0:0:
222,304,103377,1,2,1:3:0:0:
222,304,103477,1,8,3:2:0:0:
297,374,103677,1,10,1:2:0:0:
388,329,103877,1,10,1:3:0:0:
381,224,104077,5,0,3:0:0:0:
381,224,104177,1,8,3:2:0:0:
381,224,104277,2,0,P|384:177|399:102,1,87.5,14|8,1:3|3:0,0:0:0:0:
362,116,104577,2,0,P|359:68|345:15,1,87.5,2|8,1:3|3:2,0:0:0:0:
308,7,104877,1,8,3:0:0:0:
225,71,105077,1,8,3:0:0:0:
124,18,105277,5,8,3:0:0:0:
124,18,105377,1,8,3:2:0:0:
124,18,105477,2,0,P|82:46|36:44,1,87.5,10|8,1:3|3:0,0:0:0:0:
20,75,105777,2,0,P|21:135|57:183,1,87.5,2|8,1:3|3:0,0:0:0:0:
72,168,106077,1,2,1:3:0:0:
110,266,106277,6,0,L|100:349,3,43.75,8|8|8|8,3:0|3:2|0:3|3:0,0:0:0:0:
