osu file format v14

[General]
AudioFilename: audio.mp3
AudioLeadIn: 0
PreviewTime: 54158
Countdown: 0
SampleSet: Soft
StackLeniency: 0.5
Mode: 0
LetterboxInBreaks: 0
WidescreenStoryboard: 1

[Editor]
DistanceSpacing: 1
BeatDivisor: 4
GridSize: 4
TimelineZoom: 2.2

[Metadata]
Title:Houkou Orpheus
TitleUnicode:彷徨オルフェウス
Artist:Gekidan Record feat. Nekomata Master
ArtistUnicode:劇団レコード feat. 猫叉Master
Creator:DeviousPanda
Version:Expert
Source:REFLEC BEAT 悠久のリフレシア
Tags:corsace ro16 nm6 bemani konami video game The Reflesia of Eternity 猫叉劇団 Nekomata Gekidan Tomoaki Hirono Naoyuki Sato other instrumental
BeatmapID:2613061
BeatmapSetID:1257522

[Difficulty]
HPDrainRate:4
CircleSize:4
OverallDifficulty:8
ApproachRate:9
SliderMultiplier:2
SliderTickRate:1

[Events]
//Background and Video events
0,0,"bg nekomata.png",0,0
//Break Periods
//Storyboard Layer 0 (Background)
//Storyboard Layer 1 (Fail)
//Storyboard Layer 2 (Pass)
//Storyboard Layer 3 (Foreground)
//Storyboard Layer 4 (Overlay)
//Storyboard Sound Samples

[TimingPoints]
1077,400,3,2,1,55,1,0
1077,-125,3,2,1,55,0,0
11877,-66.6666666666667,3,2,1,75,0,0
19077,-181.818181818182,3,2,1,75,0,0
21477,-80,3,2,1,75,0,0
40677,-100,3,2,1,65,0,0
50277,-83.3333333333333,3,2,1,65,0,0
51077,-76.9230769230769,3,2,1,65,0,0
51477,-66.6666666666667,3,2,1,65,0,0
55077,-58.8235294117647,3,2,1,85,0,1
67077,-50,3,2,1,85,0,1
68277,-58.8235294117647,3,2,1,85,0,1
75477,-100,3,2,1,75,0,0
85477,-66.6666666666667,3,2,1,75,0,0
85877,-50,3,2,1,75,0,0
87477,-57.1428571428571,3,2,1,95,0,1
99477,-47.6190476190476,3,2,1,95,0,1
100677,-57.1428571428571,3,2,1,95,0,1
106577,-57.1428571428571,3,2,1,100,0,0
106677,-57.1428571428571,3,2,1,5,0,0

[Colours]
Combo1 : 254,235,197
Combo2 : 183,183,219
Combo3 : 248,204,156
Combo4 : 139,254,200

[HitObjects]
295,312,1077,5,2,0:0:0:0:
300,316,1477,2,0,L|326:318,5,26.6666666666667,4|0|0|0|0|0,0:0|0:0|0:0|0:0|0:0|0:0,0:0:0:0:
259,384,1877,6,0,P|249:270|243:243,1,120,0|0,1:0|0:0,0:0:0:0:
194,209,2277,1,4,0:1:0:0:
110,231,2477,1,0,3:0:0:0:
85,146,2677,1,2,0:0:0:0:
169,122,2877,1,0,3:0:0:0:
114,237,3077,6,0,P|103:273|100:294,1,40
28,253,3277,2,0,P|39:217|42:196,1,40,2|0,0:3|0:0,0:0:0:0:
174,114,3477,6,0,P|239:115|320:100,1,120,8|0,0:3|0:0,0:0:0:0:
365,124,3877,2,0,P|450:106|506:102,1,120,8|0,0:3|0:0,0:0:0:0:
508,0,4277,1,2,0:3:0:0:
512,4,4677,5,12,0:3:0:0:
317,39,4877,2,0,P|333:98|348:211,1,160,0|0,3:0|0:0,0:0:0:0:
298,254,5477,1,0,3:0:0:0:
443,125,5677,2,0,P|432:149|428:182,1,40,0|0,3:0|3:0,0:0:0:0:
459,234,5877,5,2,1:3:0:0:
477,247,5977,1,0,1:0:0:0:
493,266,6077,1,0,1:0:0:0:
502,285,6177,1,0,1:0:0:0:
460,352,6277,5,2,1:3:0:0:
444,358,6377,1,0,1:0:0:0:
426,362,6477,1,0,1:0:0:0:
411,360,6577,1,0,1:0:0:0:
378,281,6677,6,0,L|382:246,4,26.6666666666667,2|0|0|0|0,1:2|1:0|1:0|1:0|1:0,0:0:0:0:
378,281,7077,1,0,1:0:0:0:
309,376,7277,2,0,P|305:336|289:247,1,120,8|0,0:3|0:0,0:0:0:0:
240,205,7677,1,2,3:0:0:0:
276,124,7877,1,0,1:0:0:0:
359,164,8077,1,2,3:0:0:0:
234,209,8277,6,0,P|182:199|141:198,1,80,2|8,1:3|0:3,0:0:0:0:
99,145,8677,1,0,3:0:0:0:
88,147,8743,1,0,3:0:0:0:
80,151,8810,1,0,3:0:0:0:
71,157,8877,1,0,3:0:0:0:
20,235,9077,6,0,P|47:263|52:317,1,80,8|2,0:3|0:0,0:0:0:0:
106,363,9377,1,0,0:0:0:0:
106,363,9477,2,0,P|177:370|214:363,1,80,4|8,1:0|0:3,0:0:0:0:
308,215,9977,5,2,0:0:0:0:
308,215,10077,1,10,1:3:0:0:
259,153,10277,1,2,0:0:0:0:
312,95,10477,1,10,0:0:0:0:
249,0,10677,5,2,0:1:0:0:
252,4,11077,1,10,1:3:0:0:
113,71,11377,5,2,0:0:0:0:
113,71,11477,2,0,P|117:98|116:123,1,40,2|0,1:3|0:0,0:0:0:0:
197,74,11677,2,0,P|193:93|192:113,1,40,8|0,1:3|0:0,0:0:0:0:
92,202,11877,6,0,P|183:189|286:187,1,150.000005722046,4|8,1:0|3:0,0:0:0:0:
297,130,12177,2,0,P|346:155|342:212,1,75.0000028610231,2|0,1:3|0:0,0:0:0:0:
446,209,12377,1,2,0:0:0:0:
446,209,12477,2,0,P|448:263|397:288,1,75.0000028610231,2|0,1:3|0:0,0:0:0:0:
356,384,12677,6,0,B|298:393|276:339|279:323|283:304|246:254|186:269,1,225.000008583069,8|8,0:3|0:3,0:0:0:0:
97,337,13077,2,0,P|44:292|58:246,1,75.0000028610231,2|0,1:3|0:0,0:0:0:0:
7,222,13277,1,0,3:0:0:0:
22,185,13377,1,2,1:3:0:0:
61,160,13477,1,4,1:3:0:0:
104,161,13577,1,8,0:0:0:0:
139,186,13677,1,10,1:3:0:0:
112,34,13877,6,0,P|213:26|326:-1,1,150.000005722046,2|8,0:1|3:0,0:0:0:0:
336,40,14177,1,8,0:0:0:0:
336,40,14277,2,0,P|349:75|311:134,1,75.0000028610231,4|0,3:2|0:0,0:0:0:0:
202,127,14477,1,8,3:0:0:0:
202,127,14577,2,0,P|238:133|270:195,1,75.0000028610231,2|0,1:3|0:0,0:0:0:0:
210,286,14777,1,0,3:0:0:0:
210,286,14877,2,0,P|233:257|303:260,1,75.0000028610231,10|0,1:3|1:0,0:0:0:0:
361,233,15077,5,8,3:0:0:0:
353,225,15143,1,0,3:0:0:0:
350,216,15210,1,0,3:0:0:0:
349,205,15277,1,2,3:0:0:0:
446,359,15477,6,0,P|451:269|472:182,1,150.000005722046,4|0,1:2|3:0,0:0:0:0:
458,133,15777,1,2,1:3:0:0:
480,74,15877,1,12,3:0:0:0:
452,23,15977,1,8,3:0:0:0:
396,17,16077,1,10,1:3:0:0:
309,136,16277,6,0,P|215:130|207:61,1,150.000005722046,2|8,3:2|3:0,0:0:0:0:
153,34,16577,1,8,0:0:0:0:
153,34,16677,2,0,P|96:33|72:80,1,75.0000028610231,4|0,1:2|0:0,0:0:0:0:
149,199,16877,1,8,3:2:0:0:
149,199,16977,2,0,P|121:149|68:151,1,75.0000028610231,2|0,1:3|0:0,0:0:0:0:
4,278,17177,1,8,0:3:0:0:
4,278,17277,2,0,P|33:229|4:184,1,75.0000028610231,2|0,1:3|0:0,0:0:0:0:
32,115,17477,6,0,L|65:383,1,225.000008583069,10|0,3:0|0:0,0:0:0:0:
124,382,17877,2,0,P|170:371|199:254,1,150.000005722046,10|2,1:3|3:2,0:0:0:0:
170,220,18177,1,2,1:3:0:0:
180,147,18277,5,0,3:0:0:0:
187,139,18343,1,0,3:0:0:0:
197,135,18410,1,0,3:0:0:0:
208,134,18477,1,2,3:0:0:0:
329,74,18677,6,0,P|238:54|176:24,1,150.000005722046,8|10,1:3|3:2,0:0:0:0:
114,49,18977,1,8,3:0:0:0:
114,49,19077,6,0,B|63:12|-9:62|-17:126|28:197|99:169|169:137|200:204|205:281|179:341|88:384|29:329,1,550.000016784668,6|2,0:1|0:0,0:0:0:0:
28,328,21477,6,0,P|105:296|192:294,1,125,12|0,1:2|0:0,0:0:0:0:
194,231,21777,2,0,P|232:249|236:292,1,62.5,0|0,1:0|0:0,0:0:0:0:
298,327,21977,1,0,3:0:0:0:
298,327,22077,2,0,P|285:353|236:360,1,62.5,0|0,1:0|0:0,0:0:0:0:
110,216,22277,6,0,P|118:139|118:61,1,125,12|8,0:0|0:0,0:0:0:0:
125,88,22543,1,8,0:0:0:0:
133,85,22610,1,8,0:0:0:0:
141,81,22677,6,0,P|150:21|160:-15,1,62.5,10|0,1:2|0:0,0:0:0:0:
247,104,22877,1,0,3:0:0:0:
247,104,22977,2,0,P|224:47|215:11,1,62.5,0|8,1:0|0:2,0:0:0:0:
364,84,23177,1,0,3:0:0:0:
364,84,23277,2,0,P|316:46|290:19,1,62.5,2|0,1:3|0:0,0:0:0:0:
431,16,23477,5,10,1:2:0:0:
474,33,23577,1,2,1:3:0:0:
497,64,23677,1,8,0:0:0:0:
507,108,23777,1,0,3:0:0:0:
471,180,23877,6,0,P|451:231|449:283,1,62.5,12|0,1:2|0:0,0:0:0:0:
344,205,24077,1,0,0:0:0:0:
344,205,24177,2,0,P|352:259|376:305,1,62.5,2|0,1:3|0:0,0:0:0:0:
246,275,24377,1,8,0:0:0:0:
246,275,24477,2,0,P|280:317|324:345,1,62.5,0|0,1:0|0:0,0:0:0:0:
440,381,24677,5,8,0:3:0:0:
440,381,24877,2,0,P|443:345|454:287,1,62.5,0|0,3:0|3:0,0:0:0:0:
357,384,25077,2,0,P|365:302|384:223,1,125,6|0,3:0|3:0,0:0:0:0:
353,189,25377,1,8,0:0:0:0:
373,153,25477,1,8,0:3:0:0:
367,118,25577,1,2,0:3:0:0:
338,97,25677,1,8,0:3:0:0:
296,95,25777,1,8,0:3:0:0:
265,118,25877,1,2,0:3:0:0:
225,126,25977,1,8,1:3:0:0:
189,109,26077,1,8,1:2:0:0:
174,70,26177,1,2,1:3:0:0:
212,5,26277,6,0,P|294:15|362:33,1,125,12|8,1:2|0:0,0:0:0:0:
409,14,26577,2,0,P|428:47|405:97,1,62.5,2|0,1:3|0:0,0:0:0:0:
472,136,26777,1,0,3:0:0:0:
472,136,26877,2,0,P|452:168|398:174,1,62.5,0|0,1:0|0:0,0:0:0:0:
243,185,27077,5,10,0:0:0:0:
275,326,27277,1,8,0:0:0:0:
288,326,27343,1,8,0:0:0:0:
298,325,27410,1,8,0:0:0:0:
306,320,27477,6,0,P|348:248|366:194,1,125,10|0,1:2|3:0,0:0:0:0:
446,252,27777,2,0,P|403:323|385:377,1,125,0|0,1:0|3:0,0:0:0:0:
389,362,28077,1,0,1:0:0:0:
207,381,28277,6,0,P|141:342|138:264,1,125,8|0,0:3|3:0,0:0:0:0:
164,230,28577,1,0,3:0:0:0:
164,230,28677,2,0,P|212:218|258:188,1,62.5,6|0,3:0|0:0,0:0:0:0:
116,126,28877,1,8,0:3:0:0:
116,126,28977,2,0,P|163:139|218:136,1,62.5,0|0,1:0|0:0,0:0:0:0:
126,11,29177,1,8,0:0:0:0:
126,11,29277,2,0,P|160:46|209:71,1,62.5,0|0,1:0|0:0,0:0:0:0:
301,55,29477,6,0,P|300:141|286:223,1,125,8|2,0:3|3:0,0:0:0:0:
358,231,29777,1,2,0:3:0:0:
358,231,29877,2,0,P|416:221|436:187,1,62.5,4|0,1:2|0:0,0:0:0:0:
429,148,30077,1,0,3:0:0:0:
429,148,30177,2,0,P|449:92|429:58,1,62.5,2|8,1:3|0:0,0:0:0:0:
392,45,30377,1,0,3:0:0:0:
392,45,30477,2,0,P|354:0|314:0,1,62.5,10|0,1:3|0:0,0:0:0:0:
222,37,30677,5,8,1:2:0:0:
189,57,30777,1,0,1:0:0:0:
151,70,30877,1,0,1:0:0:0:
114,74,30977,1,0,1:0:0:0:
58,137,31077,6,0,P|40:214|102:252,1,125,6|8,1:3|0:0,0:0:0:0:
123,296,31377,2,0,P|197:285|209:291,1,62.5,0|0,1:0|0:0,0:0:0:0:
243,232,31577,1,8,0:0:0:0:
243,232,31677,2,0,P|289:290|290:303,1,62.5,0|0,1:0|0:0,0:0:0:0:
392,372,31877,6,0,P|406:294|428:210,1,125,0|8,3:0|0:0,0:0:0:0:
412,244,32143,1,8,0:0:0:0:
406,238,32210,1,8,0:0:0:0:
401,232,32277,6,0,P|397:178|389:138,1,62.5,10|0,0:0|0:0,0:0:0:0:
472,143,32477,1,8,0:3:0:0:
472,143,32577,2,0,P|441:98|414:67,1,62.5,2|8,1:3|3:2,0:0:0:0:
491,34,32777,1,8,0:0:0:0:
491,34,32877,2,0,P|442:10|403:-2,1,62.5,0|0,1:0|0:0,0:0:0:0:
322,18,33077,5,8,3:0:0:0:
282,28,33177,1,2,1:3:0:0:
257,50,33277,1,0,3:0:0:0:
242,88,33377,1,0,3:0:0:0:
176,138,33477,6,0,P|196:220|199:283,1,125,10|0,3:0|3:0,0:0:0:0:
240,324,33777,2,0,P|300:315|314:279,1,62.5,2|2,1:3|0:0,0:0:0:0:
377,307,33977,1,0,3:0:0:0:
377,307,34077,2,0,P|380:257|344:224,1,62.5,2|0,1:3|0:0,0:0:0:0:
299,154,34277,5,8,3:0:0:0:
299,154,34477,1,8,0:0:0:0:
299,154,34677,6,0,P|198:144|133:122,1,125,14|0,1:3|3:0,0:0:0:0:
105,104,34977,1,2,1:3:0:0:
76,126,35077,1,8,3:0:0:0:
76,165,35177,1,0,3:0:0:0:
103,195,35277,1,2,1:3:0:0:
143,204,35377,1,0,3:0:0:0:
170,229,35477,1,8,3:0:0:0:
175,267,35577,1,8,3:0:0:0:
160,297,35677,1,8,1:2:0:0:
129,310,35777,1,0,3:0:0:0:
86,384,35877,6,0,P|78:265|68:215,1,125,4|8,3:2|0:0,0:0:0:0:
261,384,36177,2,0,P|253:321|252:259,1,125,2|0,1:3|3:0,0:0:0:0:
251,259,36477,1,2,1:3:0:0:
352,340,36677,6,0,P|400:302|345:220,1,125,0|8,3:0|0:0,0:0:0:0:
394,238,36943,1,8,0:0:0:0:
397,230,37010,1,8,0:0:0:0:
401,222,37077,6,0,P|474:214|488:210,1,62.5,10|0,0:0|0:0,0:0:0:0:
371,115,37277,1,0,3:0:0:0:
371,115,37377,2,0,P|438:144|452:148,1,62.5,2|0,3:0|0:0,0:0:0:0:
398,7,37577,1,8,0:3:0:0:
398,7,37677,2,0,P|441:66|451:76,1,62.5,6|0,1:3|0:0,0:0:0:0:
313,194,37877,5,8,3:0:0:0:
263,217,37977,1,0,3:0:0:0:
213,199,38077,1,8,3:0:0:0:
193,145,38177,1,8,3:2:0:0:
233,78,38277,6,0,P|222:165|216:354,1,250,4|8,1:2|3:0,0:0:0:0:
127,98,38877,1,2,1:2:0:0:
119,382,39077,2,0,B|111:280|95:184,1,187.5,2|2,1:3|0:0,0:0:0:0:
45,130,39477,6,0,P|15:57|76:39,1,125,14|0,3:0|0:0,0:0:0:0:
110,5,39777,1,2,1:3:0:0:
110,5,39877,2,0,P|150:22|193:24,1,62.5,0|0,1:0|0:0,0:0:0:0:
213,90,40077,6,0,P|289:76|388:66,1,125,4|0,1:2|1:0,0:0:0:0:
396,22,40377,1,8,0:0:0:0:
444,36,40477,1,8,0:0:0:0:
452,81,40577,1,8,0:0:0:0:
511,138,40677,6,0,B|458:113|420:147|423:162|425:174|395:218|337:195,1,200,4|4,0:1|0:3,0:0:0:0:
342,201,41477,1,2,0:0:0:0:
221,166,41677,1,0,1:0:0:0:
264,333,41877,6,0,P|353:308|439:297,1,150,8|0,3:0|0:0,0:0:0:0:
413,303,42277,1,2,1:3:0:0:
489,324,42477,1,8,0:3:0:0:
508,252,42677,1,8,0:0:0:0:
434,228,42877,1,0,3:0:0:0:
219,238,43077,6,0,P|164:216|164:121,1,150,2|0,1:3|0:0,0:0:0:0:
212,81,43477,2,0,P|290:77|393:46,1,150,4|0,0:3|0:0,0:0:0:0:
359,59,43877,1,0,1:0:0:0:
341,173,44077,1,2,1:3:0:0:
461,352,44277,6,0,P|386:331|276:317,1,150,6|0,0:0|0:0,0:0:0:0:
311,313,44677,1,0,1:0:0:0:
236,330,44877,1,2,1:3:0:0:
215,256,45077,1,2,1:3:0:0:
289,236,45277,1,2,1:3:0:0:
51,252,45477,6,0,P|46:178|12:8,1,200,2|8,1:0|0:3,0:0:0:0:
116,11,46077,1,0,1:0:0:0:
192,77,46277,1,8,0:3:0:0:
131,149,46477,1,0,0:0:0:0:
34,327,46677,6,0,B|79:343|119:308|118:287|110:275|147:229|201:243,1,200,4|8,0:3|3:0,0:0:0:0:
253,292,47277,1,2,1:3:0:0:
329,280,47477,1,8,0:3:0:0:
348,206,47677,1,0,3:0:0:0:
222,0,47877,6,0,P|234:93|240:198,1,150,10|0,1:3|0:0,0:0:0:0:
246,157,48277,1,4,0:3:0:0:
328,106,48477,1,0,1:0:0:0:
194,75,48677,1,8,1:3:0:0:
341,0,48877,1,2,1:3:0:0:
352,210,49077,6,0,P|422:217|466:230,2,100,6|0|2,0:0|3:0|1:3,0:0:0:0:
286,247,49677,1,8,3:0:0:0:
260,317,49877,1,2,1:3:0:0:
195,358,50077,1,0,1:0:0:0:
99,310,50277,6,0,P|91:231|76:150,1,119.999996337891,2|2,1:3|0:0,0:0:0:0:
76,117,50577,1,8,0:0:0:0:
76,117,50677,2,0,P|90:72|124:58,1,59.9999981689454,8|0,3:0|0:0,0:0:0:0:
172,97,50877,2,0,P|168:126|149:148,1,59.9999981689454,10|0,0:0|0:0,0:0:0:0:
16,13,51077,2,0,P|108:21|230:18,1,194.999991073609,10|8,3:3|0:0,0:0:0:0:
281,80,51477,6,0,P|346:58|357:21,1,75.0000028610231,10|0,1:3|0:0,0:0:0:0:
492,117,51677,2,0,P|394:140|308:270,1,225.000008583069,2|0,1:3|0:0,0:0:0:0:
316,232,52077,1,2,1:3:0:0:
265,384,52277,6,0,B|223:386|206:358|210:344|209:328|193:283|134:289,1,150.000005722046,8|2,3:0|0:0,0:0:0:0:
107,241,52577,1,8,0:0:0:0:
107,241,52677,2,0,P|56:271|49:314,1,75.0000028610231,2|0,1:3|0:0,0:0:0:0:
6,347,52877,1,2,0:0:0:0:
41,380,52977,1,8,0:0:0:0:
86,369,53077,1,0,3:0:0:0:
359,121,53277,6,0,P|358:176|368:216,1,75.0000028610231,8|0,3:0|0:0,0:0:0:0:
277,201,53477,2,0,P|278:146|268:106,1,75.0000028610231,4|0,0:3|0:0,0:0:0:0:
228,57,53677,5,8,0:0:0:0:
222,50,53743,1,8,0:0:0:0:
215,46,53810,1,8,0:0:0:0:
206,45,53877,1,6,3:1:0:0:
125,74,54077,5,0,3:0:0:0:
85,162,54277,5,2,1:3:0:0:
90,202,54377,1,0,1:0:0:0:
125,222,54477,1,2,1:3:0:0:
170,215,54577,1,0,1:0:0:0:
204,167,54677,1,8,3:0:0:0:
265,129,54777,1,0,3:0:0:0:
338,148,54877,1,8,3:0:0:0:
358,224,54977,1,0,3:0:0:0:
319,293,55077,6,0,P|276:283|236:280,1,85.0000016212464,6|0,3:1|0:0,0:0:0:0:
413,319,55277,1,8,3:0:0:0:
413,319,55377,2,0,P|382:351|360:384,1,85.0000016212464,2|0,1:3|0:0,0:0:0:0:
482,250,55577,1,0,3:0:0:0:
482,250,55677,2,0,P|494:292|512:328,1,85.0000016212464,2|2,1:3|0:0,0:0:0:0:
474,159,55877,5,8,3:0:0:0:
482,162,55943,1,8,3:2:0:0:
491,165,56010,1,8,3:2:0:0:
501,167,56077,1,12,3:2:0:0:
358,224,56277,6,0,B|304:223|286:187|295:172|296:155|275:125|216:131,1,170.000003242493,6|8,1:3|3:0,0:0:0:0:
164,97,56577,1,2,1:3:0:0:
151,110,56677,2,0,P|158:151|161:220,1,85.0000016212464,8|8,3:0|0:3,0:0:0:0:
274,282,56877,2,0,P|291:186|328:73,1,170.000003242493,2|8,1:3|3:2,0:0:0:0:
364,57,57177,1,2,1:3:0:0:
356,21,57277,1,10,3:3:0:0:
321,12,57377,1,0,0:0:0:0:
246,38,57477,6,0,P|199:25|139:-13,1,85.0000016212464,14|0,1:3|0:0,0:0:0:0:
160,170,57677,1,8,3:0:0:0:
160,170,57777,2,0,P|147:122|150:51,1,85.0000016212464,2|0,1:3|0:0,0:0:0:0:
2,161,57977,1,8,0:3:0:0:
2,161,58077,2,0,P|36:126|99:93,1,85.0000016212464,10|0,1:3|0:0,0:0:0:0:
309,104,58277,5,8,3:0:0:0:
309,104,58477,1,4,3:2:0:0:
309,104,58677,5,10,1:3:0:0:
345,129,58777,1,10,0:0:0:0:
356,170,58877,1,10,1:2:0:0:
341,213,58977,1,2,1:3:0:0:
337,300,59077,5,8,0:3:0:0:
316,288,59177,1,0,3:0:0:0:
295,281,59277,1,8,1:3:0:0:
273,279,59377,1,0,3:0:0:0:
219,217,59477,5,8,1:3:0:0:
172,236,59577,1,8,0:3:0:0:
119,243,59677,1,8,3:2:0:0:
68,235,59777,1,8,1:2:0:0:
6,287,59877,6,0,P|13:340|119:342,1,170.000003242493,2|12,0:1|0:0,0:0:0:0:
181,384,60177,2,0,P|223:351|172:258,1,170.000003242493,10|8,1:3|3:2,0:0:0:0:
100,161,60477,5,2,1:3:0:0:
100,161,60677,1,8,3:0:0:0:
188,50,60877,5,10,3:2:0:0:
188,50,60977,1,0,0:0:0:0:
188,50,61077,2,0,B|246:44|265:78|261:93|261:103|286:141|339:123,1,170.000003242493,14|12,1:3|0:0,0:0:0:0:
399,108,61377,1,10,1:3:0:0:
447,118,61477,1,0,3:0:0:0:
462,163,61577,1,8,3:2:0:0:
445,203,61677,2,0,P|394:192|321:195,1,85.0000016212464,10|0,1:3|0:0,0:0:0:0:
243,290,61877,5,8,3:0:0:0:
243,290,62077,1,8,0:0:0:0:
243,290,62277,5,2,1:0:0:0:
228,259,62377,1,8,0:0:0:0:
178,236,62477,1,8,3:0:0:0:
123,261,62577,1,2,1:3:0:0:
50,261,62677,1,8,3:2:0:0:
17,218,62777,1,8,3:0:0:0:
27,174,62877,6,0,P|38:114|38:60,1,85.0000016212464,10|0,1:3|0:0,0:0:0:0:
130,268,63077,2,0,P|119:328|119:382,1,85.0000016212464,8|0,3:2|0:0,0:0:0:0:
311,126,63277,5,8,3:0:0:0:
311,126,63377,1,8,0:3:0:0:
311,126,63477,2,0,P|225:118|243:215,1,170.000003242493,14|8,1:3|0:3,0:0:0:0:
279,232,63777,1,2,1:3:0:0:
279,232,63877,1,10,0:0:0:0:
452,126,64077,1,10,1:3:0:0:
348,303,64277,5,10,1:3:0:0:
370,269,64377,1,0,1:0:0:0:
375,229,64477,1,0,1:0:0:0:
368,190,64577,1,0,1:0:0:0:
376,112,64677,6,0,P|395:68|443:11,1,85.0000016212464,6|0,3:1|0:0,0:0:0:0:
273,126,64877,1,8,3:0:0:0:
273,126,64977,2,0,P|244:87|219:17,1,85.0000016212464,2|0,1:3|0:0,0:0:0:0:
233,222,65177,1,0,3:0:0:0:
233,222,65277,2,0,P|185:227|112:214,1,85.0000016212464,2|0,1:3|0:0,0:0:0:0:
297,302,65477,5,8,3:0:0:0:
292,312,65543,1,8,3:2:0:0:
285,322,65610,1,8,3:2:0:0:
278,332,65677,1,12,3:2:0:0:
463,384,65877,6,0,P|437:283|424:161,1,170.000003242493,6|8,1:3|3:0,0:0:0:0:
381,155,66177,1,2,1:3:0:0:
357,116,66277,1,8,3:0:0:0:
308,109,66377,1,8,3:2:0:0:
265,134,66477,2,0,P|202:117|173:77,1,85.0000016212464,10|8,1:3|3:2,0:0:0:0:
55,119,66677,5,2,1:3:0:0:
28,134,66777,1,0,1:0:0:0:
16,165,66877,1,10,3:2:0:0:
68,222,66977,1,10,3:2:0:0:
0,257,67077,6,0,P|143:241|288:231,1,200,4|8,3:1|3:0,0:0:0:0:
5,342,67377,2,0,P|126:328|244:320,1,200,2|10,1:3|3:2,0:0:0:0:
203,322,67677,1,10,1:2:0:0:
305,380,67877,6,0,P|387:364|340:232,1,200,10|8,3:2|3:0,0:0:0:0:
422,195,68177,1,0,3:0:0:0:
422,195,68277,2,0,P|439:134|484:118,1,85.0000016212464,6|0,1:3|0:0,0:0:0:0:
295,78,68477,1,8,3:2:0:0:
295,78,68577,2,0,P|356:62|392:93,1,85.0000016212464,8|8,1:3|3:0,0:0:0:0:
312,201,68777,5,8,3:2:0:0:
271,220,68877,1,8,1:3:0:0:
222,210,68977,1,8,0:3:0:0:
193,167,69077,1,8,3:0:0:0:
145,132,69177,1,8,3:0:0:0:
83,135,69277,1,10,1:3:0:0:
43,181,69377,1,8,1:2:0:0:
44,260,69477,6,0,P|60:313|61:379,1,85.0000016212464,2|0,3:1|0:0,0:0:0:0:
221,237,69677,1,8,3:0:0:0:
221,237,69777,2,0,P|183:277|126:311,1,85.0000016212464,2|0,1:3|0:0,0:0:0:0:
328,384,69977,1,0,3:0:0:0:
328,384,70077,2,0,P|274:371|216:339,1,85.0000016212464,2|0,1:3|0:0,0:0:0:0:
124,211,70277,5,8,0:3:0:0:
124,211,70477,1,10,1:2:0:0:
262,102,70677,6,0,P|264:16|174:-1,1,170.000003242493,2|6,1:3|3:0,0:0:0:0:
143,44,70977,1,2,1:3:0:0:
93,67,71077,1,8,3:0:0:0:
45,55,71177,1,8,3:2:0:0:
25,6,71277,1,2,1:3:0:0:
6,133,71477,5,12,3:2:0:0:
10,140,71543,1,8,3:2:0:0:
13,149,71610,1,8,3:2:0:0:
15,158,71677,1,8,3:0:0:0:
17,167,71743,1,8,3:2:0:0:
18,177,71810,1,8,3:2:0:0:
17,185,71877,6,0,P|96:187|222:172,1,170.000003242493,2|8,1:1|3:0,0:0:0:0:
495,199,72177,2,0,P|416:197|290:212,1,170.000003242493,2|8,1:3|0:0,0:0:0:0:
257,188,72477,1,2,1:3:0:0:
130,252,72677,5,10,1:3:0:0:
127,289,72777,1,8,0:0:0:0:
150,320,72877,1,12,3:0:0:0:
186,325,72977,1,8,0:3:0:0:
239,384,73077,6,0,P|232:281|215:185,1,170.000003242493,10|8,1:3|3:0,0:0:0:0:
309,0,73377,2,0,P|291:101|282:198,1,170.000003242493,2|8,1:3|3:0,0:0:0:0:
336,227,73677,2,0,P|387:221|445:219,1,85.0000016212464,10|8,1:3|0:0,0:0:0:0:
480,175,73877,1,8,3:0:0:0:
501,128,73977,1,8,3:2:0:0:
470,84,74077,1,0,3:0:0:0:
417,86,74177,1,8,1:3:0:0:
347,138,74277,6,0,P|304:135|249:73,1,85.0000016212464,2|0,3:1|0:0,0:0:0:0:
180,214,74477,1,8,0:3:0:0:
180,214,74577,2,0,P|161:175|187:96,1,85.0000016212464,8|10,3:2|1:3,0:0:0:0:
30,107,74777,1,8,3:0:0:0:
30,107,74877,2,0,P|54:71|135:54,1,85.0000016212464,2|0,1:3|0:0,0:0:0:0:
234,0,75077,5,8,0:3:0:0:
273,21,75177,1,8,3:2:0:0:
327,6,75277,1,8,0:3:0:0:
377,45,75377,1,8,3:2:0:0:
449,22,75477,5,4,1:1:0:0:
506,122,75677,1,0,1:0:0:0:
405,174,75877,1,8,0:3:0:0:
485,367,76077,6,0,P|483:304|486:252,1,100,2|8,1:3|3:0,0:0:0:0:
512,127,76477,1,2,1:3:0:0:
321,187,76677,5,10,1:3:0:0:
296,199,76777,1,2,1:3:0:0:
286,224,76877,1,8,1:3:0:0:
291,250,76977,1,2,0:3:0:0:
308,269,77077,2,0,P|363:260|392:260,1,50,4|0,1:2|0:0,0:0:0:0:
383,116,77277,5,2,3:0:0:0:
417,128,77377,1,0,3:0:0:0:
432,160,77477,1,6,1:3:0:0:
276,375,77677,5,2,3:0:0:0:
234,360,77777,1,0,3:0:0:0:
216,321,77877,1,6,3:1:0:0:
403,239,78077,6,0,P|322:243|236:251,1,150,0|8,1:0|0:3,0:0:0:0:
246,243,78477,2,0,P|205:206|217:146,1,100,2|8,1:3|0:3,0:0:0:0:
205,164,78777,1,8,3:0:0:0:
205,164,78877,1,2,1:3:0:0:
203,54,79077,5,14,0:0:0:0:
182,41,79177,1,0,3:0:0:0:
158,41,79277,1,2,1:3:0:0:
99,119,79477,6,0,P|109:188|112:301,1,150,2|0,1:0|1:0,0:0:0:0:
112,268,79877,1,8,3:0:0:0:
2,356,80077,5,8,3:2:0:0:
32,380,80177,1,8,3:0:0:0:
70,380,80277,2,0,P|97:367|124:328,1,50,14|10,1:3|3:0,0:0:0:0:
183,324,80477,5,0,1:3:0:0:
234,324,80577,1,8,3:2:0:0:
265,358,80677,1,10,0:0:0:0:
382,381,80877,1,14,1:3:0:0:
411,268,81077,1,8,3:0:0:0:
411,268,81177,1,8,0:3:0:0:
411,268,81277,1,2,1:0:0:0:
294,245,81477,1,12,3:2:0:0:
294,245,81577,1,8,3:0:0:0:
294,245,81677,1,10,1:3:0:0:
320,111,81877,6,0,P|388:89|479:50,1,150,14|8,1:3|3:0,0:0:0:0:
498,141,82277,2,0,P|430:163|339:202,1,150,14|8,1:3|3:0,0:0:0:0:
238,186,82677,5,2,1:0:0:0:
212,174,82777,1,10,0:3:0:0:
201,149,82877,1,10,1:3:0:0:
297,0,83077,5,8,1:3:0:0:
299,28,83177,1,2,1:3:0:0:
283,50,83277,1,6,1:3:0:0:
87,48,83477,5,8,1:3:0:0:
110,31,83577,1,8,1:3:0:0:
137,34,83677,1,10,1:3:0:0:
204,71,83877,5,12,3:2:0:0:
98,239,84077,2,0,P|184:220|441:200,1,300,2|14,1:0|1:3,0:0:0:0:
476,254,84877,5,0,0:0:0:0:
476,254,84977,1,8,0:0:0:0:
476,254,85077,2,0,B|479:209|450:189|440:191|432:193|410:166|418:124,1,150,2|8,3:1|0:0,0:0:0:0:
498,98,85477,6,0,B|525:159|459:196|443:193|431:190|377:210|394:277,1,225.000008583069,2|8,3:1|0:0,0:0:0:0:
446,318,85877,6,0,L|418:51,1,200,2|8,3:1|3:2,0:0:0:0:
421,114,86143,1,8,3:2:0:0:
416,109,86210,1,8,3:2:0:0:
411,103,86277,1,4,3:1:0:0:
312,119,86677,5,14,0:0:0:0:
210,140,87077,5,8,3:2:0:0:
205,135,87144,1,8,3:2:0:0:
200,128,87211,1,8,3:2:0:0:
196,120,87277,1,8,3:2:0:0:
193,112,87343,1,8,3:2:0:0:
190,104,87410,1,8,3:2:0:0:
189,95,87477,6,0,P|191:46|183:2,1,87.500000834465,6|0,3:1|0:0,0:0:0:0:
318,124,87677,1,8,3:0:0:0:
318,124,87777,2,0,P|361:101|395:72,1,87.500000834465,2|0,1:3|0:0,0:0:0:0:
357,250,87977,1,0,3:0:0:0:
357,250,88077,2,0,P|398:276|440:291,1,87.500000834465,2|2,1:3|0:0,0:0:0:0:
266,346,88277,5,8,3:0:0:0:
265,357,88343,1,8,3:2:0:0:
265,369,88410,1,8,3:2:0:0:
268,380,88477,1,12,3:2:0:0:
115,338,88677,6,0,P|104:239|75:99,1,175.00000166893,6|8,1:3|3:0,0:0:0:0:
44,103,88977,1,2,1:3:0:0:
52,54,89077,2,0,P|79:27|159:45,1,87.500000834465,8|8,3:0|0:3,0:0:0:0:
183,72,89277,2,0,P|190:126|148:167,1,87.500000834465,2|0,1:3|0:0,0:0:0:0:
77,252,89477,5,8,3:2:0:0:
68,245,89543,1,8,0:0:0:0:
58,240,89610,1,8,0:0:0:0:
50,237,89677,1,10,3:2:0:0:
40,235,89743,1,8,3:2:0:0:
29,234,89810,1,8,3:2:0:0:
18,235,89877,6,0,P|4:284|13:349,1,87.500000834465,14|0,1:3|0:0,0:0:0:0:
202,162,90077,1,8,3:0:0:0:
202,162,90177,2,0,P|152:174|100:214,1,87.500000834465,2|0,1:3|0:0,0:0:0:0:
323,277,90377,1,8,0:3:0:0:
323,277,90477,2,0,P|287:240|226:215,1,87.500000834465,10|0,1:3|0:0,0:0:0:0:
32,157,90677,5,8,3:0:0:0:
32,157,90877,1,4,3:2:0:0:
32,157,91077,5,10,1:3:0:0:
13,113,91177,1,10,0:0:0:0:
31,63,91277,1,10,1:2:0:0:
80,33,91377,1,2,1:3:0:0:
131,43,91477,6,0,P|144:92|106:136,1,87.500000834465,8|0,0:3|3:0,0:0:0:0:
241,168,91677,2,0,P|228:119|283:79,1,87.500000834465,8|0,1:3|3:0,0:0:0:0:
310,23,91877,5,8,1:3:0:0:
320,18,91943,1,8,3:2:0:0:
331,18,92010,1,8,3:2:0:0:
342,20,92077,1,8,3:2:0:0:
351,25,92143,1,8,3:2:0:0:
359,33,92210,1,8,3:2:0:0:
362,42,92277,6,0,P|351:146|357:200,1,87.500000834465,2|0,0:1|0:0,0:0:0:0:
468,204,92477,1,12,0:0:0:0:
468,204,92577,2,0,P|372:246|328:278,1,87.500000834465,10|0,1:3|0:0,0:0:0:0:
380,376,92777,1,8,3:2:0:0:
380,376,92877,2,0,P|295:314|245:292,1,87.500000834465,2|0,1:3|0:0,0:0:0:0:
248,175,93077,5,8,3:0:0:0:
248,175,93277,1,10,3:2:0:0:
248,175,93477,6,0,P|155:165|63:112,1,175.00000166893,14|12,1:3|3:2,0:0:0:0:
45,240,93777,2,0,P|138:250|230:303,1,175.00000166893,10|0,1:3|0:0,0:0:0:0:
301,294,94077,6,0,P|321:256|331:180,1,87.500000834465,10|0,1:3|0:0,0:0:0:0:
449,165,94277,2,0,P|429:203|419:279,1,87.500000834465,8|0,3:0|0:0,0:0:0:0:
313,128,94477,2,0,P|333:90|343:14,1,87.500000834465,8|0,0:0|0:0,0:0:0:0:
205,6,94677,5,2,1:0:0:0:
148,5,94777,1,8,0:0:0:0:
119,45,94877,1,8,3:0:0:0:
128,95,94977,1,2,1:3:0:0:
182,161,95077,6,0,P|171:280|171:314,1,87.500000834465,8|8,3:2|3:0,0:0:0:0:
40,302,95277,2,0,P|38:249|23:166,1,87.500000834465,10|0,1:3|0:0,0:0:0:0:
247,100,95477,6,0,P|346:140|337:216,1,175.00000166893,8|8,3:2|3:0,0:0:0:0:
390,266,95777,1,8,0:3:0:0:
390,266,95877,2,0,P|379:303|374:364,1,87.500000834465,14|0,1:3|0:0,0:0:0:0:
210,250,96077,1,8,0:3:0:0:
210,250,96177,2,0,P|236:278|286:312,1,87.500000834465,2|10,1:3|0:0,0:0:0:0:
107,384,96377,1,8,3:0:0:0:
107,384,96477,2,0,P|144:375|199:348,1,87.500000834465,10|0,1:3|0:0,0:0:0:0:
452,208,96677,5,10,1:3:0:0:
462,178,96777,1,0,1:0:0:0:
463,147,96877,1,0,1:0:0:0:
453,116,96977,1,0,1:0:0:0:
382,70,97077,6,0,P|336:79|262:72,1,87.500000834465,6|0,3:1|0:0,0:0:0:0:
325,250,97277,1,8,3:0:0:0:
325,250,97377,2,0,P|294:215|262:148,1,87.500000834465,2|0,1:3|0:0,0:0:0:0:
139,291,97577,1,0,3:0:0:0:
139,291,97677,2,0,P|153:246|196:186,1,87.500000834465,2|0,1:3|0:0,0:0:0:0:
10,150,97877,5,8,3:0:0:0:
24,146,97943,1,8,3:2:0:0:
40,143,98010,1,8,3:2:0:0:
54,143,98077,1,12,3:2:0:0:
178,23,98277,6,0,P|261:47|348:59,1,175.00000166893,6|8,1:3|3:0,0:0:0:0:
474,145,98577,1,2,1:3:0:0:
474,145,98677,2,0,P|431:193|366:166,1,87.500000834465,8|8,3:0|3:2,0:0:0:0:
360,134,98877,2,0,P|381:96|422:84,1,87.500000834465,10|8,1:3|3:2,0:0:0:0:
414,273,99077,5,2,1:3:0:0:
344,241,99177,1,0,1:0:0:0:
267,228,99277,1,10,3:2:0:0:
192,226,99377,1,10,3:2:0:0:
107,146,99477,6,0,P|138:188|152:360,1,209.999993591309,4|8,3:1|3:0,0:0:0:0:
311,41,99777,2,0,P|280:83|266:255,1,209.999993591309,2|10,1:3|3:2,0:0:0:0:
304,301,100077,6,0,P|367:289|376:214,1,104.999996795654,10|0,1:2|0:0,0:0:0:0:
88,384,100277,2,0,P|25:372|16:297,1,104.999996795654,10|0,3:2|0:0,0:0:0:0:
232,384,100477,1,8,3:0:0:0:
3,182,100677,6,0,P|119:192|248:184,1,175.00000166893,6|8,1:3|3:2,0:0:0:0:
240,143,100977,1,8,1:3:0:0:
271,98,101077,1,8,3:0:0:0:
262,46,101177,1,8,3:2:0:0:
214,22,101277,2,0,P|163:35|141:91,1,87.500000834465,8|8,1:3|0:3,0:0:0:0:
242,226,101477,5,8,3:0:0:0:
266,254,101577,1,8,3:0:0:0:
302,262,101677,1,10,1:3:0:0:
334,256,101777,1,8,1:2:0:0:
381,330,101877,6,0,P|392:233|415:121,1,175.00000166893,2|8,3:1|3:0,0:0:0:0:
307,181,102177,2,0,P|296:278|273:390,1,175.00000166893,2|0,1:3|3:0,0:0:0:0:
209,377,102477,2,0,P|152:362|151:304,1,87.500000834465,2|0,1:3|0:0,0:0:0:0:
177,164,102677,5,8,0:3:0:0:
177,164,102877,1,12,1:2:0:0:
16,269,103077,6,0,P|119:245|212:245,1,175.00000166893,2|10,1:3|0:0,0:0:0:0:
216,256,103377,1,2,1:3:0:0:
282,210,103477,5,8,3:2:0:0:
286,200,103543,1,8,3:2:0:0:
288,191,103610,1,8,3:2:0:0:
286,181,103677,1,10,1:2:0:0:
0,165,103877,6,0,P|87:160|171:139,1,175.00000166893,10|0,1:3|3:0,0:0:0:0:
221,80,104177,1,8,3:2:0:0:
221,80,104277,2,0,P|217:29|209:-10,1,87.500000834465,14|0,1:3|0:0,0:0:0:0:
286,212,104477,1,8,3:0:0:0:
286,212,104577,2,0,P|290:161|298:122,1,87.500000834465,2|0,1:3|0:0,0:0:0:0:
243,308,104777,1,8,3:2:0:0:
243,308,104877,1,8,3:0:0:0:
256,381,105077,5,8,3:0:0:0:
397,190,105277,5,8,3:0:0:0:
397,190,105377,1,8,3:2:0:0:
397,190,105477,2,0,P|454:183|514:163,1,87.500000834465,10|0,1:3|0:0,0:0:0:0:
214,201,105677,1,8,3:0:0:0:
214,201,105777,2,0,P|271:208|331:228,1,87.500000834465,2|0,1:3|0:0,0:0:0:0:
42,198,105977,1,8,3:0:0:0:
42,198,106077,2,0,P|99:191|159:171,1,87.500000834465,2|0,1:3|0:0,0:0:0:0:
303,37,106277,5,8,3:0:0:0:
229,19,106377,1,8,3:2:0:0:
209,94,106477,1,8,0:3:0:0:
282,112,106577,1,8,3:0:0:0:
