osu file format v14

[General]
AudioFilename: folk.mp3
AudioLeadIn: 1500
PreviewTime: 67593
Countdown: 0
SampleSet: Soft
StackLeniency: 0.7
Mode: 0
LetterboxInBreaks: 0
WidescreenStoryboard: 0

[Editor]
Bookmarks: 3295,4392,68234,68599,69331,69880,85246,112685
DistanceSpacing: 1
BeatDivisor: 4
GridSize: 4
TimelineZoom: 1

[Metadata]
Title:Babylonia
TitleUnicode:バビロニア
Artist:Gekidan Record
ArtistUnicode:劇団レコード
Creator:nanda2009
Version:Normal
Source:beatmania IIDX 17 SIRIUS
Tags:広野智章 distorted new age troupe 2dx tomoaki hirono kr:agué krague -kevincela-
BeatmapID:569298
BeatmapSetID:247282

[Difficulty]
HPDrainRate:4
CircleSize:3.5
OverallDifficulty:4
ApproachRate:5
SliderMultiplier:1.2
SliderTickRate:1

[Events]
//Background and Video events
0,0,"wolf.jpg",0,0
//Break Periods
2,40811,48192
//Storyboard Layer 0 (Background)
//Storyboard Layer 1 (Fail)
//Storyboard Layer 2 (Pass)
//Storyboard Layer 3 (Foreground)
//Storyboard Sound Samples

[TimingPoints]
1100,365.853658536585,3,2,0,75,1,0
9880,-100,3,1,0,75,0,0
18660,-100,3,2,0,75,0,0
40612,-100,3,2,0,15,0,0
48843,-100,3,2,0,75,0,0
68051,-100,3,2,0,75,0,1
86709,-100,3,2,0,75,0,0
88173,365.853658536585,3,2,0,75,1,1
107929,-100,3,2,0,25,0,0
108020,-100,3,2,0,5,0,0
110124,-100,3,2,0,75,0,0
123294,-100,3,2,0,40,0,0
124026,-100,3,2,0,30,0,0
124758,-100,3,2,0,15,0,0
125490,-100,3,2,0,5,0,0

[Colours]
Combo1 : 158,75,35
Combo2 : 218,175,97
Combo3 : 255,159,113

[HitObjects]
32,256,1100,6,0,P|104:368|178:333,1,240,4|0,1:0|0:0,0:0:0:0:
256,244,2197,1,2,0:0:0:0:
334,332,2563,1,2,0:0:0:0:
416,244,2929,1,0,0:0:0:0:
484,144,3295,6,0,P|484:56|352:32,1,240,2|0,2:2|0:0,0:0:0:0:
256,96,4392,1,2,0:0:0:0:
256,156,4575,1,2,0:0:0:0:
256,216,4758,1,0,0:0:0:0:
256,336,5124,1,0,0:0:0:0:
136,340,5490,6,0,P|57:281|72:152,1,240,2|0,0:0|0:0,0:0:0:0:
180,100,6587,1,2,0:0:0:0:
256,192,6953,1,2,0:0:0:0:
332,284,7319,1,0,0:0:0:0:
439,232,7685,6,0,P|464:122|368:64,1,240,2|0,0:0|0:0,0:0:0:0:
256,24,8782,1,2,0:0:0:0:
224,76,8965,1,2,0:0:0:0:
204,132,9148,2,0,P|196:180|204:252,1,120,0|0,0:0|1:2,0:0:0:0:
256,360,9880,1,2,0:2:0:0:
376,380,10246,6,0,P|467:256|432:216,1,240,4|2,0:0|2:0,0:0:0:0:
320,176,11343,1,0,0:0:0:0:
408,96,11709,1,0,0:0:0:0:
433,216,12075,1,2,2:0:0:0:
320,176,12441,6,0,L|79:89,1,240,4|0,0:0|0:0,0:0:0:0:
0,176,13539,1,0,0:0:0:0:
112,216,13904,1,0,0:0:0:0:
94,95,14270,1,2,2:0:0:0:
0,176,14636,6,0,P|8:280|120:336,1,240,4|2,0:0|2:0,0:0:0:0:
188,236,15734,1,0,0:0:0:0:
255,137,16100,1,0,0:0:0:0:
324,236,16465,1,2,2:0:0:0:
393,336,16831,6,0,P|498:289|512:176,1,240,4|0,0:0|0:0,0:0:0:0:
432,88,17929,1,0,0:0:0:0:
312,88,18295,1,8,0:2:0:0:
224,172,18660,6,0,L|192:288,2,120,4|2|2,1:0|0:0|0:0,0:0:0:0:
240,112,19575,1,0,0:0:0:0:
256,56,19758,2,0,P|148:44|40:112,1,240,2|2,0:0|0:0,0:0:0:0:
44,232,20856,6,0,P|44:252|80:344,2,120,0|2|2,0:0|0:0|0:0,0:0:0:0:
151,176,21953,1,0,0:0:0:0:
255,120,22319,1,2,1:2:0:0:
363,64,22685,1,2,1:2:0:0:
428,160,23051,6,0,P|413:275|317:339,1,240,4|2,1:0|0:0,0:0:0:0:
256,340,23965,1,0,0:0:0:0:
195,339,24148,2,0,P|92:264|84:160,1,240,2|2,0:0|0:0,0:0:0:0:
144,56,25246,2,0,P|88:40|12:64,2,120,2|2|2,0:0|0:0|0:0,0:0:0:0:
200,84,26160,1,0,0:0:0:0:
256,56,26343,2,0,P|312:40|388:64,2,120,2|2|2,0:0|1:2|1:2,0:0:0:0:
288,172,27441,6,0,L|320:288,2,120,4|2|2,1:0|0:0|0:0,0:0:0:0:
272,112,28356,1,0,0:0:0:0:
256,56,28539,2,0,P|364:44|472:112,1,240,2|2,0:0|0:0,0:0:0:0:
468,232,29636,6,0,P|468:252|432:344,2,120,0|2|2,0:0|0:0|0:0,0:0:0:0:
361,176,30733,1,0,0:0:0:0:
257,120,31099,1,2,1:2:0:0:
149,64,31465,1,2,1:2:0:0:
84,160,31831,6,0,P|100:275|196:339,1,240,4|2,1:0|0:0,0:0:0:0:
256,340,32745,1,0,0:0:0:0:
317,339,32928,2,0,P|420:264|428:160,1,240,2|2,0:0|0:0,0:0:0:0:
368,56,34026,2,0,P|424:40|500:64,2,120,2|2|2,0:0|0:0|0:0,0:0:0:0:
312,76,34940,1,0,0:0:0:0:
256,96,35123,1,0,1:0:0:0:
172,180,35490,1,8,1:2:0:0:
196,296,35856,1,8,1:2:0:0:
316,296,36221,5,4,1:0:0:0:
416,228,36587,2,0,P|416:111|320:52,1,240,2|4,0:0|1:0,0:0:0:0:
193,51,37685,2,0,P|95:113|96:228,1,240,2|4,0:0|1:0,0:0:0:0:
192,308,38782,1,2,0:0:0:0:
320,308,39148,1,2,0:0:0:0:
416,228,39514,1,4,1:0:0:0:
336,136,39880,2,0,B|256:47|256:47|176:136,1,240,4|2,1:0|0:0,0:0:0:0:
388,68,49392,6,0,L|268:76,1,120,4|2,1:0|0:0,0:0:0:0:
208,80,49941,1,0,0:0:0:0:
148,84,50124,1,2,0:0:0:0:
80,184,50490,2,0,L|336:167,1,240,4|2,0:0|0:0,0:0:0:0:
392,264,51587,6,0,L|272:272,1,120,0|2,0:0|0:0,0:0:0:0:
212,276,52136,1,0,0:0:0:0:
152,280,52319,1,2,0:0:0:0:
32,292,52685,1,0,0:0:0:0:
36,171,53051,2,0,P|137:116|236:176,1,240,2|4,0:0|1:0,0:0:0:0:
256,232,53965,5,0,0:0:0:0:
288,280,54148,2,0,P|344:288|400:256,2,120,2|2|4,0:0|0:0|0:0,0:0:0:0:
236,176,55246,1,2,0:0:0:0:
324,96,55612,1,0,0:0:0:0:
224,32,55978,6,0,P|108:40|40:136,1,240,2|2,0:0|0:0,0:0:0:0:
40,249,57075,2,0,P|108:344|224:352,1,240,2|2,0:0|0:0,0:0:0:0:
328,288,58173,1,2,0:0:0:0:
388,272,58356,1,0,0:0:0:0:
440,304,58539,2,0,P|480:256|472:200,1,120,2|0,0:0|0:0,0:0:0:0:
424,96,59270,5,4,1:0:0:0:
304,64,59636,2,0,L|232:44,2,60,2|0|10,0:0|0:0|0:0,0:0:0:0:
344,176,60368,1,4,1:0:0:0:
224,144,60734,2,0,L|108:113,1,120,2|8,0:0|0:0,0:0:0:0:
28,193,61465,1,0,1:0:0:0:
0,76,61831,2,0,P|12:52|44:20,2,60,2|2|8,0:0|0:0|0:0,0:0:0:0:
28,193,62563,2,0,P|72:259|168:176,1,240,4|2,1:0|0:0,0:0:0:0:
88,96,63660,5,0,1:0:0:0:
208,64,64026,2,0,L|279:44,2,60,2|2|8,0:0|0:0|0:0,0:0:0:0:
168,176,64758,1,4,1:0:0:0:
288,144,65124,2,0,L|403:113,1,120,2|8,0:0|0:0,0:0:0:0:
484,193,65855,1,2,0:0:0:0:
363,225,66221,2,0,L|226:261,1,120,2|10,0:0|0:0,0:0:0:0:
132,296,66953,6,0,P|140:332|168:360,2,60,0|0|0,1:0|1:0|1:0,1:1:0:0:
64,48,68051,6,0,P|16:120|64:256,1,240,4|2,1:0|0:0,0:0:0:0:
34,368,69148,2,0,P|147:358|193:253,1,240,4|2,0:0|0:0,0:0:0:0:
319,253,70246,2,0,P|364:358|478:368,1,240,0|2,0:0|0:0,0:0:0:0:
440,256,71343,1,6,0:0:0:0:
496,32,72075,5,2,0:0:0:0:
436,44,72258,1,2,0:0:0:0:
376,56,72441,2,0,L|136:56,1,240,4|2,1:0|0:0,0:0:0:0:
72,156,73539,2,0,B|72:276|72:276|72:340|136:368,1,240,4|2,0:0|0:0,0:0:0:0:
256,368,74636,5,0,0:0:0:0:
352,296,75002,1,2,0:0:0:0:
256,224,75368,1,2,0:0:0:0:
160,152,75734,2,0,P|184:80|336:24,1,240,6|2,0:0|0:0,0:0:0:0:
448,48,76831,6,0,P|496:120|448:256,1,240,4|2,1:0|0:0,0:0:0:0:
477,368,77929,2,0,P|364:358|319:253,1,240,4|2,0:0|0:0,0:0:0:0:
193,253,79026,2,0,P|148:358|34:368,1,240,0|2,0:0|0:0,0:0:0:0:
20,308,79941,1,2,0:0:0:0:
8,248,80123,1,4,0:0:0:0:
312,184,81221,6,0,B|320:252|256:280|256:280|192:308|200:376,1,240,4|2,1:0|0:0,0:0:0:0:
312,374,82319,2,0,B|319:307|255:279|255:279|191:251|199:183,1,240,4|2,0:0|0:0,0:0:0:0:
84,148,83417,2,0,B|68:96|68:96|96:84|116:52|116:52|172:68|172:68|204:16|204:16|256:72|308:16|308:16|340:68|340:68|396:52|396:52|416:84|444:96|444:96|428:148,1,600,0|2,0:0|0:0,0:0:0:0:
356,244,85612,6,0,P|256:300|156:244,1,240,4|2,1:0|0:0,0:0:0:0:
256,180,86709,2,0,L|256:108,2,60,4|0|0,1:1|1:0|1:0,0:0:0:0:
64,344,88173,6,0,P|16:272|64:136,1,240,4|0,1:0|1:0,0:0:0:0:
35,23,89270,2,0,P|148:33|194:138,1,240,4|2,0:0|1:2,0:0:0:0:
319,139,90368,2,0,P|364:34|478:24,1,240,2|0,0:2|1:0,0:0:0:0:
440,128,91465,1,4,0:0:0:0:
484,364,92197,5,0,1:0:0:0:
424,348,92380,1,0,0:0:0:0:
364,328,92563,2,0,P|292:368|148:328,1,240,4|0,1:0|1:0,0:0:0:0:
112,212,93661,2,0,B|112:120|112:120|112:24|196:20,1,240,4|0,0:0|1:0,0:0:0:0:
316,20,94758,5,4,1:0:0:0:
256,124,95124,1,2,0:0:0:0:
184,220,95490,1,2,1:2:0:0:
112,316,95855,2,0,B|144:368|200:368|200:368|336:368,1,240,4|0,0:0|1:2,0:0:0:0:
448,344,96953,6,0,P|496:272|448:136,1,240,4|0,1:0|1:0,0:0:0:0:
477,23,98051,2,0,P|364:33|319:139,1,240,4|2,0:0|1:2,0:0:0:0:
193,139,99148,2,0,P|148:34|34:24,1,240,2|2,0:0|1:2,0:0:0:0:
16,80,100063,1,2,0:0:0:0:
0,136,100245,1,4,0:0:0:0:
100,360,101343,6,0,B|168:344|168:288|168:288|168:228|168:228|168:192|196:164,1,240,4|2,1:0|1:2,0:0:0:0:
316,164,102441,2,0,B|344:192|344:228|344:228|344:288|344:288|344:344|412:360,1,240,4|2,0:0|1:2,0:0:0:0:
440,244,103538,2,0,B|448:136|352:72|352:72|160:72|160:72|64:136|72:244,1,600,4|2,1:0|1:2,0:0:0:0:
136,348,105734,6,0,L|376:348,1,240,4|2,1:0|1:2,0:0:0:0:
376,228,106831,1,4,1:0:0:0:
256,228,107197,1,0,1:0:0:0:
136,228,107563,1,0,1:0:0:0:
16,228,107929,6,0,P|256:5|497:228,1,720,2|4,0:0|1:0,0:0:0:0:
436,332,110489,5,0,0:0:0:0:
316,332,110855,1,0,0:0:0:0:
196,332,111221,1,4,0:0:0:0:
76,332,111587,1,2,0:0:0:0:
32,220,111953,1,0,0:0:0:0:
32,100,112319,6,0,P|144:92|216:188,1,240,2|0,0:0|0:0,0:0:0:0:
200,304,113416,1,4,0:0:0:0:
256,324,113599,1,2,0:0:0:0:
312,304,113782,1,0,0:0:0:0:
432,312,114148,1,0,0:0:0:0:
492,208,114514,6,0,B|491:138|491:138|491:74|444:60|444:60|374:44,1,240,4|0,1:0|0:0,0:0:0:0:
256,48,115611,1,4,0:0:0:0:
256,168,115977,1,2,0:0:0:0:
144,212,116343,1,0,0:0:0:0:
20,208,116709,6,0,B|20:138|20:138|20:74|68:60|68:60|140:44,1,240,2|0,0:0|0:0,0:0:0:0:
256,32,117807,2,0,L|256:272,1,240,4|2,0:0|0:0,0:0:0:0:
344,359,118904,6,0,P|288:104|168:360,1,720,4|4,1:0|1:0,0:0:0:0:
256,280,121465,6,0,L|256:216,2,60,2|8|8,1:2|1:2|0:0,0:0:0:0:
344,360,122197,1,2,1:0:0:0:
256,192,122563,12,0,125490,0:0:0:0:
