osu file format v14

[General]
AudioFilename: folk.mp3
AudioLeadIn: 1500
PreviewTime: 67593
Countdown: 0
SampleSet: Soft
StackLeniency: 0.7
Mode: 0
LetterboxInBreaks: 0
WidescreenStoryboard: 0

[Editor]
Bookmarks: 3295,4392,68234,68599,69331,69880,88081,88355,88721,88904,89270,89453,89819,90002,90368,90551,90916,91099,91465,91831,92197,92380,92563,92746,93020,93203,93660,93752,94118,96953,97136,97502,97685,98142,109392
DistanceSpacing: 2
BeatDivisor: 4
GridSize: 4
TimelineZoom: 1.6

[Metadata]
Title:Babylonia
TitleUnicode:バビロニア
Artist:Gekidan Record
ArtistUnicode:劇団レコード
Creator:nanda2009
Version:Hard
Source:beatmania IIDX 17 SIRIUS
Tags:広野智章 distorted new age troupe 2dx tomoaki hirono kr:agué krague -kevincela-
BeatmapID:569297
BeatmapSetID:247282

[Difficulty]
HPDrainRate:6
CircleSize:4.5
OverallDifficulty:7
ApproachRate:8
SliderMultiplier:1.6
SliderTickRate:1

[Events]
//Background and Video events
0,0,"wolf.jpg",0,0
//Break Periods
//Storyboard Layer 0 (Background)
//Storyboard Layer 1 (Fail)
//Storyboard Layer 2 (Pass)
//Storyboard Layer 3 (Foreground)
//Storyboard Sound Samples

[TimingPoints]
1100,365.853658536585,3,2,0,75,1,0
40612,-200,3,2,0,15,0,0
48843,-100,3,2,0,75,0,0
68051,-100,3,2,0,75,0,1
86709,-100,3,2,0,75,0,0
88173,365.853658536585,3,2,0,75,1,1
107929,-200,3,2,0,25,0,0
109392,-200,3,2,0,5,0,0
110124,-100,3,2,0,75,0,0
116343,365.853658536585,3,2,0,75,1,0
123294,-100,3,2,0,40,0,0
124026,-100,3,2,0,30,0,0
124758,-100,3,2,0,15,0,0
125490,-100,3,2,0,5,0,0

[Colours]
Combo1 : 158,75,35
Combo2 : 218,175,97
Combo3 : 255,159,113

[HitObjects]
304,160,1100,6,0,B|352:96|352:96|304:32,1,160,4|0,1:0|0:0,0:0:0:0:
256,96,1648,1,2,0:0:0:0:
208,32,1831,2,0,B|160:96|160:96|208:160,1,160,0|2,0:0|0:0,0:0:0:0:
256,320,2563,1,2,0:0:0:0:
256,96,2929,1,0,0:0:0:0:
396,180,3295,6,0,B|396:260|396:260|340:316,1,160,2|0,0:0|0:0,0:0:0:0:
256,320,3843,1,0,0:0:0:0:
172,316,4026,2,0,B|116:260|116:260|116:180,1,160,2|0,0:0|0:0,0:0:0:0:
120,100,4575,1,2,0:0:0:0:
192,64,4758,2,0,B|208:24|256:8|304:24|320:64,1,160
320,260,5490,6,0,B|304:300|256:316|208:300|192:260,1,160,2|0,0:0|0:0,0:0:0:0:
256,212,6039,1,2,0:0:0:0:
256,132,6221,1,0,0:0:0:0:
416,56,6587,1,2,0:0:0:0:
256,52,6953,1,2,0:0:0:0:
96,56,7319,1,0,0:0:0:0:
180,324,7685,6,0,P|248:344|332:324,1,160,2|0,0:0|0:0,0:0:0:0:
396,276,8234,1,2,0:0:0:0:
324,240,8417,2,0,P|255:276|188:240,1,160,2|0,0:0|0:0,0:0:0:0:
256,196,8965,1,2,0:0:0:0:
180,164,9148,1,0,0:0:0:0:
332,84,9514,1,8,3:0:0:0:
256,52,9697,1,0,1:0:0:0:
176,56,9880,6,0,P|104:56|40:112,1,160,2|4,0:0|1:0,0:0:0:0:
40,192,10429,1,0,0:0:0:0:
40,272,10612,2,0,B|96:328|96:328|176:328,1,160,2|0,0:0|0:0,0:0:0:0:
472,272,11343,2,0,B|416:328|416:328|336:328,1,160,2|2,1:2|1:2,0:0:0:0:
256,32,12075,5,2,0:0:0:0:
256,192,12441,1,4,1:0:0:0:
324,152,12624,1,0,0:0:0:0:
324,232,12807,2,0,P|280:264|188:232,1,160,2|2,0:0|1:2,0:0:0:0:
188,152,13356,1,0,0:0:0:0:
256,112,13539,2,0,P|304:124|328:156,1,80,0|0,1:0|0:0,0:0:0:0:
256,192,13904,1,2,1:2:0:0:
176,384,14270,5,2,0:0:0:0:
336,384,14636,1,4,1:0:0:0:
296,316,14819,1,0,0:0:0:0:
216,316,15002,2,0,P|180:248|216:180,1,160,2|2,0:0|0:0,0:0:0:0:
256,248,15551,1,0,0:0:0:0:
296,316,15734,2,0,P|332:248|296:180,1,160,2|2,1:2|1:2,0:0:0:0:
256,32,16465,6,0,L|256:192,1,160,2|4,0:0|1:0,0:0:0:0:
256,272,17014,1,0,0:0:0:0:
368,224,17197,2,0,B|368:136|368:136|320:80,1,160,2|0,0:0|1:0,0:0:0:0:
256,32,17746,1,0,0:0:0:0:
191,81,17929,2,0,B|144:136|144:136|144:224,1,160,0|8,1:0|1:2,0:0:0:0:
216,368,18660,5,4,1:0:0:0:
296,368,18843,2,0,P|308:348|296:296,2,80,0|2|0,0:0|1:2|0:0,0:0:0:0:
216,367,19392,2,0,P|202:331|217:295,1,80,2|0,1:2|0:2,0:0:0:0:
256,224,19758,1,2,0:0:0:0:
140,112,20124,1,2,1:2:0:0:
180,44,20307,1,0,0:0:0:0:
256,24,20490,1,2,1:2:0:0:
332,44,20673,1,2,0:0:0:0:
372,112,20856,6,0,B|364:192|364:192|356:232|324:264,1,160,0|2,0:0|1:2,0:0:0:0:
256,300,21404,1,0,0:0:0:0:
185,261,21587,2,0,B|155:232|147:192|147:192|139:112,1,160,2|2,1:2|0:0,0:0:0:0:
176,40,22136,1,0,1:2:0:0:
256,28,22319,1,2,1:2:0:0:
256,108,22502,1,0,0:0:0:0:
296,176,22685,2,0,P|312:212|296:248,1,80,6|0,1:2|0:0,0:0:0:0:
216,248,23051,6,0,P|200:204|215:177,1,80,4|0,1:0|0:0,0:0:0:0:
256,108,23417,1,2,1:2:0:0:
324,68,23599,1,0,0:0:0:0:
396,104,23782,1,2,1:2:0:0:
396,184,23965,1,2,0:0:0:0:
324,228,24148,2,0,B|300:256|256:268|256:268|212:256|188:228,1,160,2|2,0:0|1:2,0:0:0:0:
216,152,24697,1,0,0:0:0:0:
296,152,24880,1,2,1:2:0:0:
324,228,25063,1,0,0:2:0:0:
336,308,25246,6,0,P|326:346|297:375,1,80,2|0,0:0|0:0,0:0:0:0:
215,374,25612,2,0,P|188:346|177:308,1,80,2|0,1:2|0:0,0:0:0:0:
217,239,25978,2,0,P|257:231|297:239,1,80,2|0,1:2|0:0,0:0:0:0:
336,308,26343,1,6,0:0:0:0:
256,308,26526,1,2,1:2:0:0:
178,307,26709,2,0,P|160:272|172:235,1,80,2|0,1:2|0:0,0:0:0:0:
340,235,27075,2,0,P|351:273|334:308,1,80,6|0,1:2|1:0,1:0:0:0:
256,376,27441,5,4,1:0:0:0:
184,344,27624,2,0,P|176:312|196:272,1,80,0|2,0:0|1:2,0:0:0:0:
256,220,27990,1,0,0:0:0:0:
315,271,28173,2,0,P|335:305|328:344,1,80,2|2,1:2|0:2,0:0:0:0:
256,376,28539,1,2,0:0:0:0:
212,164,28904,1,2,1:2:0:0:
184,80,29087,1,0,0:2:0:0:
256,28,29270,1,2,1:2:0:0:
328,80,29453,1,2,0:0:0:0:
300,164,29636,5,2,0:2:0:0:
256,376,30002,1,2,1:2:0:0:
212,164,30368,1,2,1:2:0:0:
328,336,30734,1,2,0:0:0:0:
256,376,30917,1,0,1:0:0:0:
184,336,31099,1,0,1:0:0:0:
256,96,31465,1,4,1:2:0:0:
332,272,31831,6,0,P|368:288|412:288,2,80,4|0|2,1:0|0:0|1:2,0:0:0:0:
180,272,32380,2,0,P|140:256|96:256,2,80,0|2|2,0:0|1:2|0:0,0:0:0:0:
256,300,32929,2,0,L|256:140,1,160,2|2,0:0|1:2,0:0:0:0:
176,152,33478,2,0,P|175:112|198:80,1,80,0|2,0:0|1:2,0:0:0:0:
256,24,33843,1,0,0:0:0:0:
313,80,34026,6,0,P|336:112|336:152,1,80,2|0,0:0|0:0,0:0:0:0:
352,240,34392,1,2,1:2:0:0:
296,296,34575,1,0,0:0:0:0:
216,296,34758,1,2,1:2:0:0:
160,240,34941,1,0,0:0:0:0:
200,172,35124,2,0,L|200:88,1,80,2|0,0:0|1:2,0:0:0:0:
312,32,35490,2,0,L|312:112,1,80,2|0,0:0|0:0,0:0:0:0:
328,188,35856,1,8,1:0:0:0:
392,232,36039,1,2,1:2:0:0:
464,200,36221,5,4,1:0:0:0:
336,296,36587,1,2,0:0:0:0:
336,296,36953,1,6,0:0:0:0:
176,296,37319,5,4,1:0:0:0:
48,200,37685,1,2,0:0:0:0:
48,200,38051,1,6,0:0:0:0:
175,95,38417,6,0,P|175:55|207:15,1,80,4|2,1:0|0:0,0:0:0:0:
255,79,38782,1,0,0:0:0:0:
335,95,38965,2,0,P|335:55|303:15,2,80,4|2|2,0:0|0:0|0:0,0:0:0:0:
331,175,39514,2,0,B|303:171|283:155|283:155|255:163|227:155|227:155|207:171|179:175,1,160,4|8,0:0|3:0,0:0:0:0:
255,79,40246,1,2,1:2:0:0:
331,343,40612,6,0,P|346:340|369:328,2,40,4|0|0,1:1|0:0|0:0,0:0:0:0:
256,312,41160,2,0,P|240:314|217:326,2,40,2|0|0,0:0|0:0|0:0,0:0:0:0:
320,264,41709,1,2,0:0:0:0:
256,124,42075,1,0,0:0:0:0:
181,343,42807,6,0,P|165:340|142:328,2,40,2|0|0,0:0|0:0|0:0,0:0:0:0:
256,312,43355,2,0,P|271:314|294:326,2,40,2|0|0,0:0|0:0|0:0,0:0:0:0:
192,264,43904,1,0,0:0:0:0:
256,216,44087,1,2,0:0:0:0:
320,264,44270,2,0,P|336:224|328:180,1,80,2|2,0:0|0:0,0:0:0:0:
296,96,45002,6,0,P|296:80|304:56,2,40,2|0|0,0:0|0:0|0:0,0:0:0:0:
216,95,45551,2,0,P|215:75|208:56,2,40,2|0|0,0:0|0:0|0:0,0:0:0:0:
256,168,46099,1,2,0:0:0:0:
256,12,46465,1,2,0:0:0:0:
256,168,46831,1,0,0:0:0:0:
200,256,47197,5,2,0:0:0:0:
204,216,47380,1,0,0:0:0:0:
228,184,47563,1,0,0:0:0:0:
256,168,47746,1,2,0:0:0:0:
284,184,47929,1,2,0:0:0:0:
308,216,48112,1,0,0:0:0:0:
312,256,48295,1,8,3:0:0:0:
256,344,48660,5,4,0:3:0:0:
256,256,48843,1,8,0:0:0:0:
256,168,49026,1,0,1:0:0:0:
424,113,49392,5,4,1:0:0:0:
393,186,49575,1,0,0:0:0:0:
333,238,49758,1,2,0:0:0:0:
256,256,49941,1,0,0:0:0:0:
179,238,50124,1,2,0:0:0:0:
118,186,50307,1,0,0:0:0:0:
88,113,50490,1,6,0:0:0:0:
256,8,50856,2,0,B|256:168,1,160,2|2,0:0|0:0,0:0:0:0:
416,188,51587,5,2,0:0:0:0:
440,264,51770,1,0,0:0:0:0:
379,316,51953,2,0,P|343:332|303:331,1,80,2|0,0:0|0:0,0:0:0:0:
208,331,52319,2,0,P|168:332|132:316,1,80,2|0,0:0|0:0,0:0:0:0:
76,252,52685,1,0,0:0:0:0:
132,188,52868,1,2,0:0:0:0:
76,132,53051,2,0,P|240:12|309:62,1,320,2|2,0:0|0:0,0:0:0:0:
336,136,53965,5,0,0:0:0:0:
416,136,54148,1,2,0:0:0:0:
377,214,54331,1,0,0:0:0:0:
457,214,54514,1,2,0:0:0:0:
416,292,54697,1,0,0:0:0:0:
336,292,54880,2,0,P|256:292|192:244,1,160,4|2,0:0|0:0,0:0:0:0:
256,96,55612,2,0,P|336:96|400:144,2,160,2|2|0,0:0|0:0|0:0,0:0:0:0:
184,132,56526,5,2,0:0:0:0:
184,52,56709,1,2,0:0:0:0:
256,16,56892,1,0,0:0:0:0:
328,52,57075,1,0,0:0:0:0:
328,132,57258,2,0,P|300:148|256:164,1,80,2|0,0:0|0:0,0:0:0:0:
184,132,57624,1,0,0:0:0:0:
108,160,57807,1,2,0:0:0:0:
5,296,58173,5,2,0:0:0:0:
76,328,58356,1,2,0:0:0:0:
152,300,58539,1,4,0:0:0:0:
312,284,58904,6,0,P|280:356|204:352,1,160,2|4,0:0|1:0,0:0:0:0:
72,272,59635,2,0,L|72:240,3,26.6666666666667,2|0|0|0,0:0|0:0|0:0|0:0,0:0:0:0:
44,168,60002,1,10,0:0:0:0:
88,12,60368,1,4,1:0:0:0:
248,28,60734,1,2,0:0:0:0:
256,192,61099,1,2,0:0:0:0:
264,356,61465,5,0,1:0:0:0:
424,336,61831,2,0,B|424:309,3,26.6666666666667,2|0|0|2,0:0|0:0|0:0|0:0,0:0:0:0:
440,228,62197,1,8,0:0:0:0:
384,80,62563,2,0,B|356:64|320:72|320:72|304:8|256:0|208:8|192:72|192:72|156:64|128:80,1,320,4|2,1:0|0:0,0:0:0:0:
16,192,63660,5,0,1:0:0:0:
108,324,64025,2,0,L|108:292,3,26.6666666666667,2|2|2|0,0:0|0:0|0:0|0:0,0:0:0:0:
148,228,64392,1,10,0:0:0:0:
256,108,64758,1,4,1:0:0:0:
364,228,65124,1,8,3:0:0:0:
256,344,65490,1,10,0:0:0:0:
144,132,65856,5,0,1:0:0:0:
368,132,66221,1,8,3:0:0:0:
256,344,66587,1,8,1:2:0:0:
160,44,66953,5,0,1:0:0:0:
256,28,67136,1,0,1:0:0:0:
352,44,67319,1,0,1:0:0:0:
320,216,67685,6,2,P|260:256|192:216,1,160,2|4,0:0|1:0,0:0:0:0:
144,152,68234,5,0,1:0:0:0:
216,112,68417,1,2,0:0:0:0:
296,112,68599,1,0,0:0:0:0:
368,152,68782,2,0,B|448:152|448:152|504:208,1,160,2|4,1:2|0:0,0:0:0:0:
480,288,69331,2,0,L|424:232,2,80,2|0|0,0:2|0:0|0:0,0:0:0:0:
456,368,69880,1,2,1:2:0:0:
296,368,70246,5,0,0:0:0:0:
256,296,70429,1,2,1:2:0:0:
176,296,70612,1,0,0:0:0:0:
216,368,70795,1,0,0:0:0:0:
296,368,70978,1,2,1:2:0:0:
324,223,71343,2,0,P|285:192|189:222,2,160,6|2|2,0:0|1:2|1:2,0:0:0:0:
256,352,72258,1,2,0:0:0:0:
256,272,72441,6,0,L|256:112,1,160,4|2,1:0|0:0,0:0:0:0:
216,32,72990,1,0,0:0:0:0:
176,104,73173,1,2,1:2:0:0:
256,272,73539,1,4,0:0:0:0:
336,104,73904,1,2,0:0:0:0:
296,32,74087,1,0,0:0:0:0:
216,32,74270,1,2,1:2:0:0:
176,104,74453,1,2,0:0:0:0:
136,176,74635,1,4,0:2:0:0:
100,332,75001,5,2,0:0:0:0:
256,372,75367,1,2,1:2:0:0:
412,332,75733,2,0,B|404:304|404:304|412:284|412:284|404:256|404:256|420:168|364:96|268:108,1,320,4|2,0:0|1:2,0:0:0:0:
96,136,76831,6,0,P|76:140|12:252,1,160,4|2,1:0|0:0,0:0:0:0:
40,324,77380,1,0,0:0:0:0:
108,364,77563,2,0,B|184:364|184:364|220:289,1,160,2|6,1:2|0:0,0:0:0:0:
256,216,78112,1,0,0:0:0:0:
291,288,78295,2,0,B|328:364|328:364|404:364,1,160,2|2,0:0|1:2,0:0:0:0:
384,224,79026,6,0,B|360:192|320:192|320:192|304:144|256:128|204:140|192:192|192:192,1,240,2|0,0:0|0:0,0:0:0:0:
120,224,79758,1,2,1:2:0:0:
192,268,79941,1,0,0:0:0:0:
256,216,80124,1,4,0:0:0:0:
320,268,80307,1,2,0:0:0:0:
320,348,80490,2,0,P|256:389|192:347,1,160,2|2,1:2|1:2,0:0:0:0:
256,216,81039,5,2,0:0:0:0:
256,216,81130,1,2,0:0:0:0:
256,216,81221,2,0,L|256:56,2,160,4|2|2,1:0|0:0|1:2,0:0:0:0:
256,336,82136,1,0,0:0:0:0:
210,266,82319,2,0,P|255:150|301:266,1,320,4|2,0:0|1:2,0:0:0:0:
444,368,83417,5,2,0:0:0:0:
456,344,83508,1,2,0:0:0:0:
468,320,83599,1,0,1:0:0:0:
480,296,83691,1,0,0:0:0:0:
492,272,83782,2,0,B|492:192|492:192|436:136,2,160,2|2|2,0:0|1:2|0:0,0:0:0:0:
416,304,84697,1,0,0:0:0:0:
336,316,84880,2,0,B|256:316|256:316|200:260,1,160,2|2,1:2|1:2,0:0:0:0:
164,188,85429,1,2,0:0:0:0:
200,116,85612,6,0,B|256:58|256:58|312:116,1,160,4|0,1:0|0:0,0:0:0:0:
348,188,86161,1,2,1:2:0:0:
313,259,86343,2,0,B|257:315|257:315|177:315,1,160,0|4,0:0|1:0,0:0:0:0:
40,316,86892,1,0,1:0:0:0:
108,196,87075,1,0,1:0:0:0:
368,248,88173,5,4,1:0:0:0:
368,248,88264,1,0,0:0:0:0:
368,248,88355,2,0,P|336:248|296:272,1,80,0|0,1:0|0:0,0:0:0:0:
216,272,88721,1,0,1:0:0:0:
144,232,88904,2,0,B|64:232|64:232|8:176,1,160,0|4,1:0|1:2,0:0:0:0:
7,175,89362,1,0,0:0:0:0:
7,175,89453,1,0,1:0:0:0:
8,96,89636,2,0,P|8:60|32:24,1,80,0|0,0:0|1:0,0:0:0:0:
112,16,90002,1,0,1:0:0:0:
296,16,90368,5,2,1:2:0:0:
336,88,90551,1,0,1:0:0:0:
256,88,90733,1,2,0:2:0:0:
216,16,90916,1,0,1:0:0:0:
296,16,91099,1,2,1:2:0:0:
323,160,91465,2,0,P|285:192|188:161,2,160,4|0|0,0:0|1:0|1:0,0:0:0:0:
256,32,92380,1,0,0:0:0:0:
256,112,92563,6,0,L|256:272,1,160,4|0,1:0|0:0,0:0:0:0:
296,352,93112,1,0,1:0:0:0:
336,280,93294,1,0,1:0:0:0:
336,280,93386,1,0,0:0:0:0:
336,280,93477,1,0,0:0:0:0:
328,200,93660,2,0,P|272:172|184:200,1,160,4|0,2:0|1:0,2:0:0:0:
176,280,94209,1,0,2:0:0:0:
256,288,94392,1,0,1:0:0:0:
336,280,94575,1,0,0:0:0:0:
336,200,94758,6,0,B|336:120|336:120|336:80|304:48,1,160,4|2,1:0|0:0,0:0:0:0:
256,112,95307,1,0,1:0:0:0:
208,48,95490,2,0,B|176:80|176:120|176:120|176:200,1,160,2|6,1:2|0:0,0:0:0:0:
112,257,96038,6,0,P|144:280|184:280,1,80,0|8,0:0|3:0,0:0:0:0:
256,312,96404,1,0,0:0:0:0:
328,280,96587,2,0,P|368:280|400:256,1,80,4|2,3:0|0:0,0:0:0:0:
399,257,96862,1,2,0:0:0:0:
399,257,96953,6,0,B|467:209|467:209|467:133,1,160,4|0,1:0|0:0,0:0:0:0:
512,64,97502,1,0,1:0:0:0:
448,12,97685,2,0,B|396:12|396:12|352:48|352:48|300:48,1,160,2|4,1:2|0:0,0:0:0:0:
300,48,98142,1,0,0:0:0:0:
300,48,98234,1,0,1:0:0:0:
212,48,98416,2,0,B|160:48|160:48|116:12|116:12|64:12,1,160,0|2,1:2|1:2,0:0:0:0:
168,184,99148,6,0,P|190:224|344:184,1,240,2|2,0:0|1:2,0:0:0:0:
376,112,99880,1,2,1:2:0:0:
296,112,100063,1,2,0:0:0:0:
216,112,100246,1,4,0:0:0:0:
136,112,100429,1,0,1:0:0:0:
180,44,100612,2,0,P|248:24|332:44,1,160,0|0,1:0|1:0,0:0:0:0:
256,136,101160,5,2,0:0:0:0:
256,136,101252,1,2,0:0:0:0:
256,136,101343,2,0,L|256:296,2,160,4|2|2,1:0|0:0|1:2,0:0:0:0:
256,16,102258,1,0,0:0:0:0:
352,72,102441,2,0,P|432:144|352:312,1,320,6|0,0:0|1:0,0:0:0:0:
160,311,103538,5,2,0:0:0:0:
160,292,103630,1,0,0:0:0:0:
160,272,103721,1,2,0:0:0:0:
160,252,103813,1,0,0:0:0:0:
160,232,103904,2,0,B|160:152|160:152|160:112|192:80,1,160,0|0,1:0|1:0,0:0:0:0:
352,73,104636,1,2,0:0:0:0:
400,136,104819,1,2,0:0:0:0:
352,208,105002,2,0,B|432:208|432:208|490:153,1,160,0|0,1:0|1:0,0:0:0:0:
457,79,105551,2,0,L|400:135,1,80,0|4,0:0|1:0,0:0:0:0:
112,135,106099,6,0,L|55:79,1,80,2|0,0:0|1:0,0:0:0:0:
21,153,106465,2,0,B|80:208|80:208|160:208,1,160,2|4,1:2|1:0,0:0:0:0:
352,208,107197,1,4,1:0:0:0:
256,304,107563,1,4,1:0:0:0:
160,208,107929,5,0,0:0:0:0:
160,208,108020,1,2,0:0:0:0:
160,208,108112,2,0,P|216:132|352:208,1,280,2|0,0:0|0:0,0:0:0:0:
304,352,110124,5,4,1:0:0:0:
208,224,110490,1,0,0:0:0:0:
256,160,110672,1,2,0:0:0:0:
304,224,110855,2,0,B|352:288|352:288|304:352,2,160,0|4|0,0:0|0:0|0:0,0:0:0:0:
256,24,111953,1,2,0:0:0:0:
352,152,112319,6,0,P|381:188|352:287,1,160,2|0,0:0|0:0,0:0:0:0:
256,336,112867,1,2,0:0:0:0:
256,256,113050,2,0,L|256:96,1,160,2|4,0:0|0:0,0:0:0:0:
192,47,113599,2,0,P|176:80|184:136,1,80,2|0,0:0|0:0,0:0:0:0:
256,256,114148,1,0,0:0:0:0:
320,48,114514,6,0,B|304:8|256:-8|208:8|192:48,1,160,4|0,1:0|0:0,0:0:0:0:
216,120,115063,1,2,0:0:0:0:
296,120,115246,1,0,0:0:0:0:
344,288,115612,1,4,0:0:0:0:
168,288,115977,1,2,0:0:0:0:
120,120,116343,1,0,0:0:0:0:
256,32,116709,6,0,P|352:32|356:88,1,160,2|0,0:0|0:0,0:0:0:0:
296,132,117258,1,2,0:0:0:0:
216,132,117441,2,0,B|176:204|176:204|216:276,1,160,2|4,0:0|0:0,0:0:0:0:
256,340,117990,1,2,0:0:0:0:
300,271,118172,2,0,B|337:204|337:204|297:132,1,160,0|2,0:0|1:2,0:0:0:0:
216,36,118904,6,0,P|256:311|296:36,1,800,4|2,1:0|0:0,0:0:0:0:
219,231,121099,6,0,P|248:244|292:232,1,80,4|2,1:0|0:0,0:0:0:0:
332,172,121465,2,0,P|321:134|293:108,1,80,0|10,0:2|0:0,0:0:0:0:
220,108,121831,2,0,P|191:134|180:172,1,80,10|0,0:2|1:0,0:0:0:0:
256,172,122196,2,0,L|256:12,1,160
256,192,122654,12,0,125490,0:0:0:0:
