osu file format v14

[General]
AudioFilename: folk.mp3
AudioLeadIn: 1500
PreviewTime: 67593
Countdown: 0
SampleSet: Normal
StackLeniency: 0.7
Mode: 1
LetterboxInBreaks: 0
WidescreenStoryboard: 0

[Editor]
Bookmarks: 3295,4392
DistanceSpacing: 1
BeatDivisor: 2
GridSize: 8
TimelineZoom: 1

[Metadata]
Title:Babylonia
TitleUnicode:バビロニア
Artist:Gekidan Record
ArtistUnicode:劇団レコード
Creator:nanda2009
Version:Futsuu
Source:beatmania IIDX 17 SIRIUS
Tags:広野智章 distorted new age troupe 2dx tomoaki hirono kr:agué krague -kevincela-
BeatmapID:569299
BeatmapSetID:247282

[Difficulty]
HPDrainRate:6
CircleSize:2
OverallDifficulty:5
ApproachRate:5
SliderMultiplier:1.4
SliderTickRate:1

[Events]
//Background and Video events
0,0,"wolf.jpg",0,-100
//Break Periods
//Storyboard Layer 0 (Background)
//Storyboard Layer 1 (Fail)
//Storyboard Layer 2 (Pass)
//Storyboard Layer 3 (Foreground)
//Storyboard Sound Samples

[TimingPoints]
1100,365.853658536585,3,1,0,100,1,0
68051,-100,3,1,0,100,0,1
86709,-100,3,1,0,100,0,0
88173,365.853658536585,3,1,0,100,1,1
107929,-100,3,1,0,100,0,0

[Colours]
Combo1 : 158,75,35
Combo2 : 218,175,97
Combo3 : 255,159,113

[HitObjects]
192,160,1100,5,4,0:0:0:0:
192,160,1831,1,0,0:0:0:0:
192,160,2197,1,8,0:0:0:0:
192,160,2929,1,0,0:0:0:0:
192,160,3295,1,8,0:0:0:0:
192,160,4026,1,0,0:0:0:0:
192,160,4392,1,8,0:0:0:0:
192,160,4758,1,8,0:0:0:0:
192,160,5124,1,0,0:0:0:0:
192,160,5490,1,8,0:0:0:0:
192,160,6221,1,0,0:0:0:0:
192,160,6587,1,8,0:0:0:0:
192,160,7319,1,0,0:0:0:0:
192,160,7685,1,8,0:0:0:0:
192,160,8417,1,0,0:0:0:0:
192,160,8782,1,8,0:0:0:0:
192,160,9148,1,8,0:0:0:0:
192,160,9514,1,0,0:0:0:0:
192,160,9880,1,8,0:0:0:0:
280,128,10246,1,4,0:0:0:0:
288,144,10978,1,0,0:0:0:0:
288,144,11343,1,8,0:0:0:0:
288,144,11709,1,8,0:0:0:0:
280,128,12441,1,4,0:0:0:0:
296,136,13173,1,0,0:0:0:0:
296,136,13539,1,8,0:0:0:0:
296,136,13904,1,0,0:0:0:0:
296,144,14636,1,4,0:0:0:0:
296,144,15368,1,0,0:0:0:0:
296,144,15734,1,8,0:0:0:0:
296,144,16099,1,8,0:0:0:0:
272,128,16831,1,4,0:0:0:0:
272,128,17563,1,8,0:0:0:0:
272,128,17929,1,0,0:0:0:0:
272,128,18295,1,0,0:0:0:0:
272,128,18660,1,4,0:0:0:0:
256,176,19026,1,8,0:0:0:0:
256,176,19392,1,8,0:0:0:0:
256,176,20124,1,8,0:0:0:0:
256,176,20490,1,8,0:0:0:0:
256,176,21221,1,8,0:0:0:0:
256,176,21587,1,8,0:0:0:0:
256,176,21953,1,0,0:0:0:0:
256,176,22319,1,8,0:0:0:0:
256,176,22685,1,8,0:0:0:0:
256,176,23051,1,4,0:0:0:0:
256,176,23417,1,8,0:0:0:0:
256,176,23782,1,8,0:0:0:0:
256,176,24514,1,8,0:0:0:0:
256,176,24880,1,8,0:0:0:0:
256,176,25612,1,8,0:0:0:0:
256,176,25978,1,8,0:0:0:0:
256,176,26343,1,0,0:0:0:0:
256,176,26709,1,8,0:0:0:0:
256,176,27075,1,0,0:0:0:0:
256,176,27441,1,4,0:0:0:0:
256,176,27807,1,8,0:0:0:0:
256,176,28173,1,8,0:0:0:0:
256,176,28904,1,8,0:0:0:0:
256,176,29270,1,8,0:0:0:0:
256,176,30002,1,8,0:0:0:0:
256,176,30368,1,8,0:0:0:0:
256,176,30734,1,0,0:0:0:0:
256,176,31099,1,8,0:0:0:0:
256,176,31465,1,8,0:0:0:0:
256,176,31831,1,4,0:0:0:0:
256,176,32197,1,8,0:0:0:0:
256,176,32563,1,8,0:0:0:0:
256,176,33295,1,8,0:0:0:0:
256,176,33660,1,8,0:0:0:0:
256,176,34392,1,8,0:0:0:0:
256,176,34758,1,8,0:0:0:0:
256,176,35124,1,0,0:0:0:0:
256,176,35490,1,0,0:0:0:0:
256,176,35856,1,8,0:0:0:0:
256,176,36221,1,4,0:0:0:0:
256,176,36587,1,8,0:0:0:0:
256,176,36953,1,8,0:0:0:0:
256,176,37685,1,8,0:0:0:0:
256,176,38051,1,8,0:0:0:0:
256,176,38782,1,0,0:0:0:0:
256,176,39148,1,8,0:0:0:0:
256,176,39514,1,8,0:0:0:0:
256,176,39880,1,4,0:0:0:0:
248,40,40612,1,0,0:0:0:0:
248,40,40978,1,0,0:0:0:0:
248,40,41343,1,8,0:0:0:0:
248,40,41709,1,0,0:0:0:0:
248,40,42075,1,0,0:0:0:0:
248,40,42807,1,0,0:0:0:0:
248,40,43173,1,0,0:0:0:0:
248,40,43539,1,8,0:0:0:0:
248,40,43904,1,0,0:0:0:0:
248,40,44270,1,8,0:0:0:0:
248,40,45002,1,8,0:0:0:0:
248,40,45734,1,0,0:0:0:0:
248,40,46099,1,0,0:0:0:0:
248,40,46465,1,8,0:0:0:0:
248,40,46831,1,0,0:0:0:0:
248,40,47197,1,8,0:0:0:0:
248,40,47929,1,0,0:0:0:0:
248,40,48295,1,8,0:0:0:0:
248,40,48660,1,0,0:0:0:0:
248,40,49392,1,4,0:0:0:0:
248,40,49758,1,0,0:0:0:0:
248,40,50123,1,8,0:0:0:0:
248,40,50489,1,0,0:0:0:0:
248,40,50855,1,8,0:0:0:0:
248,40,51587,1,0,0:0:0:0:
248,40,51953,1,0,0:0:0:0:
248,40,52319,1,8,0:0:0:0:
248,40,52684,1,0,0:0:0:0:
248,40,53050,1,8,0:0:0:0:
248,40,53782,1,8,0:0:0:0:
224,120,54148,1,0,0:0:0:0:
248,40,54514,1,0,0:0:0:0:
336,112,54880,1,8,0:0:0:0:
248,40,55245,1,8,0:0:0:0:
248,40,55611,1,0,0:0:0:0:
248,40,55977,1,8,0:0:0:0:
200,240,56709,1,0,0:0:0:0:
200,240,57075,1,8,0:0:0:0:
192,112,58173,1,0,0:0:0:0:
192,104,58539,1,8,0:0:0:0:
192,104,58904,1,8,0:0:0:0:
192,104,59270,1,4,0:0:0:0:
192,104,60368,1,0,0:0:0:0:
192,104,60734,1,8,0:0:0:0:
192,104,61099,1,8,0:0:0:0:
192,104,61465,1,0,0:0:0:0:
192,96,62563,1,4,0:0:0:0:
184,80,63295,1,8,0:0:0:0:
192,96,63660,1,0,0:0:0:0:
184,80,64758,1,4,0:0:0:0:
184,80,65124,1,8,0:0:0:0:
184,80,65490,1,8,0:0:0:0:
184,80,65856,1,0,0:0:0:0:
192,80,66587,1,8,0:0:0:0:
192,80,66953,1,0,0:0:0:0:
232,144,67685,1,8,0:0:0:0:
232,144,68051,1,4,0:0:0:0:
184,328,68782,1,0,0:0:0:0:
232,144,69148,1,8,0:0:0:0:
232,144,69880,1,8,0:0:0:0:
232,144,70246,1,0,0:0:0:0:
184,328,70978,1,8,0:0:0:0:
184,328,71343,1,8,0:0:0:0:
184,328,72075,1,8,0:0:0:0:
184,328,72441,1,4,0:0:0:0:
184,328,73173,1,0,0:0:0:0:
184,328,73539,1,8,0:0:0:0:
184,328,74270,1,8,0:0:0:0:
184,328,74636,1,0,0:0:0:0:
184,328,75002,1,0,0:0:0:0:
184,328,75368,1,0,0:0:0:0:
184,328,75734,1,8,0:0:0:0:
184,328,76465,1,8,0:0:0:0:
184,328,76831,1,4,0:0:0:0:
176,328,77563,1,0,0:0:0:0:
176,328,77929,1,8,0:0:0:0:
176,328,78660,1,8,0:0:0:0:
176,328,79026,1,0,0:0:0:0:
176,328,79758,1,8,0:0:0:0:
176,328,80124,1,8,0:0:0:0:
176,328,81221,1,4,0:0:0:0:
176,328,81587,1,0,0:0:0:0:
176,328,81953,1,8,0:0:0:0:
176,328,82319,1,8,0:0:0:0:
176,328,83051,1,8,0:0:0:0:
176,328,83417,1,0,0:0:0:0:
272,280,84514,1,8,0:0:0:0:
272,280,85246,1,8,0:0:0:0:
272,280,85612,1,4,0:0:0:0:
272,280,86343,1,8,0:0:0:0:
272,280,86709,1,4,0:0:0:0:
272,280,87075,1,0,0:0:0:0:
232,144,88173,1,4,0:0:0:0:
184,328,88904,1,0,0:0:0:0:
232,144,89270,1,8,0:0:0:0:
232,144,90002,1,8,0:0:0:0:
232,144,90368,1,0,0:0:0:0:
184,328,91100,1,8,0:0:0:0:
184,328,91465,1,8,0:0:0:0:
184,328,92197,1,8,0:0:0:0:
184,328,92563,1,4,0:0:0:0:
184,328,93295,1,8,0:0:0:0:
184,328,93661,1,8,0:0:0:0:
184,328,94392,1,8,0:0:0:0:
184,328,94758,1,0,0:0:0:0:
184,328,95124,1,0,0:0:0:0:
184,328,95490,1,0,0:0:0:0:
184,328,95856,1,8,0:0:0:0:
184,328,96587,1,8,0:0:0:0:
184,328,96953,1,4,0:0:0:0:
176,328,97685,1,0,0:0:0:0:
176,328,98051,1,8,0:0:0:0:
176,328,98782,1,8,0:0:0:0:
176,328,99148,1,0,0:0:0:0:
176,328,99880,1,8,0:0:0:0:
176,328,100246,1,8,0:0:0:0:
176,328,101343,1,4,0:0:0:0:
176,328,101709,1,0,0:0:0:0:
176,328,102075,1,8,0:0:0:0:
176,328,102441,1,8,0:0:0:0:
176,328,103173,1,8,0:0:0:0:
176,328,103539,1,0,0:0:0:0:
272,280,104636,1,8,0:0:0:0:
272,280,105368,1,8,0:0:0:0:
272,280,105734,1,0,0:0:0:0:
232,128,106099,1,0,0:0:0:0:
232,128,106465,1,8,0:0:0:0:
232,128,106831,1,0,0:0:0:0:
232,128,107563,1,8,0:0:0:0:
256,192,107929,12,0,109392,0:0:0:0:
192,160,110124,5,4,0:0:0:0:
192,160,110855,1,0,0:0:0:0:
192,160,111221,1,8,0:0:0:0:
192,160,111953,1,0,0:0:0:0:
192,160,112319,1,8,0:0:0:0:
192,160,113050,1,0,0:0:0:0:
192,160,113416,1,8,0:0:0:0:
192,160,113782,1,8,0:0:0:0:
192,160,114148,1,0,0:0:0:0:
192,160,114514,1,8,0:0:0:0:
192,160,115245,1,0,0:0:0:0:
192,160,115611,1,8,0:0:0:0:
192,160,116343,1,0,0:0:0:0:
192,160,116709,1,8,0:0:0:0:
192,160,117441,1,0,0:0:0:0:
192,160,117806,1,8,0:0:0:0:
192,160,118538,1,0,0:0:0:0:
192,160,118904,1,4,0:0:0:0:
296,152,119270,1,8,0:0:0:0:
296,152,119636,1,8,0:0:0:0:
296,152,120368,1,8,0:0:0:0:
296,152,120734,1,8,0:0:0:0:
296,152,121099,1,4,0:0:0:0:
296,152,121831,1,8,0:0:0:0:
296,152,122197,1,0,0:0:0:0:
256,192,122563,12,0,125490,0:0:0:0:
