osu file format v14

[General]
AudioFilename: audio.mp3
AudioLeadIn: 0
PreviewTime: 54030
Countdown: 0
SampleSet: Soft
StackLeniency: 0.7
Mode: 0
LetterboxInBreaks: 0
WidescreenStoryboard: 1

[Editor]
Bookmarks: 654,3964,13067,20101,25480,32514,38307,44099,54030,70581,75547,82581
DistanceSpacing: 4.1
BeatDivisor: 4
GridSize: 4
TimelineZoom: 2.2

[Metadata]
Title:a e i u e o ao!!
TitleUnicode:あ・え・い・う・え・お・あお!!
Artist:Gekidan Hitotose
ArtistUnicode:劇団ひととせ
Creator:rui
Version:Insane
Source:ひなこのーと
Tags:Hinako Note
BeatmapID:1263408
BeatmapSetID:597648

[Difficulty]
HPDrainRate:7
CircleSize:4
OverallDifficulty:8
ApproachRate:8.8
SliderMultiplier:1.8
SliderTickRate:1

[Events]
//Background and Video events
Video,0,"video.avi"
0,0,"C80vlTLUMAAg7Q6.jpg",0,0
//Break Periods
//Storyboard Layer 0 (Background)
//Storyboard Layer 1 (Fail)
//Storyboard Layer 2 (Pass)
//Storyboard Layer 3 (Foreground)
//Storyboard Sound Samples

[TimingPoints]
654,413.793103448276,4,2,1,60,1,0
3550,-83.3333333333333,4,2,1,60,0,0
6447,-100,4,2,1,60,0,0
11412,413.793103448276,4,2,1,60,1,0
12653,-83.3333333333333,4,2,2,60,0,0
13067,-100,4,2,1,60,0,0
16791,413.793103448276,4,2,1,60,1,0
20101,-100,4,2,1,50,0,0
22377,-100,4,2,1,35,0,0
22997,-100,4,2,1,50,0,0
23204,-90.9090909090909,4,2,1,60,0,0
23411,-90.9090909090909,4,2,1,60,0,0
25480,413.793103448276,4,2,1,50,1,0
25480,-100,4,2,1,60,0,0
25480,-100,4,2,1,50,0,0
27755,-100,4,2,1,35,0,0
28376,-100,4,2,1,50,0,0
28583,-90.9090909090909,4,2,1,50,0,0
28790,-90.9090909090909,4,2,1,60,0,0
30859,-100,4,2,1,60,0,0
32514,413.793103448276,3,2,1,50,1,0
32514,-125,3,2,1,50,0,0
37479,-100,3,2,1,60,0,0
38307,413.793103448276,4,2,1,60,1,0
41617,413.793103448276,3,2,1,60,1,0
44099,413.793103448276,4,2,1,60,1,0
52374,-100,4,2,1,65,0,0
54030,-100,4,2,1,65,0,1
70581,-100,4,2,1,60,0,0
75133,-83.3333333333333,4,2,2,60,0,0
75547,-100,4,2,1,60,0,0
79271,413.793103448276,4,2,1,60,1,0
82581,413.793103448276,3,2,1,50,1,0
82581,-100,3,2,1,50,0,0
85063,413.793103448276,4,2,1,60,1,0
89097,-100,4,2,1,10,0,0

[Colours]
Combo1 : 147,255,174
Combo2 : 255,134,255
Combo3 : 255,255,96
Combo4 : 142,255,255
Combo5 : 255,184,113
Combo6 : 203,151,255

[HitObjects]
156,100,654,6,0,P|252:112|312:60,1,180,0|0,1:0|0:0,0:0:0:0:
311,61,1481,2,0,P|215:49|155:101,1,180,0|0,1:0|0:0,0:0:0:0:
155,99,2309,5,0,1:0:0:0:
191,237,2516,1,0,1:0:0:0:
276,118,2722,1,0,1:0:0:0:
104,178,2929,1,0,1:0:0:0:
290,217,3136,1,0,1:0:0:0:
80,332,3343,1,0,1:0:0:0:
284,363,3550,2,0,P|316:290|289:216,1,161.999995056153,0|0,1:0|0:0,0:0:0:0:
202,48,3964,5,4,1:0:0:0:
202,48,5619,5,4,1:0:0:0:
202,48,6447,6,0,P|189:118|150:181,1,135,4|0,1:0|0:0,0:0:0:0:
138,184,6860,2,0,P|150:228|150:276,1,90,0|0,1:0|0:0,0:0:0:0:
260,336,7274,6,0,P|302:316|350:307,1,90,4|0,0:0|0:0,0:0:0:0:
428,212,7688,2,0,L|472:232,2,45,0|0|0,1:0|0:0|0:0,0:0:0:0:
304,188,8103,1,2,0:0:0:0:
186,233,8309,1,0,0:0:0:0:
105,136,8516,1,0,1:0:0:0:
171,31,8723,1,0,0:0:0:0:
295,61,8929,6,0,P|340:56|384:40,1,90,4|0,1:0|0:0,0:0:0:0:
460,132,9343,1,0,1:0:0:0:
448,144,9447,2,0,P|448:188|464:232,1,90
360,308,9757,2,0,L|368:264,1,45,0|0,1:0|0:0,0:0:0:0:
396,76,9964,1,0,0:0:0:0:
380,82,10068,2,0,P|362:122|360:169,1,90,0|0,1:0|0:0,0:0:0:0:
261,240,10378,2,0,L|285:202,1,45,0|0,1:0|0:0,0:0:0:0:
244,24,10585,1,2,0:0:0:0:
235,38,10689,2,0,P|247:80|276:117,1,90,0|0,1:0|0:0,0:0:0:0:
360,167,10998,1,2,0:0:0:0:
372,178,11102,2,0,P|370:221|352:265,1,90,0|0,1:0|0:0,0:0:0:0:
164,332,11412,5,0,1:0:0:0:
120,303,11515,1,0,1:0:0:0:
107,256,11618,1,0,1:0:0:0:
122,210,11722,1,0,1:0:0:0:
156,176,11825,1,0,1:0:0:0:
176,120,11928,1,0,1:0:0:0:
152,56,12032,1,0,1:0:0:0:
80,32,12136,1,0,1:0:0:0:
80,32,12653,6,0,P|160:52|236:96,1,161.999995056153,8|0,0:0|0:0,0:0:0:0:
316,48,13067,5,4,0:0:0:0:
352,56,13170,1,0,0:0:0:0:
380,80,13274,1,0,0:0:0:0:
396,112,13377,1,0,0:0:0:0:
388,148,13480,1,8,0:0:0:0:
370,180,13583,1,0,0:0:0:0:
371,217,13687,1,0,0:0:0:0:
385,250,13790,1,0,0:0:0:0:
412,272,13894,2,0,P|460:268|496:248,1,90,2|0,0:0|0:0,0:0:0:0:
512,176,14205,1,0,0:0:0:0:
512,176,14308,2,0,P|488:138|451:113,1,90,8|0,0:0|0:0,0:0:0:0:
324,24,14722,5,2,0:0:0:0:
316,48,14825,1,0,0:0:0:0:
316,76,14929,2,0,P|320:100|324:120,1,45
396,212,15136,2,0,P|400:190|400:168,1,45,8|0,0:0|0:0,0:0:0:0:
276,172,15343,1,0,0:0:0:0:
288,196,15446,1,0,0:0:0:0:
288,224,15549,2,0,P|280:272|264:316,1,90,2|0,0:0|0:0,0:0:0:0:
252,336,15860,1,0,0:0:0:0:
236,356,15963,1,8,0:0:0:0:
124,168,16170,6,0,P|144:152|168:140,1,45
256,148,16377,2,0,P|252:122|242:97,1,45,8|0,0:0|0:0,0:0:0:0:
172,48,16584,1,0,0:0:0:0:
356,120,16791,6,0,P|352:164|336:216,1,90,2|0,0:0|0:0,0:0:0:0:
216,332,17204,2,0,P|232:354|249:377,1,45,8|0,0:0|0:0,0:0:0:0:
376,345,17411,2,0,L|364:296,1,45
246,238,17618,2,0,P|214:205|190:168,1,90,2|0,0:0|0:0,0:0:0:0:
102,32,17928,2,0,P|130:36|158:40,1,45,0|8,0:0|0:0,0:0:0:0:
279,69,18135,2,0,L|236:80,1,45
64,160,18446,6,0,P|72:184|76:212,1,45,2|8,0:0|0:0,0:0:0:0:
148,264,18653,2,0,P|156:240|172:216,1,45,8|8,0:0|0:0,0:0:0:0:
396,180,18859,2,0,P|389:201|387:223,1,45,2|8,0:0|0:0,0:0:0:0:
303,181,19066,2,0,P|294:160|282:141,1,45,8|8,0:0|0:0,0:0:0:0:
240,307,19273,2,0,P|262:313|283:323,1,45,2|0,0:0|0:0,0:0:0:0:
176,116,19480,2,0,P|156:127|139:140,1,45
16,290,19687,2,0,P|83:285|147:264,1,135,8|0,0:0|0:0,0:0:0:0:
204,196,20101,6,0,L|296:208,1,90,4|0,0:0|0:0,0:0:0:0:
336,224,20411,1,0,0:0:0:0:
336,224,20515,2,0,P|384:220|424:204,1,90,2|0,0:0|0:0,0:0:0:0:
487,95,20928,2,0,P|446:80|401:76,1,90,2|0,0:0|0:0,0:0:0:0:
360,88,21239,1,0,0:0:0:0:
360,88,21342,2,0,P|315:84|273:68,1,90,2|0,0:0|0:0,0:0:0:0:
148,80,21756,6,0,P|162:122|190:157,1,90,2|0,0:0|0:0,0:0:0:0:
295,220,22170,2,0,L|316:180,1,45,2|0,0:0|0:0,0:0:0:0:
384,116,22377,1,8,0:0:0:0:
417,126,22480,1,8,0:0:0:0:
446,147,22584,1,8,0:0:0:0:
461,178,22687,1,8,0:0:0:0:
463,214,22791,1,0,0:0:0:0:
454,249,22894,1,8,0:0:0:0:
429,274,22997,1,10,0:0:0:0:
280,304,23204,6,0,P|272:280|268:252,1,49.5000015106202
220,96,23411,2,2,B|241:59|283:64|307:101|283:136|283:136|294:158,1,148.50000453186
332,216,23825,1,0,1:0:0:0:
380,76,24032,1,0,0:0:0:0:
380,76,24135,1,0,0:0:0:0:
380,76,24239,2,0,P|389:52|399:23,2,49.5000015106202,2|0|0,0:0|0:0|0:0,0:0:0:0:
372,264,24653,1,2,0:0:0:0:
270,128,24859,1,0,0:0:0:0:
372,264,25066,1,2,0:0:0:0:
156,176,25273,1,2,0:0:0:0:
331,41,25480,6,0,P|284:29|230:28,1,90,4|0,0:0|0:0,0:0:0:0:
125,141,25893,2,0,P|172:153|226:154,1,90,2|0,0:0|0:0,0:0:0:0:
256,140,26204,1,0,0:0:0:0:
256,140,26307,2,0,P|288:172|336:196,1,90,2|0,0:0|0:0,0:0:0:0:
440,136,26721,1,2,0:0:0:0:
340,268,26928,2,0,L|328:316,1,45
248,256,27135,6,0,P|236:212|228:160,1,90,2|0,0:0|0:0,0:0:0:0:
272,32,27548,2,0,L|252:76,1,45,2|0,0:0|0:0,0:0:0:0:
136,137,27755,1,8,0:0:0:0:
127,170,27858,1,8,0:0:0:0:
131,205,27962,1,8,0:0:0:0:
149,234,28065,1,8,0:0:0:0:
179,254,28169,1,0,0:0:0:0:
214,264,28272,1,8,0:0:0:0:
248,256,28375,1,2,0:0:0:0:
320,112,28583,6,0,P|338:129|355:151,1,49.5000015106202
473,264,28790,2,0,B|472:306|433:322|394:301|398:259|398:259|378:245,1,148.50000453186,2|0,0:0|0:0,0:0:0:0:
317,214,29204,1,0,1:0:0:0:
207,315,29411,1,0,0:0:0:0:
207,315,29514,1,0,0:0:0:0:
207,315,29618,2,0,P|186:331|162:349,2,49.5000015106202,0|0|0,1:0|0:0|0:0,0:0:0:0:
382,248,30032,1,0,1:0:0:0:
221,193,30238,1,0,0:0:0:0:
382,248,30445,1,0,1:0:0:0:
231,70,30652,1,0,1:0:0:0:
231,70,30859,5,0,0:0:0:0:
221,193,31066,1,0,0:0:0:0:
335,140,31273,1,0,0:0:0:0:
160,127,31480,1,0,1:0:0:0:
385,207,31686,1,0,1:0:0:0:
385,207,32100,6,0,P|322:234|254:233,1,135,0|0,1:0|0:0,0:0:0:0:
212,180,32514,6,0,P|176:184|132:196,1,72,4|0,0:0|0:0,0:0:0:0:
21,276,32927,2,0,P|57:272|92:264,1,72,0|2,0:0|0:0,0:0:0:0:
180,272,33341,2,0,P|216:276|264:288,1,72,8|0,0:0|0:0,0:0:0:0:
280,288,33651,1,8,0:0:0:0:
280,288,33755,6,0,P|297:259|312:216,1,72,2|0,0:0|0:0,0:0:0:0:
348,116,34169,1,0,0:0:0:0:
264,124,34376,1,2,0:0:0:0:
192,172,34582,2,0,P|171:141|152:101,1,72,8|0,0:0|0:0,0:0:0:0:
141,84,34893,1,8,0:0:0:0:
141,84,34996,6,0,P|104:92|72:104,1,72,2|0,0:0|0:0,0:0:0:0:
16,204,35410,1,0,0:0:0:0:
96,236,35617,1,2,0:0:0:0:
180,224,35824,2,0,P|216:212|256:188,1,72,8|0,0:0|0:0,0:0:0:0:
272,184,36134,1,8,0:0:0:0:
272,184,36238,6,0,P|304:193|340:210,1,72,2|0,0:0|0:0,0:0:0:0:
432,276,36651,1,0,0:0:0:0:
511,244,36858,1,0,0:0:0:0:
380,136,37065,1,8,0:0:0:0:
380,136,37479,6,0,L|400:88,2,45,8|8|8,0:0|0:0|0:0,0:0:0:0:
100,292,38307,6,0,P|83:246|84:202,1,90,4|0,0:0|0:0,0:0:0:0:
112,84,38720,1,8,0:0:0:0:
200,224,38927,1,0,0:0:0:0:
200,224,39031,1,8,0:0:0:0:
200,224,39134,1,2,0:0:0:0:
44,136,39341,1,2,0:0:0:0:
184,20,39548,2,0,P|200:56|208:108,1,90,8|0,0:0|0:0,0:0:0:0:
251,151,39858,1,8,0:0:0:0:
251,151,39962,6,0,P|223:180|200:224,1,90,2|0,0:0|0:0,0:0:0:0:
136,352,40375,1,8,0:0:0:0:
292,240,40582,1,0,0:0:0:0:
292,240,40686,1,8,0:0:0:0:
292,240,40789,1,2,0:0:0:0:
224,352,40996,1,2,0:0:0:0:
144,192,41203,1,8,0:0:0:0:
312,316,41410,2,0,L|360:296,1,45
428,184,41617,6,0,P|456:188|492:196,2,60,8|8|8,0:0|0:0|0:0,0:0:0:0:
368,108,42030,2,0,P|394:97|429:86,2,60,8|8|8,0:0|0:0|0:0,0:0:0:0:
280,144,42444,1,2,0:0:0:0:
84,272,42858,6,0,P|56:268|20:260,2,60,8|8|8,0:0|0:0|0:0,0:0:0:0:
144,348,43271,2,0,P|117:358|82:369,2,60,8|8|8,0:0|0:0|0:0,0:0:0:0:
232,312,43685,1,2,0:0:0:0:
412,136,44099,5,4,0:0:0:0:
456,272,44305,1,0,0:0:0:0:
454,308,44409,1,0,0:0:0:0:
441,342,44512,1,8,0:0:0:0:
318,264,44719,1,0,0:0:0:0:
324,228,44822,1,2,0:0:0:0:
341,195,44926,2,0,P|296:174|261:152,1,90,2|0,0:0|0:0,0:0:0:0:
168,37,45340,2,0,P|212:57|247:79,1,90,8|0,0:0|0:0,0:0:0:0:
308,228,45754,5,0,0:0:0:0:
376,100,45961,1,0,0:0:0:0:
411,108,46064,1,0,0:0:0:0:
439,126,46167,1,8,0:0:0:0:
476,268,46374,1,0,0:0:0:0:
441,260,46477,1,0,0:0:0:0:
412,241,46581,2,0,P|368:232|324:228,1,90,2|0,0:0|0:0,0:0:0:0:
199,118,46995,2,0,P|243:127|288:132,1,90,8|0,0:0|0:0,0:0:0:0:
440,76,47409,5,2,0:0:0:0:
340,204,47616,2,0,P|344:232|352:264,1,45
316,324,47823,2,0,P|276:300|228:280,1,90,8|0,0:0|0:0,0:0:0:0:
48,192,48236,2,0,P|58:218|68:249,1,45,2|0,0:0|0:0,0:0:0:0:
130,282,48443,2,0,P|151:240|182:198,1,90,0|8,0:0|0:0,0:0:0:0:
236,72,48857,6,0,P|258:58|288:48,1,45
392,64,49064,2,0,P|369:77|340:88,1,45,2|0,0:0|0:0,0:0:0:0:
172,120,49271,2,0,P|208:144|256:152,1,90,0|8,0:0|0:0,0:0:0:0:
408,308,49685,2,0,P|384:318|353:326,1,45
251,301,49892,2,0,P|274:289|305:280,1,45,2|0,0:0|0:0,0:0:0:0:
475,264,50099,2,0,P|441:236|393:224,1,90,0|8,0:0|0:0,0:0:0:0:
76,140,50719,5,2,0:0:0:0:
76,140,50823,1,0,0:0:0:0:
76,140,50926,1,0,0:0:0:0:
156,44,51133,2,0,P|164:84|180:136,1,90,8|0,0:0|0:0,0:0:0:0:
240,240,51547,1,2,0:0:0:0:
308,132,51754,1,8,0:0:0:0:
432,152,51961,1,8,0:0:0:0:
476,268,52167,1,8,0:0:0:0:
397,72,52374,5,8,0:0:0:0:
369,294,52581,1,0,0:0:0:0:
288,69,52788,1,8,0:0:0:0:
244,271,52995,1,0,0:0:0:0:
167,20,53202,1,8,0:0:0:0:
133,278,53409,1,0,0:0:0:0:
78,49,53616,2,0,L|42:142,1,90
60,329,54030,6,0,B|89:296|134:278,1,90,4|0,0:0|0:0,0:0:0:0:
280,204,54443,1,8,0:0:0:0:
427,312,54650,1,0,0:0:0:0:
427,312,54754,1,0,0:0:0:0:
427,312,54857,2,0,L|340:332,1,90,2|0,0:0|0:0,0:0:0:0:
200,232,55271,2,0,P|201:184|217:140,1,90,8|0,0:0|0:0,0:0:0:0:
225,124,55581,1,8,0:0:0:0:
237,104,55685,5,2,0:0:0:0:
332,212,55892,1,0,0:0:0:0:
376,76,56099,1,8,0:0:0:0:
224,216,56305,1,0,0:0:0:0:
224,216,56409,1,0,0:0:0:0:
224,216,56512,1,2,0:0:0:0:
348,320,56719,1,0,0:0:0:0:
348,320,56822,1,0,0:0:0:0:
348,320,56926,1,8,0:0:0:0:
392,144,57133,2,0,L|436:171,1,45,0|8,0:0|0:0,0:0:0:0:
493,105,57340,6,0,P|452:80|412:56,1,90,2|0,0:0|0:0,0:0:0:0:
252,44,57754,1,8,0:0:0:0:
236,64,57857,2,0,P|240:108|264:152,1,90
276,168,58167,1,2,0:0:0:0:
400,240,58374,1,0,0:0:0:0:
232,304,58581,1,8,0:0:0:0:
364,160,58788,1,0,0:0:0:0:
364,160,58892,1,0,0:0:0:0:
364,160,58995,6,0,P|356:112|344:64,1,90,2|0,0:0|0:0,0:0:0:0:
192,16,59409,1,8,0:0:0:0:
192,16,59512,1,0,0:0:0:0:
140,168,59719,1,0,0:0:0:0:
140,168,59823,2,0,P|96:160|52:144,1,90,2|0,0:0|0:0,0:0:0:0:
192,16,60236,2,0,P|221:49|246:89,1,90,8|0,0:0|0:0,0:0:0:0:
284,152,60547,1,8,0:0:0:0:
284,152,60650,6,0,P|328:136|376:128,1,90,6|0,0:0|0:0,0:0:0:0:
232,280,61064,2,0,P|187:271|145:256,1,90,8|0,0:0|0:0,0:0:0:0:
124,248,61374,1,0,0:0:0:0:
104,240,61478,1,2,0:0:0:0:
224,156,61685,1,0,0:0:0:0:
12,100,61892,1,8,0:0:0:0:
168,52,62099,2,0,L|220:40,1,45,0|8,0:0|0:0,0:0:0:0:
260,120,62305,6,0,P|216:128|168:140,1,90,2|0,0:0|0:0,0:0:0:0:
48,212,62719,1,8,0:0:0:0:
60,232,62822,2,0,P|93:260|141:275,1,90
160,276,63133,2,0,L|208:260,2,45,2|8|0,0:0|0:0|0:0,0:0:0:0:
116,156,63547,1,2,0:0:0:0:
164,40,63754,2,0,L|212:56,1,45
320,40,63961,5,12,0:0:0:0:
340,48,64064,1,0,0:0:0:0:
360,56,64167,1,0,0:0:0:0:
384,60,64271,1,0,0:0:0:0:
408,60,64374,1,2,0:0:0:0:
496,216,64581,1,0,0:0:0:0:
476,224,64684,1,0,0:0:0:0:
456,232,64787,1,2,0:0:0:0:
432,236,64891,1,0,0:0:0:0:
408,236,64994,1,0,0:0:0:0:
316,120,65202,5,8,0:0:0:0:
284,260,65409,2,0,L|268:316,1,45,0|8,0:0|0:0,0:0:0:0:
168,344,65616,5,2,0:0:0:0:
167,322,65719,1,0,0:0:0:0:
166,300,65822,1,0,0:0:0:0:
171,277,65926,1,0,0:0:0:0:
179,254,66029,1,8,0:0:0:0:
80,150,66236,1,0,0:0:0:0:
66,166,66339,1,0,0:0:0:0:
52,182,66442,1,2,0:0:0:0:
40,203,66546,1,0,0:0:0:0:
32,226,66649,1,0,0:0:0:0:
72,364,66857,5,8,0:0:0:0:
148,180,67064,2,0,L|208:172,1,45,0|8,0:0|0:0,0:0:0:0:
264,120,67271,6,0,P|332:124|396:144,1,135,2|0,0:0|0:0,0:0:0:0:
416,152,67685,2,0,P|433:217|433:284,1,135,8|0,0:0|0:0,0:0:0:0:
428,308,68099,2,0,P|370:344|307:366,1,135,2|0,0:0|0:0,0:0:0:0:
284,368,68512,2,0,P|244:340|212:304,1,90,8|0,0:0|0:0,0:0:0:0:
204,292,68823,1,8,0:0:0:0:
192,272,68926,2,0,P|206:225|230:183,1,90,2|0,0:0|0:0,0:0:0:0:
280,56,69340,5,8,0:0:0:0:
312,232,69547,1,0,0:0:0:0:
152,232,69754,1,10,0:0:0:0:
141,197,69857,1,8,0:0:0:0:
147,164,69961,1,0,0:0:0:0:
167,133,70064,1,8,0:0:0:0:
196,111,70167,2,0,P|230:79|250:40,1,90,8|8,0:0|0:0,0:0:0:0:
328,12,70478,1,8,0:0:0:0:
346,26,70581,6,0,L|356:72,1,45,0|0,1:0|0:0,0:0:0:0:
178,196,70995,2,0,L|145:162,2,45,0|0|0,1:0|0:0|0:0,0:0:0:0:
296,112,71409,2,0,L|306:158,1,45,0|0,1:0|0:0,0:0:0:0:
120,287,71823,2,0,L|164:300,1,45,0|0,1:0|0:0,0:0:0:0:
244,256,72030,2,0,L|292:248,1,45
372,212,72236,5,0,1:0:0:0:
372,212,72340,1,0,0:0:0:0:
240,152,72547,1,0,1:0:0:0:
240,152,72651,1,0,0:0:0:0:
412,97,72857,2,0,L|428:140,2,45,0|0|2,1:0|0:0|0:0,0:0:0:0:
264,74,73167,2,0,L|279:31,2,45,0|0|2,1:0|0:0|0:0,0:0:0:0:
296,212,73478,2,0,L|252:232,1,45,0|0,1:0|0:0,0:0:0:0:
179,111,73685,2,0,L|139:93,1,45,0|0,0:0|1:0,0:0:0:0:
45,218,73892,5,0,1:0:0:0:
88,245,73995,1,0,1:0:0:0:
137,252,74099,1,0,1:0:0:0:
184,243,74202,1,0,1:0:0:0:
225,215,74305,1,0,1:0:0:0:
270,178,74409,1,0,1:0:0:0:
337,171,74512,1,0,1:0:0:0:
402,212,74616,1,0,1:0:0:0:
402,212,75133,6,0,P|328:212|244:184,1,161.999995056153,8|0,0:0|0:0,0:0:0:0:
204,100,75547,5,4,0:0:0:0:
168,108,75650,1,0,0:0:0:0:
140,132,75754,1,0,0:0:0:0:
124,164,75857,1,0,0:0:0:0:
132,200,75960,1,8,0:0:0:0:
150,232,76063,1,0,0:0:0:0:
149,269,76167,1,0,0:0:0:0:
135,302,76270,1,0,0:0:0:0:
108,324,76374,6,0,P|60:320|24:300,1,90,2|0,0:0|0:0,0:0:0:0:
8,228,76685,1,0,0:0:0:0:
8,228,76788,2,0,P|32:190|69:165,1,90,8|0,0:0|0:0,0:0:0:0:
172,44,77202,5,2,0:0:0:0:
188,64,77305,1,0,0:0:0:0:
196,88,77409,2,0,P|200:112|200:136,1,45
228,220,77616,2,0,P|248:209|266:196,1,45,8|0,0:0|0:0,0:0:0:0:
320,120,77823,1,0,0:0:0:0:
340,140,77926,1,0,0:0:0:0:
352,164,78029,2,0,P|352:216|340:256,1,90,2|0,0:0|0:0,0:0:0:0:
328,276,78340,1,0,0:0:0:0:
308,296,78443,1,8,0:0:0:0:
160,140,78650,6,0,P|136:130|114:115,1,45
77,34,78857,2,0,P|56:50|39:70,1,45,2|0,0:0|0:0,0:0:0:0:
31,156,79064,1,0,0:0:0:0:
192,44,79271,6,0,P|236:44|289:57,1,90,2|0,0:0|0:0,0:0:0:0:
413,168,79684,2,0,P|433:150|455:131,1,45,8|0,0:0|0:0,0:0:0:0:
415,8,79891,2,0,L|366:23,1,45
317,145,80098,2,0,P|286:179|251:205,1,90,2|0,0:0|0:0,0:0:0:0:
121,303,80408,2,0,P|123:274|125:246,1,45,0|8,0:0|0:0,0:0:0:0:
146,124,80615,2,0,L|159:166,1,45
312,312,80926,6,0,P|316:287|325:260,1,45,2|8,0:0|0:0,0:0:0:0:
286,180,81133,2,0,P|267:197|242:211,1,45,8|8,0:0|0:0,0:0:0:0:
28,248,81339,2,0,P|39:228|47:208,1,45,2|8,0:0|0:0,0:0:0:0:
117,271,81546,2,0,P|120:292|126:315,1,45,8|8,0:0|0:0,0:0:0:0:
196,132,81753,2,0,P|216:119|239:112,1,45,2|0,0:0|0:0,0:0:0:0:
308,284,81960,2,0,P|325:296|347:306,1,45
385,161,82167,2,0,P|324:190|257:196,1,135,8|0,0:0|0:0,0:0:0:0:
204,148,82581,6,0,P|228:131|261:123,2,60,2|8|8,0:0|0:0|0:0,0:0:0:0:
85,150,82994,2,0,P|86:120|93:90,2,60,2|8|8,0:0|0:0|0:0,0:0:0:0:
36,258,83408,1,2,0:0:0:0:
308,312,83822,6,0,P|283:328|250:336,2,60,2|8|8,0:0|0:0|0:0,0:0:0:0:
427,310,84235,2,0,P|425:339|418:369,2,60,2|8|8,0:0|0:0|0:0,0:0:0:0:
476,202,84649,1,2,0:0:0:0:
256,32,85063,5,6,0:0:0:0:
256,192,85166,12,0,89200,0:0:0:0:
