osu file format v14

[General]
AudioFilename: audio.mp3
AudioLeadIn: 0
PreviewTime: 54030
Countdown: 0
SampleSet: Soft
StackLeniency: 0.6
Mode: 0
LetterboxInBreaks: 0
WidescreenStoryboard: 0

[Editor]
DistanceSpacing: 0.8
BeatDivisor: 4
GridSize: 4
TimelineZoom: 1.8

[Metadata]
Title:a e i u e o ao!!
TitleUnicode:あ・え・い・う・え・お・あお!!
Artist:Gekidan Hitotose
ArtistUnicode:劇団ひととせ
Creator:alacat
Version:insane!!
Source:ひなこのーと
Tags:Opening Hinako Note Rare 桜木ひな子 Sakuragi M・A・O 市道真央 Ichimichi Mao 夏川くいな Natsukawa Kuina 富田美憂 Tomita Miyu 柊 真雪 Hiiragi Mayuki 小倉唯 Ogura Yui 萩野千秋 Hagino Chiaki 東城日沙子 Hisako Tojo 中島ゆあ Nakajima Yua 高野麻里佳 Kouno Marika
BeatmapID:1251243
BeatmapSetID:591255

[Difficulty]
HPDrainRate:6
CircleSize:4
OverallDifficulty:7
ApproachRate:8
SliderMultiplier:1.8
SliderTickRate:1

[Events]
//Background and Video events
Video,-200,"video.avi"
0,0,"BG.jpg",0,0
//Break Periods
//Storyboard Layer 0 (Background)
//Storyboard Layer 1 (Fail)
//Storyboard Layer 2 (Pass)
//Storyboard Layer 3 (Foreground)
//Storyboard Sound Samples

[TimingPoints]
654,413.793103448276,4,2,1,40,1,0
2309,-100,4,2,1,60,0,0
3964,-100,4,2,1,40,0,0
8929,-100,4,2,1,60,0,0
11412,413.793103448276,4,2,1,60,1,0
12136,-125,4,2,1,60,0,0
12653,-100,4,2,2,60,0,0
13067,-100,4,2,1,60,0,0
16791,413.793103448276,4,2,1,60,1,0
20101,-100,4,2,1,40,0,0
23411,-100,4,2,1,60,0,0
25480,413.793103448276,4,2,1,40,1,0
28790,-100,4,2,1,60,0,0
31480,-100,4,2,1,50,0,0
32100,-100,4,2,1,40,0,0
32514,413.793103448276,3,2,1,40,1,0
38307,413.793103448276,4,2,1,60,1,0
41617,413.793103448276,3,2,1,60,1,0
44099,413.793103448276,4,2,1,60,1,0
53719,-100,4,2,1,20,0,0
54030,-100,4,2,1,70,0,1
70581,-100,4,2,1,60,0,0
74616,-125,4,2,1,60,0,0
75133,-100,4,2,2,60,0,0
75547,-100,4,2,1,60,0,0
79271,413.793103448276,4,2,1,60,1,0
82581,413.793103448276,3,2,1,40,1,0
85063,413.793103448276,4,2,1,60,1,0
88373,-100,4,2,1,40,0,0
88787,-100,4,2,1,20,0,0
89200,-100,4,2,1,5,0,0

[Colours]
Combo1 : 147,255,174
Combo2 : 255,134,255
Combo3 : 255,255,96
Combo4 : 142,255,255
Combo5 : 255,184,113
Combo6 : 203,151,255

[HitObjects]
252,184,654,6,0,P|208:188|156:188,1,90,4|0,0:0|0:0,0:0:0:0:
136,164,964,1,0,0:0:0:0:
136,164,1067,2,0,P|92:160|40:160,1,90,2|0,0:0|0:0,0:0:0:0:
176,24,1481,2,0,P|248:68|344:68,1,180,4|2,0:0|0:0,0:0:0:0:
364,60,2309,5,8,0:0:0:0:
272,172,2516,1,0,0:0:0:0:
440,256,2722,1,8,0:0:0:0:
256,332,2929,1,0,0:0:0:0:
448,224,3136,5,8,0:0:0:0:
256,144,3343,1,0,0:0:0:0:
500,32,3550,2,0,L|512:168,1,135,8|0,0:0|0:0,0:0:0:0:
448,224,3964,5,4,0:0:0:0:
372,216,5619,1,4,0:0:0:0:
288,236,6447,1,4,0:0:0:0:
152,188,6860,1,8,0:0:0:0:
356,56,7274,6,0,P|352:100|328:140,1,90,4|0,0:0|0:0,0:0:0:0:
128,108,7688,2,0,P|168:89|214:90,1,90,8|0,0:0|0:0,0:0:0:0:
240,112,7998,1,0,0:0:0:0:
240,112,8102,2,0,L|260:204,1,90,0|0,3:0|0:0,0:0:0:0:
132,275,8516,2,0,L|152:188,1,90,8|0,0:0|0:0,0:0:0:0:
329,138,8929,5,12,0:0:0:0:
284,284,9136,1,0,0:0:0:0:
152,188,9343,1,8,0:0:0:0:
152,188,9447,1,0,0:0:0:0:
376,248,9654,1,0,0:0:0:0:
376,248,9757,2,0,P|380:296|364:340,1,90,8|0,0:0|0:0,0:0:0:0:
284,284,10067,2,0,P|236:280|192:296,1,90,8|0,0:0|0:0,0:0:0:0:
120,352,10378,2,0,L|72:344,1,45,8|0,0:0|0:0,0:0:0:0:
40,224,10585,5,4,0:0:0:0:
40,224,10688,2,0,P|88:220|132:236,1,90,8|0,0:0|0:0,0:0:0:0:
208,184,10998,1,8,0:0:0:0:
208,184,11102,2,0,P|250:197|295:193,1,90,8|8,0:0|0:0,0:0:0:0:
372,136,11412,5,8,0:0:0:0:
404,124,11515,1,0,0:0:0:0:
440,128,11618,1,8,0:0:0:0:
468,148,11722,1,0,0:0:0:0:
488,176,11825,2,0,L|480:221,2,45,8|8|0,0:0|0:0|0:0,0:0:0:0:
508,64,12136,6,0,P|448:96|376:84,1,144,8|0,0:0|0:0,0:0:0:0:
316,28,12653,2,0,L|180:40,1,135,8|0,0:0|0:0,0:0:0:0:
120,92,13067,6,0,L|112:140,1,45,4|0,0:0|0:0,0:0:0:0:
48,184,13274,2,0,L|56:232,1,45
92,300,13480,1,8,0:0:0:0:
120,324,13584,1,0,0:0:0:0:
156,332,13687,1,0,0:0:0:0:
192,328,13791,1,0,0:0:0:0:
224,312,13894,2,0,P|268:308|312:320,1,90,0|0,3:0|0:0,0:0:0:0:
340,344,14205,1,0,0:0:0:0:
340,344,14308,2,0,L|444:320,1,90,8|0,0:0|0:0,0:0:0:0:
472,136,14722,5,0,3:0:0:0:
444,160,14825,1,0,0:0:0:0:
432,192,14929,1,0,0:0:0:0:
440,228,15032,1,0,0:0:0:0:
464,252,15136,2,0,L|508:260,2,45,8|0|0,0:0|0:0|0:0,0:0:0:0:
312,104,15549,6,0,L|224:120,1,90,0|0,3:0|0:0,0:0:0:0:
188,128,15860,1,0,0:0:0:0:
188,128,15963,1,8,0:0:0:0:
392,40,16170,2,0,L|444:48,1,45
472,136,16377,1,8,0:0:0:0:
436,142,16480,1,0,0:0:0:0:
400,148,16584,1,0,0:0:0:0:
264,28,16791,5,0,3:0:0:0:
296,200,16997,1,0,0:0:0:0:
92,188,17204,2,0,L|100:143,1,45,8|0,0:0|0:0,0:0:0:0:
188,128,17411,2,0,L|196:83,1,45
264,28,17618,5,0,3:0:0:0:
172,244,17825,1,0,0:0:0:0:
172,244,17928,1,0,0:0:0:0:
172,244,18032,1,8,0:0:0:0:
296,200,18239,1,0,0:0:0:0:
256,324,18446,6,0,P|232:320|208:320,3,45,0|8|8|8,3:0|0:0|0:0|0:0,0:0:0:0:
127,248,18859,2,0,P|149:244|172:244,3,45,0|8|8|8,3:0|0:0|0:0|0:0,0:0:0:0:
220,172,19273,5,0,3:0:0:0:
232,148,19377,1,0,0:0:0:0:
236,120,19480,1,0,0:0:0:0:
232,92,19584,1,0,0:0:0:0:
220,68,19687,1,8,0:0:0:0:
396,212,20101,5,4,0:0:0:0:
312,160,20308,1,0,0:0:0:0:
312,160,20411,1,0,0:0:0:0:
312,160,20515,2,0,P|308:205|300:248,1,90,8|0,0:0|0:0,0:0:0:0:
440,372,20928,2,0,P|444:327|452:284,1,90,0|0,3:0|0:0,0:0:0:0:
477,255,21239,1,0,0:0:0:0:
477,255,21342,1,8,0:0:0:0:
352,348,21549,5,8,0:0:0:0:
352,348,21653,1,8,0:0:0:0:
352,348,21756,2,0,P|304:340|260:336,1,90,0|0,3:0|0:0,0:0:0:0:
80,232,22170,2,0,L|124:216,1,45,8|0,0:0|0:0,0:0:0:0:
192,158,22377,2,0,L|236:174,1,45,0|0,0:0|3:0,0:0:0:0:
320,140,22584,5,0,3:0:0:0:
320,140,22687,1,8,0:0:0:0:
492,232,22894,1,0,0:0:0:0:
492,232,22997,1,8,0:0:0:0:
454,124,23204,5,0,0:0:0:0:
454,124,23308,1,0,0:0:0:0:
454,124,23411,2,0,L|318:140,1,135,4|0,0:0|0:0,0:0:0:0:
290,120,23825,1,8,0:0:0:0:
180,292,24032,1,0,0:0:0:0:
180,292,24135,1,0,0:0:0:0:
180,292,24239,2,0,L|192:248,1,45,0|0,3:0|0:0,0:0:0:0:
268,200,24446,2,0,L|280:244,1,45
172,324,24653,2,0,P|128:324|80:328,1,90,8|0,0:0|0:0,0:0:0:0:
16,204,25066,5,8,0:0:0:0:
240,112,25273,1,8,0:0:0:0:
104,244,25480,5,4,0:0:0:0:
36,108,25686,1,0,0:0:0:0:
36,108,25790,1,0,0:0:0:0:
36,108,25893,2,0,P|80:112|128:120,1,90,8|0,0:0|0:0,0:0:0:0:
280,180,26307,2,0,P|216:176|152:208,1,135,0|0,3:0|0:0,0:0:0:0:
144,240,26721,1,8,0:0:0:0:
192,64,26928,5,8,0:0:0:0:
192,64,27031,1,8,0:0:0:0:
192,64,27135,2,0,P|236:56|281:52,1,90,0|0,3:0|0:0,0:0:0:0:
408,208,27548,2,0,L|364:200,1,45,8|0,0:0|0:0,0:0:0:0:
344,116,27755,2,0,L|388:124,1,45,0|8,0:0|0:0,0:0:0:0:
488,224,27962,5,0,3:0:0:0:
488,224,28066,1,8,0:0:0:0:
316,268,28273,1,0,0:0:0:0:
316,268,28376,1,8,0:0:0:0:
476,88,28583,2,0,L|480:132,1,45
408,208,28790,6,0,P|340:192|276:180,1,135,4|0,0:0|0:0,0:0:0:0:
240,176,29204,1,8,0:0:0:0:
99,228,29411,1,0,0:0:0:0:
99,228,29514,1,0,0:0:0:0:
99,228,29617,1,0,3:0:0:0:
275,179,29824,1,0,0:0:0:0:
104,113,30031,1,8,0:0:0:0:
203,268,30238,1,0,0:0:0:0:
214,83,30445,5,8,0:0:0:0:
68,240,30652,1,8,0:0:0:0:
256,356,31480,5,8,0:0:0:0:
180,176,31686,1,8,0:0:0:0:
180,176,32100,2,0,P|244:200|312:200,1,135,8|0,0:0|0:0,0:0:0:0:
340,180,32514,6,0,P|328:224|328:272,1,90,4|0,0:0|0:0,0:0:0:0:
480,368,32927,2,0,P|492:324|492:276,1,90,2|0,0:0|3:0,0:0:0:0:
288,348,33341,2,0,P|352:356|404:312,1,135,8|8,0:0|0:0,0:0:0:0:
412,280,33755,5,0,0:0:0:0:
252,260,33962,1,0,0:0:0:0:
432,200,34169,1,2,0:0:0:0:
252,260,34376,1,0,3:0:0:0:
412,280,34582,1,8,0:0:0:0:
176,296,34893,1,8,0:0:0:0:
176,296,34996,6,0,P|132:292|84:288,1,90,4|0,0:0|0:0,0:0:0:0:
44,128,35410,2,0,P|88:131|133:135,1,90,2|0,0:0|3:0,0:0:0:0:
0,336,35824,2,0,P|-12:276|32:220,1,135,8|8,0:0|0:0,0:0:0:0:
64,208,36238,5,0,0:0:0:0:
176,296,36445,1,0,0:0:0:0:
44,128,36651,1,2,0:0:0:0:
176,296,36858,1,0,3:0:0:0:
313,167,37065,2,0,B|213:179|213:179|237:203,1,135,8|0,0:0|0:0,0:0:0:0:
297,267,37479,5,8,0:0:0:0:
292,292,37582,1,8,0:0:0:0:
288,319,37686,1,8,0:0:0:0:
292,292,38307,6,0,L|276:204,1,90,4|0,0:0|0:0,0:0:0:0:
261,104,38720,1,8,0:0:0:0:
181,164,38927,1,0,0:0:0:0:
181,164,39031,1,8,0:0:0:0:
181,164,39134,1,0,3:0:0:0:
373,232,39341,1,0,3:0:0:0:
337,48,39548,1,8,0:0:0:0:
248,248,39755,5,0,0:0:0:0:
248,248,39858,1,8,0:0:0:0:
248,248,39962,2,0,L|160:264,1,90,0|0,3:0|0:0,0:0:0:0:
88,188,40375,1,8,0:0:0:0:
181,164,40582,1,0,0:0:0:0:
181,164,40686,1,8,0:0:0:0:
181,164,40789,1,0,3:0:0:0:
228,344,40996,1,0,3:0:0:0:
0,208,41203,1,8,0:0:0:0:
181,164,41410,1,0,0:0:0:0:
28,352,41617,6,0,L|16:288,2,60,4|8|8,0:0|0:0|0:0,0:0:0:0:
124,300,42030,2,0,L|135:241,2,60,0|8|8,3:0|0:0|0:0,0:0:0:0:
208,368,42444,1,0,3:0:0:0:
436,264,42858,6,0,L|448:328,2,60,4|8|8,0:0|0:0|0:0,0:0:0:0:
340,316,43272,2,0,L|329:375,2,60,0|8|8,3:0|0:0|0:0,0:0:0:0:
256,248,43685,2,0,L|244:156,1,90,0|0,3:0|0:0,0:0:0:0:
372,64,44099,6,0,L|360:153,1,90,4|0,0:0|0:0,0:0:0:0:
356,188,44409,1,0,0:0:0:0:
356,188,44512,1,8,0:0:0:0:
240,124,44719,1,0,0:0:0:0:
240,124,44823,1,0,0:0:0:0:
240,124,44926,2,0,P|195:116|150:116,1,90,0|0,3:0|0:0,0:0:0:0:
56,148,45340,1,8,0:0:0:0:
136,204,45547,1,0,0:0:0:0:
76,56,45754,5,0,3:0:0:0:
56,148,45961,2,0,L|48:192,2,45,0|0|8,0:0|0:0|0:0,0:0:0:0:
232,80,46374,2,0,L|240:124,1,45
296,192,46581,2,0,P|340:184|385:184,1,90,0|0,3:0|0:0,0:0:0:0:
416,204,46892,1,0,0:0:0:0:
416,204,46995,1,8,0:0:0:0:
392,96,47202,1,0,0:0:0:0:
256,272,47409,5,4,0:0:0:0:
172,216,47616,2,0,L|160:172,2,45,0|0|8,0:0|0:0|0:0,0:0:0:0:
344,320,48030,1,0,0:0:0:0:
344,320,48133,1,0,0:0:0:0:
344,320,48236,2,0,P|356:276|348:232,1,90,0|0,3:0|0:0,0:0:0:0:
324,204,48547,1,0,0:0:0:0:
324,204,48650,1,8,0:0:0:0:
168,312,48857,5,0,0:0:0:0:
316,352,49064,1,0,3:0:0:0:
172,216,49271,2,0,L|160:172,2,45,0|0|8,0:0|0:0|0:0,0:0:0:0:
256,272,49685,1,0,0:0:0:0:
256,272,49788,1,0,0:0:0:0:
256,272,49892,1,0,3:0:0:0:
88,256,50099,1,0,0:0:0:0:
260,184,50305,1,8,0:0:0:0:
168,312,50512,1,0,0:0:0:0:
100,160,50719,5,4,0:0:0:0:
104,132,50823,1,0,0:0:0:0:
108,104,50926,1,0,0:0:0:0:
215,59,51133,2,0,L|203:148,1,90,8|0,0:0|0:0,0:0:0:0:
88,256,51547,1,0,3:0:0:0:
8,116,51754,1,8,0:0:0:0:
8,116,51857,1,8,0:0:0:0:
8,116,51961,1,0,3:0:0:0:
184,232,52167,1,8,0:0:0:0:
108,104,52374,5,8,0:0:0:0:
88,256,52581,1,0,0:0:0:0:
215,59,52788,1,8,0:0:0:0:
184,232,52995,1,0,0:0:0:0:
116,84,53202,5,8,0:0:0:0:
280,204,53409,1,0,0:0:0:0:
352,20,53616,2,0,L|308:32,1,45
0,172,54030,6,0,P|44:172|92:184,1,90,4|0,0:0|0:0,0:0:0:0:
168,244,54443,2,0,P|212:244|260:232,1,90,8|0,0:0|0:0,0:0:0:0:
280,204,54754,1,0,0:0:0:0:
280,204,54857,2,0,L|268:112,1,90,0|0,3:0|0:0,0:0:0:0:
204,36,55271,1,8,0:0:0:0:
364,148,55478,5,0,0:0:0:0:
364,148,55581,1,0,0:0:0:0:
364,148,55685,2,0,P|412:156|460:156,1,90,0|0,3:0|0:0,0:0:0:0:
508,240,56099,1,8,0:0:0:0:
508,240,56202,2,0,P|463:240|418:248,1,90,2|0,0:0|0:0,0:0:0:0:
396,276,56512,1,0,3:0:0:0:
276,236,56719,1,0,0:0:0:0:
364,148,56926,1,8,0:0:0:0:
476,328,57133,5,8,0:0:0:0:
476,328,57236,1,8,0:0:0:0:
476,328,57340,1,4,0:0:0:0:
388,372,57547,1,0,0:0:0:0:
304,316,57754,1,8,0:0:0:0:
304,316,57857,2,0,P|254:312|208:312,1,90,2|0,0:0|0:0,0:0:0:0:
184,336,58167,2,0,P|134:339|88:340,1,90,0|0,3:0|0:0,0:0:0:0:
16,280,58581,1,8,0:0:0:0:
116,154,58788,5,0,0:0:0:0:
116,154,58892,1,0,0:0:0:0:
116,154,58995,2,0,P|108:202|108:250,1,90,0|0,3:0|0:0,0:0:0:0:
20,188,59409,1,8,0:0:0:0:
20,188,59512,2,0,P|28:140|28:92,1,90,2|2,0:0|0:0,0:0:0:0:
16,64,59823,1,0,3:0:0:0:
132,124,60030,2,0,L|176:120,2,45,0|0|8,0:0|0:0|0:0,0:0:0:0:
264,72,60443,5,8,0:0:0:0:
264,72,60547,1,8,0:0:0:0:
264,72,60650,2,0,P|276:116|268:160,1,90,4|0,0:0|0:0,0:0:0:0:
184,212,61064,1,8,0:0:0:0:
272,256,61271,2,0,L|316:252,1,45
352,248,61478,2,0,P|336:292|336:340,2,90,0|0|8,3:0|0:0|0:0,0:0:0:0:
496,164,62099,5,0,0:0:0:0:
496,164,62202,1,0,0:0:0:0:
496,164,62305,2,0,L|396:172,1,90,0|0,3:0|0:0,0:0:0:0:
328,108,62719,2,0,L|238:115,1,90,8|0,0:0|0:0,0:0:0:0:
204,120,63030,1,0,0:0:0:0:
168,124,63133,2,0,L|148:72,2,45,0|8|0,3:0|0:0|0:0,0:0:0:0:
200,220,63547,2,0,P|136:192|68:192,1,135,8|0,0:0|0:0,0:0:0:0:
40,212,63961,6,0,L|28:256,1,45,4|0,0:0|0:0,0:0:0:0:
100,308,64167,2,0,L|112:352,2,45,0|0|8,0:0|0:0|0:0,0:0:0:0:
48,100,64581,2,0,L|92:88,1,45
160,28,64788,2,0,L|204:40,2,45,0|0|0,3:0|0:0|0:0,0:0:0:0:
48,100,65202,5,8,0:0:0:0:
296,68,65409,1,2,0:0:0:0:
200,220,65616,6,0,P|176:224|148:224,3,45,0|0|0|0,3:0|0:0|0:0|0:0,0:0:0:0:
120,216,66030,1,8,0:0:0:0:
256,292,66236,2,0,P|280:288|308:288,3,45,0|0|0|0,0:0|0:0|3:0|0:0,0:0:0:0:
336,296,66650,1,0,0:0:0:0:
216,136,66857,5,8,0:0:0:0:
256,292,67064,1,0,0:0:0:0:
433,182,67271,6,0,P|388:190|351:220,1,90,4|0,0:0|0:0,0:0:0:0:
421,366,67685,2,0,P|435:323|429:279,1,90,8|0,0:0|0:0,0:0:0:0:
265,263,68099,2,0,P|294:296|335:313,1,90,0|0,3:0|0:0,0:0:0:0:
433,182,68512,1,8,0:0:0:0:
280,72,68719,5,0,0:0:0:0:
280,72,68823,1,0,0:0:0:0:
280,72,68926,2,0,L|272:164,1,90,0|0,3:0|0:0,0:0:0:0:
360,306,69340,2,0,L|353:217,1,90,8|0,0:0|0:0,0:0:0:0:
188,104,69754,5,0,3:0:0:0:
152,96,69857,1,0,0:0:0:0:
116,100,69961,1,8,0:0:0:0:
88,120,70064,1,8,0:0:0:0:
69,150,70167,2,0,L|81:242,1,90,8|8,0:0|0:0,0:0:0:0:
89,274,70478,1,8,0:0:0:0:
97,310,70581,5,4,0:0:0:0:
415,310,70995,1,4,0:0:0:0:
348,236,71202,1,0,0:0:0:0:
444,212,71409,1,4,0:0:0:0:
68,212,71823,1,4,0:0:0:0:
164,236,72030,1,0,0:0:0:0:
68,212,72236,6,0,L|54:168,1,45,12|0,0:0|0:0,0:0:0:0:
160,68,72547,2,0,L|173:111,1,45,8|0,0:0|0:0,0:0:0:0:
308,156,72857,2,0,L|294:112,1,45,8|0,0:0|0:0,0:0:0:0:
304,78,73064,5,0,3:0:0:0:
320,56,73167,1,8,0:0:0:0:
342,41,73271,1,0,0:0:0:0:
368,36,73374,1,8,0:0:0:0:
394,38,73478,1,8,0:0:0:0:
432,192,73685,2,0,L|388:200,1,45,0|8,0:0|0:0,0:0:0:0:
308,156,73892,5,8,0:0:0:0:
276,144,73995,1,0,0:0:0:0:
240,148,74099,1,8,0:0:0:0:
212,168,74202,1,0,0:0:0:0:
196,200,74305,2,0,L|204:245,2,45,8|8|0,0:0|0:0|0:0,0:0:0:0:
160,104,74616,6,0,P|88:96|28:136,1,144,8|0,0:0|0:0,0:0:0:0:
8,216,75133,2,0,L|32:352,1,135,8|0,0:0|0:0,0:0:0:0:
112,376,75547,5,4,0:0:0:0:
140,356,75650,1,0,0:0:0:0:
176,348,75754,1,0,0:0:0:0:
212,352,75857,1,0,0:0:0:0:
244,368,75961,2,0,L|292:360,1,45,8|0,0:0|0:0,0:0:0:0:
340,296,76167,2,0,L|388:304,1,45
476,344,76374,6,0,P|460:300|460:256,1,90,0|0,3:0|0:0,0:0:0:0:
476,224,76685,1,0,0:0:0:0:
476,224,76788,2,0,L|384:212,1,90,8|0,0:0|0:0,0:0:0:0:
296,120,77202,5,0,3:0:0:0:
296,120,77305,1,0,0:0:0:0:
296,120,77409,1,0,0:0:0:0:
296,120,77512,1,0,0:0:0:0:
296,120,77616,2,0,L|340:128,2,45,8|0|0,0:0|0:0|0:0,0:0:0:0:
108,52,78030,6,0,P|152:52|192:72,1,90,0|0,3:0|0:0,0:0:0:0:
208,104,78340,1,0,0:0:0:0:
208,104,78443,1,8,0:0:0:0:
48,236,78650,2,0,L|56:192,1,45
128,148,78857,1,8,0:0:0:0:
128,148,78961,1,0,0:0:0:0:
128,148,79064,1,0,0:0:0:0:
168,316,79271,5,0,3:0:0:0:
48,236,79477,1,0,0:0:0:0:
232,164,79684,2,0,L|224:212,1,45,8|0,0:0|0:0,0:0:0:0:
160,271,79891,2,0,L|168:316,1,45
236,376,80098,5,0,3:0:0:0:
404,328,80305,1,0,0:0:0:0:
404,328,80408,1,0,0:0:0:0:
404,328,80512,1,8,0:0:0:0:
308,308,80719,1,0,0:0:0:0:
380,176,80926,6,0,L|372:124,3,45,0|8|8|8,3:0|0:0|0:0|0:0,0:0:0:0:
284,84,81339,2,0,L|290:129,3,45,0|8|8|8,3:0|0:0|0:0|0:0,0:0:0:0:
296,216,81753,5,0,3:0:0:0:
270,210,81857,1,0,0:0:0:0:
245,205,81960,1,0,0:0:0:0:
219,199,82064,1,0,0:0:0:0:
193,193,82167,1,8,0:0:0:0:
104,348,82581,6,0,L|44:360,2,60,4|8|8,0:0|0:0|0:0,0:0:0:0:
196,300,82994,2,0,L|256:312,2,60,0|8|8,3:0|0:0|0:0,0:0:0:0:
108,244,83408,1,0,3:0:0:0:
408,36,83822,6,0,L|468:24,2,60,4|8|8,0:0|0:0|0:0,0:0:0:0:
316,84,84236,2,0,L|256:72,2,60,0|8|8,3:0|0:0|0:0,0:0:0:0:
404,140,84649,1,0,3:0:0:0:
256,312,85063,5,4,0:0:0:0:
256,192,85166,12,0,89200,0:0:0:0:
