osu file format v14

[General]
AudioFilename: audio.mp3
AudioLeadIn: 0
PreviewTime: 54030
Countdown: 0
SampleSet: Soft
StackLeniency: 0.7
Mode: 0
LetterboxInBreaks: 0
WidescreenStoryboard: 0

[Editor]
DistanceSpacing: 0.9
BeatDivisor: 4
GridSize: 4
TimelineZoom: 1.3

[Metadata]
Title:a e i u e o ao!!
TitleUnicode:あ・え・い・う・え・お・あお!!
Artist:Gekidan Hitotose
ArtistUnicode:劇団ひととせ
Creator:alacat
Version:normal!!
Source:ひなこのーと
Tags:Opening Hinako Note Rare 桜木ひな子 Sakuragi M・A・O 市道真央 Ichimichi Mao 夏川くいな Natsukawa Kuina 富田美憂 Tomita Miyu 柊 真雪 Hiiragi Mayuki 小倉唯 Ogura Yui 萩野千秋 Hagino Chiaki 東城日沙子 Hisako Tojo 中島ゆあ Nakajima Yua 高野麻里佳 Kouno Marika
BeatmapID:1251246
BeatmapSetID:591255

[Difficulty]
HPDrainRate:4
CircleSize:3.5
OverallDifficulty:4
ApproachRate:5
SliderMultiplier:1.2
SliderTickRate:1

[Events]
//Background and Video events
Video,-200,"video.avi"
0,0,"BG.jpg",0,0
//Break Periods
//Storyboard Layer 0 (Background)
//Storyboard Layer 1 (Fail)
//Storyboard Layer 2 (Pass)
//Storyboard Layer 3 (Foreground)
//Storyboard Sound Samples

[TimingPoints]
654,413.793103448276,4,2,1,40,1,0
2309,-100,4,2,1,60,0,0
3964,-100,4,2,1,40,0,0
8929,-100,4,2,1,60,0,0
11412,413.793103448276,4,2,1,60,1,0
12136,-100,4,2,1,60,0,0
12653,-100,4,2,2,60,0,0
13067,-100,4,2,1,60,0,0
16791,413.793103448276,4,2,1,60,1,0
20101,-100,4,2,1,40,0,0
23411,-100,4,2,1,60,0,0
25480,413.793103448276,4,2,1,40,1,0
28790,-100,4,2,1,60,0,0
31480,-100,4,2,1,50,0,0
32100,-100,4,2,1,40,0,0
32514,413.793103448276,3,2,1,40,1,0
38307,413.793103448276,4,2,1,60,1,0
41617,413.793103448276,3,2,1,60,1,0
44099,413.793103448276,4,2,1,60,1,0
53719,-100,4,2,1,20,0,0
54030,-100,4,2,1,70,0,1
70581,-100,4,2,1,60,0,0
74616,-100,4,2,1,60,0,0
75133,-100,4,2,2,60,0,0
75547,-100,4,2,1,60,0,0
79271,413.793103448276,4,2,1,60,1,0
82581,413.793103448276,3,2,1,40,1,0
85063,413.793103448276,4,2,1,60,1,0
88373,-100,4,2,1,40,0,0
88787,-100,4,2,1,20,0,0
89200,-100,4,2,1,5,0,0

[Colours]
Combo1 : 147,255,174
Combo2 : 255,134,255
Combo3 : 255,255,96
Combo4 : 142,255,255
Combo5 : 255,184,113
Combo6 : 203,151,255

[HitObjects]
320,236,654,6,0,L|380:236,2,60,4|0|2,0:0|0:0|0:0,0:0:0:0:
252,320,1481,1,4,0:0:0:0:
212,220,1895,1,2,0:0:0:0:
136,296,2309,6,0,L|136:356,2,60,8|0|8,0:0|0:0|0:0,0:0:0:0:
97,257,2929,1,0,0:0:0:0:
58,218,3136,2,0,L|58:154,1,60,8|0,0:0|0:0,0:0:0:0:
58,103,3550,1,8,0:0:0:0:
134,26,3964,5,4,0:0:0:0:
439,331,5619,1,4,0:0:0:0:
439,114,6447,2,0,L|319:114,1,120,4|8,0:0|0:0,0:0:0:0:
252,32,7274,5,4,0:0:0:0:
152,72,7688,1,8,0:0:0:0:
60,16,8102,2,0,B|40:76|40:76|59:132,1,120,0|8,3:0|0:0,0:0:0:0:
156,176,8929,5,12,0:0:0:0:
260,152,9343,1,8,0:0:0:0:
364,120,9757,2,0,B|348:76|348:76|348:28,2,90,8|8|8,0:0|0:0|0:0,0:0:0:0:
404,156,10585,6,0,L|388:276,1,120,4|8,0:0|0:0,0:0:0:0:
304,344,11412,1,8,0:0:0:0:
304,344,11618,1,8,0:0:0:0:
304,344,11825,2,0,B|212:344,1,90,8|8,0:0|0:0,0:0:0:0:
140,232,12653,1,8,0:0:0:0:
208,148,13067,6,0,P|268:148|320:176,1,120,4|8,0:0|0:0,0:0:0:0:
336,228,13687,1,0,0:0:0:0:
336,228,13894,2,0,P|388:200|447:200,1,120,0|8,3:0|0:0,0:0:0:0:
412,304,14722,6,0,L|292:320,1,120,0|8,3:0|0:0,0:0:0:0:
260,360,15343,1,0,0:0:0:0:
260,360,15549,2,0,P|200:336|144:340,1,120,0|8,3:0|0:0,0:0:0:0:
44,372,16377,2,0,L|32:308,1,60,8|0,0:0|0:0,0:0:0:0:
68,272,16791,5,0,3:0:0:0:
20,176,17204,1,8,0:0:0:0:
20,176,17411,1,0,0:0:0:0:
20,176,17618,2,0,L|12:108,2,60,0|0|8,3:0|0:0|0:0,0:0:0:0:
120,140,18446,6,0,L|180:140,1,60,0|8,3:0|0:0,0:0:0:0:
218,101,18859,2,0,L|278:101,1,60,0|8,3:0|0:0,0:0:0:0:
328,76,19273,2,0,P|356:132|356:192,1,120,0|8,3:0|0:0,0:0:0:0:
284,268,20101,6,0,L|224:268,1,60,4|0,0:0|0:0,0:0:0:0:
184,304,20515,1,8,0:0:0:0:
88,256,20928,1,0,3:0:0:0:
136,160,21342,2,0,L|136:100,1,60,8|8,0:0|0:0,0:0:0:0:
100,56,21756,5,0,3:0:0:0:
204,24,22170,1,8,0:0:0:0:
204,24,22377,1,0,0:0:0:0:
204,24,22584,2,0,L|328:24,1,120,0|8,3:0|0:0,0:0:0:0:
372,44,23204,1,0,0:0:0:0:
412,80,23411,6,0,P|440:136|440:200,1,120,4|8,0:0|0:0,0:0:0:0:
404,232,24032,1,0,0:0:0:0:
352,224,24239,2,0,B|288:224|288:224|240:256,1,120,0|8,3:0|0:0,0:0:0:0:
208,360,25066,2,0,L|268:360,1,60,8|8,0:0|0:0,0:0:0:0:
306,321,25480,6,0,L|366:321,1,60,4|0,0:0|0:0,0:0:0:0:
420,321,25893,1,8,0:0:0:0:
504,252,26307,1,0,3:0:0:0:
444,160,26721,2,0,L|444:100,1,60,8|0,0:0|0:0,0:0:0:0:
412,56,27135,5,0,3:0:0:0:
332,128,27548,1,8,0:0:0:0:
332,128,27755,1,0,0:0:0:0:
332,128,27962,2,0,P|272:128|216:100,1,120,0|8,3:0|0:0,0:0:0:0:
190,56,28583,1,0,0:0:0:0:
136,59,28790,6,0,P|100:107|88:171,1,120,4|8,0:0|0:0,0:0:0:0:
112,215,29411,1,0,0:0:0:0:
160,235,29617,1,0,3:0:0:0:
256,184,30031,1,8,0:0:0:0:
356,224,30445,6,0,L|356:284,1,60,8|8,0:0|0:0,0:0:0:0:
152,360,31480,1,8,0:0:0:0:
152,360,31686,1,8,0:0:0:0:
56,312,32100,1,8,0:0:0:0:
148,252,32514,6,0,P|172:200|172:136,1,120,4|2,0:0|0:0,0:0:0:0:
136,96,33134,1,0,3:0:0:0:
136,96,33341,1,8,0:0:0:0:
228,40,33755,2,0,L|348:52,1,120,0|2,0:0|0:0,0:0:0:0:
400,60,34376,2,0,L|412:120,1,60,0|8,3:0|0:0,0:0:0:0:
500,180,34996,6,0,L|484:300,1,120,4|2,0:0|0:0,0:0:0:0:
476,352,35617,1,0,3:0:0:0:
476,352,35824,1,8,0:0:0:0:
388,288,36238,2,0,P|328:288|272:320,1,120,0|2,0:0|0:0,0:0:0:0:
248,364,36858,2,0,L|188:356,1,60,0|8,3:0|0:0,0:0:0:0:
92,304,37479,2,0,L|32:312,1,60,8|8,0:0|0:0,0:0:0:0:
108,168,38307,6,0,P|172:168|228:192,1,120,4|8,0:0|0:0,0:0:0:0:
260,228,38927,1,0,0:0:0:0:
292,272,39134,2,0,L|356:264,1,60,0|0,3:0|3:0,0:0:0:0:
392,300,39548,2,0,L|456:292,1,60,8|8,0:0|0:0,0:0:0:0:
492,256,39962,6,0,P|512:196|508:140,1,120,0|8,3:0|0:0,0:0:0:0:
472,100,40582,1,0,0:0:0:0:
424,72,40789,2,0,L|364:72,1,60,0|0,3:0|3:0,0:0:0:0:
309,72,41203,1,8,0:0:0:0:
212,28,41617,6,0,B|152:28|152:28|104:68,1,120,4|0,0:0|3:0,0:0:0:0:
25,146,42444,1,0,3:0:0:0:
25,254,42858,2,0,L|25:374,2,120,4|0|0,0:0|3:0|3:0,0:0:0:0:
104,184,44099,5,4,0:0:0:0:
211,184,44512,1,8,0:0:0:0:
287,260,44926,2,0,L|288:320,1,60,0|0,3:0|0:0,0:0:0:0:
260,364,45340,1,8,0:0:0:0:
160,320,45754,6,0,L|96:320,2,60,0|0|8,3:0|0:0|0:0,0:0:0:0:
236,243,46581,2,0,L|296:243,1,60,0|0,3:0|0:0,0:0:0:0:
334,204,46995,2,0,L|394:204,1,60,8|0,0:0|0:0,0:0:0:0:
448,204,47409,5,4,0:0:0:0:
496,108,47823,1,8,0:0:0:0:
416,36,48236,1,0,3:0:0:0:
320,84,48650,2,0,L|332:144,1,60,8|0,0:0|0:0,0:0:0:0:
296,184,49064,6,0,P|236:172|176:172,1,120,0|8,3:0|0:0,0:0:0:0:
132,204,49685,1,0,0:0:0:0:
84,184,49892,2,0,L|64:64,1,120,0|8,3:0|0:0,0:0:0:0:
164,28,50719,6,0,L|224:40,1,60,4|0,0:0|0:0,0:0:0:0:
256,84,51133,2,0,L|316:72,1,60,8|0,0:0|0:0,0:0:0:0:
368,60,51547,1,0,3:0:0:0:
460,120,51961,1,0,3:0:0:0:
428,224,52374,6,0,P|436:256|436:288,2,60,8|0|8,0:0|0:0|0:0,0:0:0:0:
380,200,52995,1,0,0:0:0:0:
332,224,53202,2,0,L|268:224,1,60,8|0,0:0|0:0,0:0:0:0:
217,224,53616,1,0,0:0:0:0:
144,144,54030,6,0,P|84:144|32:176,1,120,4|8,0:0|0:0,0:0:0:0:
12,224,54650,1,0,0:0:0:0:
12,224,54857,2,0,L|28:284,1,60,0|0,3:0|0:0,0:0:0:0:
48,332,55271,2,0,L|112:332,1,60,8|0,0:0|0:0,0:0:0:0:
152,360,55685,6,0,P|208:340|268:340,1,120,0|8,3:0|0:0,0:0:0:0:
312,368,56305,1,0,0:0:0:0:
312,368,56512,2,0,L|432:368,1,120,0|8,3:0|0:0,0:0:0:0:
508,291,57340,6,0,L|508:231,1,60,4|0,0:0|0:0,0:0:0:0:
469,192,57754,2,0,L|469:132,1,60,8|0,0:0|0:0,0:0:0:0:
430,93,58167,2,0,P|374:77|314:93,1,120,0|8,3:0|0:0,0:0:0:0:
276,132,58788,1,0,0:0:0:0:
260,184,58995,6,0,L|280:304,2,120,0|8|0,3:0|0:0|3:0,0:0:0:0:
208,172,60030,1,0,0:0:0:0:
208,172,60236,2,0,L|148:180,1,60,8|8,0:0|0:0,0:0:0:0:
112,220,60650,6,0,P|52:220|8:184,1,120,4|8,0:0|0:0,0:0:0:0:
4,128,61271,1,0,0:0:0:0:
4,128,61478,2,0,L|24:72,1,60,0|0,3:0|0:0,0:0:0:0:
68,40,61892,2,0,L|128:40,1,60,8|0,0:0|0:0,0:0:0:0:
168,76,62305,5,0,3:0:0:0:
256,12,62719,2,0,L|316:12,1,60,8|0,0:0|0:0,0:0:0:0:
368,28,63133,2,0,P|400:80|400:140,1,120,0|8,3:0|0:0,0:0:0:0:
308,192,63961,6,0,L|248:192,2,60,4|0|8,0:0|0:0|0:0,0:0:0:0:
346,230,64581,2,0,L|406:230,2,60,0|0|0,0:0|3:0|0:0,0:0:0:0:
307,268,65202,1,8,0:0:0:0:
204,292,65616,6,0,L|204:354,2,60,0|0|8,3:0|0:0|0:0,0:0:0:0:
165,253,66236,2,0,L|165:191,2,60,0|0|0,0:0|3:0|0:0,0:0:0:0:
126,291,66857,1,8,0:0:0:0:
56,208,67271,6,0,L|56:88,2,120,4|8|0,0:0|0:0|3:0,0:0:0:0:
156,164,68512,2,0,L|216:164,1,60,8|0,0:0|0:0,0:0:0:0:
252,124,68926,6,0,P|312:124|368:148,1,120,0|8,3:0|0:0,0:0:0:0:
472,172,69754,2,0,L|488:232,1,60,0|8,3:0|0:0,0:0:0:0:
448,268,70167,2,0,L|432:328,1,60,8|8,0:0|0:0,0:0:0:0:
392,364,70581,5,4,0:0:0:0:
309,293,70995,2,0,L|249:281,1,60,4|0,0:0|0:0,0:0:0:0:
204,308,71409,1,4,0:0:0:0:
156,212,71823,2,0,L|168:152,1,60,4|0,0:0|0:0,0:0:0:0:
208,116,72236,6,0,B|260:128|260:128|300:128,2,90,12|8|8,0:0|0:0|0:0,0:0:0:0:
180,68,73064,2,0,B|108:68|108:68|64:88,1,120,0|8,3:0|0:0,0:0:0:0:
20,116,73685,1,0,0:0:0:0:
4,168,73892,6,0,L|16:228,1,60,8|8,0:0|0:0,0:0:0:0:
52,268,74305,2,0,L|144:268,1,90,8|8,0:0|0:0,0:0:0:0:
236,172,75133,1,8,0:0:0:0:
320,240,75547,6,0,P|380:240|436:268,1,120,4|8,0:0|0:0,0:0:0:0:
468,308,76167,1,0,0:0:0:0:
468,308,76374,2,0,L|488:188,1,120,0|8,3:0|0:0,0:0:0:0:
508,84,77202,6,0,L|388:68,1,120,0|8,3:0|0:0,0:0:0:0:
356,28,77823,1,0,0:0:0:0:
356,28,78030,2,0,P|296:52|240:48,1,120,0|8,3:0|0:0,0:0:0:0:
136,24,78857,2,0,L|124:88,1,60,8|0,0:0|0:0,0:0:0:0:
84,116,79271,5,0,3:0:0:0:
136,208,79684,1,8,0:0:0:0:
136,208,79891,1,0,0:0:0:0:
136,208,80098,2,0,L|144:276,2,60,0|0|8,3:0|0:0|0:0,0:0:0:0:
236,164,80926,6,0,L|296:164,1,60,0|8,3:0|0:0,0:0:0:0:
334,125,81339,2,0,L|394:125,1,60,0|8,3:0|0:0,0:0:0:0:
444,100,81753,2,0,P|472:156|472:216,1,120,0|8,3:0|0:0,0:0:0:0:
424,308,82581,5,4,0:0:0:0:
328,256,82994,1,0,3:0:0:0:
256,336,83408,1,0,3:0:0:0:
156,292,83822,2,0,B|96:292|96:292|44:264,1,120,4|0,0:0|3:0,0:0:0:0:
8,160,84649,1,0,3:0:0:0:
88,88,85063,5,4,0:0:0:0:
256,192,85166,12,0,89200,0:0:0:0:
