osu file format v14

[General]
AudioFilename: audio.mp3
AudioLeadIn: 0
PreviewTime: 54030
Countdown: 0
SampleSet: Soft
StackLeniency: 0.7
Mode: 0
LetterboxInBreaks: 0
WidescreenStoryboard: 0

[Editor]
DistanceSpacing: 0.4
BeatDivisor: 4
GridSize: 4
TimelineZoom: 1.8

[Metadata]
Title:a e i u e o ao!!
TitleUnicode:あ・え・い・う・え・お・あお!!
Artist:Gekidan Hitotose
ArtistUnicode:劇団ひととせ
Creator:alacat
Version:extra!!
Source:ひなこのーと
Tags:Opening Hinako Note Rare 桜木ひな子 Sakuragi M・A・O 市道真央 Ichimichi Mao 夏川くいな Natsukawa Kuina 富田美憂 Tomita Miyu 柊 真雪 Hiiragi Mayuki 小倉唯 Ogura Yui 萩野千秋 Hagino Chiaki 東城日沙子 Hisako Tojo 中島ゆあ Nakajima Yua 高野麻里佳 Kouno Marika
BeatmapID:1264233
BeatmapSetID:591255

[Difficulty]
HPDrainRate:7
CircleSize:4.2
OverallDifficulty:8.4
ApproachRate:8.4
SliderMultiplier:2
SliderTickRate:1

[Events]
//Background and Video events
Video,-200,"video.avi"
0,0,"BG.jpg",0,0
//Break Periods
//Storyboard Layer 0 (Background)
//Storyboard Layer 1 (Fail)
//Storyboard Layer 2 (Pass)
//Storyboard Layer 3 (Foreground)
//Storyboard Sound Samples

[TimingPoints]
654,413.793103448276,4,2,1,40,1,0
2309,-100,4,2,1,60,0,0
3964,-100,4,2,1,40,0,0
6447,-125,4,2,1,40,0,0
8929,-100,4,2,1,60,0,0
11412,413.793103448276,4,2,1,60,1,0
12136,-125,4,2,1,60,0,0
12653,-100,4,2,2,60,0,0
13067,-100,4,2,1,60,0,0
16791,413.793103448276,4,2,1,60,1,0
23411,-100,4,2,1,60,0,0
25480,413.793103448276,4,2,1,40,1,0
28790,-100,4,2,1,60,0,0
31480,-100,4,2,1,50,0,0
32100,-125,4,2,1,40,0,0
32514,413.793103448276,3,2,1,40,1,0
33341,-125,3,2,1,40,0,0
33755,-100,3,2,1,40,0,0
34996,-125,3,2,1,40,0,0
38307,413.793103448276,4,2,1,60,1,0
41617,413.793103448276,3,2,1,60,1,0
44099,413.793103448276,4,2,1,60,1,0
53719,-100,4,2,1,20,0,0
54030,-100,4,2,1,70,0,1
70581,-100,4,2,1,60,0,0
74616,-125,4,2,1,60,0,0
75133,-100,4,2,2,60,0,0
75547,-100,4,2,1,60,0,0
79271,413.793103448276,4,2,1,60,1,0
82581,413.793103448276,3,2,1,40,1,0
85063,413.793103448276,4,2,1,60,1,0
88373,-100,4,2,1,40,0,0
88787,-100,4,2,1,20,0,0
89200,-100,4,2,1,5,0,0

[Colours]
Combo1 : 147,255,174
Combo2 : 255,134,255
Combo3 : 255,255,96
Combo4 : 142,255,255
Combo5 : 255,184,113
Combo6 : 203,151,255

[HitObjects]
240,140,654,6,0,P|284:116|332:116,1,100,4|0,0:0|0:0,0:0:0:0:
367,139,964,1,0,0:0:0:0:
367,139,1067,1,2,0:0:0:0:
256,36,1274,1,0,0:0:0:0:
367,139,1481,2,0,B|464:111|484:68|484:68|454:76|426:70,1,200,4|2,0:0|0:0,0:0:0:0:
256,36,2309,5,8,0:0:0:0:
136,140,2516,1,0,0:0:0:0:
316,200,2722,5,8,0:0:0:0:
76,304,2929,1,0,0:0:0:0:
328,228,3136,5,8,0:0:0:0:
124,112,3343,1,0,0:0:0:0:
0,328,3550,2,0,P|48:376|124:368,1,150,8|0,0:0|0:0,0:0:0:0:
152,268,3964,5,4,0:0:0:0:
180,168,5619,1,4,0:0:0:0:
252,28,6447,2,0,P|260:68|252:112,1,80,4|0,0:0|0:0,0:0:0:0:
180,168,6860,2,0,P|172:208|180:252,1,80,8|0,0:0|0:0,0:0:0:0:
340,272,7274,5,4,0:0:0:0:
268,208,7481,1,0,0:0:0:0:
116,320,7688,2,0,L|196:332,1,80,8|0,0:0|0:0,0:0:0:0:
226,337,7998,1,0,0:0:0:0:
226,337,8102,1,0,3:0:0:0:
84,232,8309,1,0,0:0:0:0:
226,337,8516,1,8,0:0:0:0:
148,164,8722,1,0,0:0:0:0:
12,368,8929,5,12,0:0:0:0:
84,232,9136,1,0,0:0:0:0:
228,336,9343,1,8,0:0:0:0:
228,336,9447,1,0,0:0:0:0:
320,156,9654,5,0,0:0:0:0:
320,156,9757,2,0,P|268:156|224:180,1,100,8|0,0:0|0:0,0:0:0:0:
264,340,10067,2,0,P|290:294|291:244,1,100,8|0,0:0|0:0,0:0:0:0:
140,136,10378,2,0,P|131:163|132:192,1,50,8|0,0:0|0:0,0:0:0:0:
264,340,10585,5,4,0:0:0:0:
264,340,10688,2,0,P|316:328|368:336,1,100,8|0,0:0|0:0,0:0:0:0:
502,259,10998,1,8,0:0:0:0:
502,259,11102,2,0,P|452:264|404:252,1,100,8|8,0:0|0:0,0:0:0:0:
346,175,11412,5,8,0:0:0:0:
313,151,11515,1,0,0:0:0:0:
273,146,11618,1,8,0:0:0:0:
235,161,11722,1,0,0:0:0:0:
205,188,11825,1,8,0:0:0:0:
165,194,11929,1,8,0:0:0:0:
126,183,12032,1,0,0:0:0:0:
100,156,12136,6,0,P|32:156|32:232,1,160,8|0,0:0|0:0,0:0:0:0:
120,284,12653,2,0,L|270:270,1,150,8|0,0:0|0:0,0:0:0:0:
346,343,13067,5,4,0:0:0:0:
373,353,13170,1,0,0:0:0:0:
403,353,13274,1,0,0:0:0:0:
429,340,13377,1,0,0:0:0:0:
446,315,13480,1,8,0:0:0:0:
436,288,13584,1,0,0:0:0:0:
436,258,13687,1,0,0:0:0:0:
449,232,13791,1,0,0:0:0:0:
472,213,13894,6,0,P|424:200|371:200,1,100,0|0,3:0|0:0,0:0:0:0:
320,128,14205,1,0,0:0:0:0:
320,128,14308,2,0,P|270:140|222:140,1,100,8|0,0:0|0:0,0:0:0:0:
20,37,14722,5,0,3:0:0:0:
8,65,14825,1,0,0:0:0:0:
8,96,14929,1,0,0:0:0:0:
21,123,15032,1,0,0:0:0:0:
46,139,15136,1,8,0:0:0:0:
72,125,15239,1,0,0:0:0:0:
101,119,15343,1,0,0:0:0:0:
130,123,15446,1,0,0:0:0:0:
153,142,15549,6,0,L|143:243,1,100,0|0,3:0|0:0,0:0:0:0:
138,281,15860,1,0,0:0:0:0:
138,281,15963,1,8,0:0:0:0:
284,188,16170,6,0,P|259:188|234:192,1,50,0|0,0:0|0:0,0:0:0:0:
56,228,16377,1,8,0:0:0:0:
56,228,16480,1,0,0:0:0:0:
56,228,16584,1,0,0:0:0:0:
224,328,16791,5,0,3:0:0:0:
284,188,16997,1,0,0:0:0:0:
132,117,17204,1,8,0:0:0:0:
124,146,17308,1,0,0:0:0:0:
95,174,17411,1,0,0:0:0:0:
87,203,17515,1,0,0:0:0:0:
56,228,17618,5,0,3:0:0:0:
236,360,17825,1,0,0:0:0:0:
236,360,17928,1,0,0:0:0:0:
236,360,18032,2,0,L|340:368,1,100,8|0,0:0|0:0,0:0:0:0:
200,232,18446,6,0,L|148:236,1,50,0|8,3:0|0:0,0:0:0:0:
284,192,18653,2,0,L|336:196,1,50,8|8,0:0|0:0,0:0:0:0:
148,124,18859,6,0,L|96:128,1,50,0|8,3:0|0:0,0:0:0:0:
320,72,19066,2,0,L|372:76,1,50,8|8,0:0|0:0,0:0:0:0:
178,25,19273,5,0,3:0:0:0:
148,28,19377,1,0,0:0:0:0:
118,30,19480,1,0,0:0:0:0:
88,33,19584,1,0,0:0:0:0:
58,36,19687,1,8,0:0:0:0:
160,376,20101,5,4,0:0:0:0:
308,284,20308,1,0,0:0:0:0:
308,284,20411,1,0,0:0:0:0:
308,284,20515,2,0,P|256:276|208:284,1,100,8|0,0:0|0:0,0:0:0:0:
15,226,20928,5,0,3:0:0:0:
43,236,21032,1,0,0:0:0:0:
72,237,21135,1,0,0:0:0:0:
100,226,21239,1,0,0:0:0:0:
126,211,21342,1,8,0:0:0:0:
200,120,21549,5,8,0:0:0:0:
200,120,21653,1,8,0:0:0:0:
200,120,21756,2,0,P|248:108|304:112,1,100,0|0,3:0|0:0,0:0:0:0:
382,275,22170,2,0,L|394:327,1,50,8|0,0:0|0:0,0:0:0:0:
302,368,22377,2,0,L|313:320,1,50,0|0,0:0|3:0,0:0:0:0:
368,196,22584,5,0,3:0:0:0:
397,204,22687,1,8,0:0:0:0:
426,212,22791,1,0,0:0:0:0:
455,222,22894,1,0,0:0:0:0:
484,232,22997,1,8,0:0:0:0:
444,96,23204,5,0,0:0:0:0:
444,96,23308,1,0,0:0:0:0:
444,96,23411,2,0,B|396:64|336:84|336:84|348:124,1,150,4|0,0:0|0:0,0:0:0:0:
368,196,23825,1,8,0:0:0:0:
200,276,24032,1,0,0:0:0:0:
200,276,24135,1,0,0:0:0:0:
200,276,24239,2,0,L|208:224,1,50,0|0,3:0|0:0,0:0:0:0:
116,180,24446,2,0,L|123:229,1,50,0|0,0:0|0:0,0:0:0:0:
184,360,24653,2,0,L|284:348,1,100,8|0,0:0|0:0,0:0:0:0:
220,144,25066,5,8,0:0:0:0:
20,208,25273,1,8,0:0:0:0:
184,360,25480,5,4,0:0:0:0:
304,248,25686,1,0,0:0:0:0:
304,248,25790,1,0,0:0:0:0:
304,248,25893,2,0,L|252:240,1,50,8|0,0:0|0:0,0:0:0:0:
170,151,26100,2,0,L|220:144,1,50,0|0,0:0|0:0,0:0:0:0:
316,84,26307,5,0,3:0:0:0:
345,76,26411,1,0,0:0:0:0:
374,80,26514,1,0,0:0:0:0:
399,94,26617,1,0,0:0:0:0:
417,117,26721,1,8,0:0:0:0:
348,292,26928,5,8,0:0:0:0:
348,292,27031,1,8,0:0:0:0:
348,292,27135,2,0,L|244:272,1,100,0|0,3:0|0:0,0:0:0:0:
184,120,27548,2,0,L|239:109,1,50,8|0,0:0|0:0,0:0:0:0:
288,200,27755,2,0,L|233:189,1,50,0|8,0:0|0:0,0:0:0:0:
104,144,27962,5,0,3:0:0:0:
104,144,28066,1,8,0:0:0:0:
280,36,28273,1,0,0:0:0:0:
280,36,28376,1,8,0:0:0:0:
156,220,28583,5,0,0:0:0:0:
156,220,28686,1,0,0:0:0:0:
156,220,28790,2,0,B|156:281|184:328|184:328|220:312,1,150,4|0,0:0|0:0,0:0:0:0:
292,280,29204,1,8,0:0:0:0:
104,144,29411,1,0,0:0:0:0:
74,150,29514,1,0,0:0:0:0:
45,156,29617,1,0,3:0:0:0:
240,204,29824,1,0,0:0:0:0:
88,64,30031,1,8,0:0:0:0:
64,236,30238,1,0,0:0:0:0:
256,32,30445,5,8,0:0:0:0:
4,80,30652,1,8,0:0:0:0:
156,220,31480,5,8,0:0:0:0:
420,172,31686,1,8,0:0:0:0:
420,172,32100,2,0,P|388:220|388:284,1,120,8|0,0:0|0:0,0:0:0:0:
412,312,32514,5,4,0:0:0:0:
304,340,32720,1,0,0:0:0:0:
412,312,32927,1,2,0:0:0:0:
256,244,33134,1,0,3:0:0:0:
412,312,33341,2,0,P|444:262|444:203,1,120,8|8,0:0|0:0,0:0:0:0:
420,172,33755,5,0,0:0:0:0:
312,152,33962,1,0,0:0:0:0:
256,244,34169,1,2,0:0:0:0:
420,172,34376,1,0,3:0:0:0:
260,60,34582,1,8,0:0:0:0:
108,336,34893,1,8,0:0:0:0:
108,336,34996,6,0,P|148:332|192:328,1,80,4|0,0:0|0:0,0:0:0:0:
88,216,35410,2,0,P|48:212|4:208,1,80,2|0,0:0|3:0,0:0:0:0:
184,240,35824,2,0,P|212:192|200:132,1,120,8|8,0:0|0:0,0:0:0:0:
180,108,36238,6,0,L|260:120,1,80,0|0,0:0|0:0,0:0:0:0:
400,72,36651,2,0,L|320:60,1,80,2|0,0:0|3:0,0:0:0:0:
296,192,37065,2,0,P|356:180|420:176,1,120,8|0,0:0|0:0,0:0:0:0:
484,112,37479,5,8,0:0:0:0:
452,105,37582,1,8,0:0:0:0:
420,99,37686,1,8,0:0:0:0:
197,207,38307,6,0,L|297:191,1,100,4|0,0:0|0:0,0:0:0:0:
224,104,38720,1,8,0:0:0:0:
89,195,38927,1,0,0:0:0:0:
93,215,39031,1,8,0:0:0:0:
97,235,39134,1,0,3:0:0:0:
268,280,39341,1,0,3:0:0:0:
126,120,39548,1,8,0:0:0:0:
121,319,39755,5,0,0:0:0:0:
121,319,39858,1,8,0:0:0:0:
121,319,39962,1,0,3:0:0:0:
197,207,40169,1,0,0:0:0:0:
40,60,40375,2,0,L|28:160,1,100,8|0,0:0|0:0,0:0:0:0:
24,200,40686,1,8,0:0:0:0:
24,200,40789,1,0,3:0:0:0:
126,120,40996,1,0,3:0:0:0:
8,292,41203,1,8,0:0:0:0:
197,207,41410,5,0,0:0:0:0:
197,207,41513,1,0,0:0:0:0:
197,207,41617,2,0,L|206:276,2,66.6666666666667,4|8|8,0:0|0:0|0:0,0:0:0:0:
296,328,42030,2,0,L|304:261,2,66.6666666666667,0|8|8,3:0|0:0|0:0,0:0:0:0:
104,252,42444,1,0,3:0:0:0:
184,48,42858,6,0,P|216:48|252:56,1,66.6666666666667,4|8,0:0|0:0,0:0:0:0:
344,124,43134,1,8,0:0:0:0:
240,228,43272,2,0,P|240:196|248:160,2,66.6666666666667,0|8|8,3:0|0:0|0:0,0:0:0:0:
332,296,43685,2,0,P|384:284|436:284,1,100,0|0,3:0|0:0,0:0:0:0:
224,340,44099,6,0,P|172:328|120:328,1,100,4|0,0:0|0:0,0:0:0:0:
88,344,44409,1,0,0:0:0:0:
88,344,44512,1,8,0:0:0:0:
20,260,44719,1,0,0:0:0:0:
24,240,44823,1,0,0:0:0:0:
28,220,44926,1,0,3:0:0:0:
157,130,45133,1,0,0:0:0:0:
138,238,45340,1,8,0:0:0:0:
49,112,45547,1,0,0:0:0:0:
274,23,45754,6,0,P|292:71|291:120,1,100,0|0,3:0|0:0,0:0:0:0:
268,152,46064,1,0,0:0:0:0:
268,152,46167,1,8,0:0:0:0:
389,108,46374,1,0,0:0:0:0:
409,112,46478,1,0,0:0:0:0:
429,116,46581,1,0,3:0:0:0:
376,244,46788,2,0,L|324:234,1,50,0|0,0:0|0:0,0:0:0:0:
444,196,46995,2,0,P|460:244|448:292,1,100,8|0,0:0|0:0,0:0:0:0:
256,356,47409,5,4,0:0:0:0:
220,252,47616,1,0,0:0:0:0:
220,252,47719,1,0,0:0:0:0:
220,252,47823,1,8,0:0:0:0:
288,168,48030,1,0,0:0:0:0:
288,168,48133,1,0,0:0:0:0:
288,168,48236,2,0,L|388:180,1,100,0|0,3:0|0:0,0:0:0:0:
407,176,48547,1,0,0:0:0:0:
426,171,48650,1,8,0:0:0:0:
268,72,48857,5,0,0:0:0:0:
220,252,49064,1,0,3:0:0:0:
128,136,49271,1,0,0:0:0:0:
132,116,49374,1,0,0:0:0:0:
136,96,49478,1,8,0:0:0:0:
288,168,49685,1,0,0:0:0:0:
288,168,49788,1,0,0:0:0:0:
288,168,49892,1,0,3:0:0:0:
112,240,50099,1,0,0:0:0:0:
38,75,50305,2,0,L|135:95,1,100,8|0,0:0|0:0,0:0:0:0:
256,120,50719,5,4,0:0:0:0:
256,120,50823,1,0,0:0:0:0:
256,120,50926,1,0,0:0:0:0:
146,170,51133,1,8,0:0:0:0:
256,24,51340,1,0,0:0:0:0:
366,170,51547,1,0,3:0:0:0:
152,40,51754,1,8,0:0:0:0:
132,44,51857,1,8,0:0:0:0:
112,48,51961,1,0,3:0:0:0:
256,224,52167,1,8,0:0:0:0:
464,120,52374,5,8,0:0:0:0:
256,24,52581,1,0,0:0:0:0:
48,216,52788,5,8,0:0:0:0:
256,120,52995,1,0,0:0:0:0:
45,81,53202,5,8,0:0:0:0:
256,304,53409,1,0,0:0:0:0:
471,169,53616,2,0,L|464:120,1,50,0|0,0:0|0:0,0:0:0:0:
152,40,54030,6,0,L|138:140,1,100,4|0,0:0|0:0,0:0:0:0:
256,304,54443,1,8,0:0:0:0:
275,298,54547,1,0,0:0:0:0:
293,293,54650,1,0,0:0:0:0:
312,287,54754,1,0,0:0:0:0:
330,280,54857,2,0,L|316:180,1,100,0|0,3:0|0:0,0:0:0:0:
311,140,55167,1,0,0:0:0:0:
311,140,55271,1,8,0:0:0:0:
192,228,55478,5,0,0:0:0:0:
192,228,55581,1,0,0:0:0:0:
192,228,55685,1,0,3:0:0:0:
352,368,55892,1,0,0:0:0:0:
490,236,56099,1,8,0:0:0:0:
490,236,56202,2,0,P|442:220|394:220,1,100,2|0,0:0|0:0,0:0:0:0:
330,280,56512,1,0,3:0:0:0:
368,136,56719,1,0,0:0:0:0:
420,308,56926,1,8,0:0:0:0:
260,336,57133,5,8,0:0:0:0:
260,336,57236,1,8,0:0:0:0:
260,336,57340,2,0,P|208:328|156:328,1,100,4|0,0:0|0:0,0:0:0:0:
92,176,57754,1,8,0:0:0:0:
92,176,57857,1,2,0:0:0:0:
244,244,58064,1,0,0:0:0:0:
244,244,58167,2,0,P|293:243|343:235,1,100,0|0,3:0|0:0,0:0:0:0:
380,76,58581,1,8,0:0:0:0:
492,172,58788,5,0,0:0:0:0:
492,172,58892,1,0,0:0:0:0:
492,172,58995,2,0,P|442:164|392:163,1,100,0|0,3:0|0:0,0:0:0:0:
244,244,59409,1,8,0:0:0:0:
244,244,59512,2,0,L|232:144,1,100,2|2,0:0|0:0,0:0:0:0:
280,68,59823,1,0,3:0:0:0:
343,234,60030,1,0,0:0:0:0:
339,254,60133,1,0,0:0:0:0:
335,274,60236,1,8,0:0:0:0:
148,176,60443,5,8,0:0:0:0:
148,176,60547,1,8,0:0:0:0:
148,176,60650,2,0,P|96:176|48:192,2,100,4|0|8,0:0|0:0|0:0,0:0:0:0:
320,348,61271,2,0,L|332:296,1,50,0|0,0:0|0:0,0:0:0:0:
256,248,61478,2,0,P|208:262|158:262,1,100,0|0,3:0|0:0,0:0:0:0:
280,160,61892,1,8,0:0:0:0:
416,328,62099,5,0,0:0:0:0:
416,328,62202,1,0,0:0:0:0:
416,328,62305,2,0,P|428:276|420:228,1,100,0|0,3:0|0:0,0:0:0:0:
262,65,62719,1,8,0:0:0:0:
246,90,62823,1,0,0:0:0:0:
242,119,62926,1,0,0:0:0:0:
255,145,63030,1,0,0:0:0:0:
280,160,63133,2,0,P|306:162|328:172,2,50,0|8|0,3:0|0:0|0:0,0:0:0:0:
88,192,63547,2,0,B|-16:168|-16:168|28:152,1,150,8|0,0:0|0:0,0:0:0:0:
156,140,63961,5,4,0:0:0:0:
176,172,64064,1,0,0:0:0:0:
180,212,64167,1,0,0:0:0:0:
164,248,64271,1,0,0:0:0:0:
132,272,64374,1,8,0:0:0:0:
28,72,64581,5,0,0:0:0:0:
67,65,64685,1,0,0:0:0:0:
106,59,64788,1,0,3:0:0:0:
145,53,64892,1,0,0:0:0:0:
184,47,64995,1,0,0:0:0:0:
388,144,65202,1,8,0:0:0:0:
256,192,65409,2,0,L|268:144,1,50,2|0,0:0|0:0,0:0:0:0:
376,66,65616,5,0,3:0:0:0:
382,105,65719,1,0,0:0:0:0:
388,144,65823,1,0,0:0:0:0:
394,183,65926,1,0,0:0:0:0:
401,222,66030,1,8,0:0:0:0:
224,280,66236,5,0,0:0:0:0:
198,249,66340,1,0,0:0:0:0:
164,227,66443,1,0,3:0:0:0:
124,218,66547,1,0,0:0:0:0:
84,225,66650,1,0,0:0:0:0:
256,372,66857,1,8,0:0:0:0:
401,222,67064,5,0,0:0:0:0:
401,222,67167,1,0,0:0:0:0:
401,222,67271,2,0,P|353:210|301:214,1,100,4|0,0:0|0:0,0:0:0:0:
126,271,67685,2,0,P|174:283|226:279,1,100,8|0,0:0|0:0,0:0:0:0:
216,80,68099,2,0,P|204:128|208:180,1,100,0|0,3:0|0:0,0:0:0:0:
324,308,68512,1,8,0:0:0:0:
147,366,68719,5,0,0:0:0:0:
147,366,68823,1,0,0:0:0:0:
147,366,68926,1,0,3:0:0:0:
303,213,69133,1,0,0:0:0:0:
324,308,69340,1,8,0:0:0:0:
126,271,69547,1,0,0:0:0:0:
282,119,69754,5,0,3:0:0:0:
319,116,69857,1,0,0:0:0:0:
355,132,69961,1,8,0:0:0:0:
382,161,70064,1,8,0:0:0:0:
395,198,70167,1,8,0:0:0:0:
227,291,70374,5,8,0:0:0:0:
227,291,70478,1,8,0:0:0:0:
227,291,70581,1,4,0:0:0:0:
106,102,70995,6,0,P|99:128|100:155,1,50,4|0,0:0|0:0,0:0:0:0:
230,169,71202,2,0,P|209:150|187:137,1,50,0|0,0:0|0:0,0:0:0:0:
54,226,71409,1,4,0:0:0:0:
351,358,71823,6,0,P|357:331|357:305,1,50,4|0,0:0|0:0,0:0:0:0:
227,291,72030,2,0,P|247:309|269:322,1,50,0|0,0:0|0:0,0:0:0:0:
400,224,72236,5,12,0:0:0:0:
396,204,72340,1,0,0:0:0:0:
256,192,72547,5,8,0:0:0:0:
252,172,72650,1,0,0:0:0:0:
116,176,72857,5,8,0:0:0:0:
112,156,72961,1,0,0:0:0:0:
108,135,73064,2,0,L|98:82,1,50,0|8,3:0|0:0,0:0:0:0:
34,184,73271,2,0,L|24:233,1,50,0|8,0:0|0:0,0:0:0:0:
137,293,73478,1,8,0:0:0:0:
200,93,73685,2,0,L|193:44,1,50,0|8,0:0|0:0,0:0:0:0:
56,23,73892,5,8,0:0:0:0:
87,47,73995,1,0,0:0:0:0:
98,85,74099,1,8,0:0:0:0:
78,120,74202,1,0,0:0:0:0:
46,144,74305,1,8,0:0:0:0:
34,184,74409,1,8,0:0:0:0:
54,224,74512,1,0,0:0:0:0:
86,244,74616,6,0,P|102:308|30:300,1,160,8|0,0:0|0:0,0:0:0:0:
148,192,75133,2,0,L|296:216,1,150,8|0,0:0|0:0,0:0:0:0:
412,175,75547,5,4,0:0:0:0:
432,140,75650,1,0,0:0:0:0:
433,101,75754,1,0,0:0:0:0:
416,65,75857,1,0,0:0:0:0:
384,42,75961,1,8,0:0:0:0:
344,37,76064,1,0,0:0:0:0:
307,51,76167,1,0,0:0:0:0:
281,81,76271,1,0,0:0:0:0:
271,119,76374,6,0,L|297:220,1,100,0|0,3:0|0:0,0:0:0:0:
380,260,76685,1,0,0:0:0:0:
380,260,76788,2,0,L|354:361,1,100,8|0,0:0|0:0,0:0:0:0:
212,264,77202,5,0,3:0:0:0:
174,250,77305,1,0,0:0:0:0:
134,254,77409,1,0,0:0:0:0:
101,277,77512,1,0,0:0:0:0:
83,312,77616,1,8,0:0:0:0:
45,297,77719,1,0,0:0:0:0:
26,261,77823,1,0,0:0:0:0:
33,221,77926,1,0,0:0:0:0:
63,194,78030,6,0,P|83:152|77:100,1,100,0|0,3:0|0:0,0:0:0:0:
47,72,78340,1,0,0:0:0:0:
47,72,78443,1,8,0:0:0:0:
164,164,78650,1,0,0:0:0:0:
201,178,78754,1,0,0:0:0:0:
240,172,78857,1,8,0:0:0:0:
272,148,78961,1,0,0:0:0:0:
291,113,79064,1,0,0:0:0:0:
178,38,79271,5,0,3:0:0:0:
63,194,79477,1,0,0:0:0:0:
250,307,79684,1,8,0:0:0:0:
264,269,79788,1,0,0:0:0:0:
258,230,79891,1,0,0:0:0:0:
236,198,79995,1,0,0:0:0:0:
201,178,80098,1,0,3:0:0:0:
40,292,80305,1,0,0:0:0:0:
40,292,80408,1,0,0:0:0:0:
40,292,80512,2,0,P|92:292|136:272,1,100,8|0,0:0|0:0,0:0:0:0:
308,108,80926,6,0,L|360:116,1,50,0|8,3:0|0:0,0:0:0:0:
164,164,81133,2,0,L|112:172,1,50,8|8,0:0|0:0,0:0:0:0:
352,200,81339,6,0,L|404:196,1,50,0|8,3:0|0:0,0:0:0:0:
120,88,81546,2,0,L|68:84,1,50,8|8,0:0|0:0,0:0:0:0:
272,20,81753,5,0,3:0:0:0:
302,23,81857,1,0,0:0:0:0:
332,25,81960,1,0,0:0:0:0:
362,28,82064,1,0,0:0:0:0:
392,31,82167,1,8,0:0:0:0:
216,232,82581,6,0,L|147:241,2,66.6666666666667,4|8|8,0:0|0:0|0:0,0:0:0:0:
95,331,82994,2,0,L|162:339,2,66.6666666666667,0|8|8,3:0|0:0|0:0,0:0:0:0:
171,139,83408,1,0,3:0:0:0:
400,188,83822,6,0,P|400:220|392:256,1,66.6666666666667,4|8,0:0|0:0,0:0:0:0:
320,336,84098,1,8,0:0:0:0:
216,232,84236,2,0,P|248:232|284:240,2,66.6666666666667,0|8|8,3:0|0:0|0:0,0:0:0:0:
95,331,84649,2,0,P|28:308|16:236,1,150,0|0,3:0|0:0,0:0:0:0:
64,168,85063,5,4,0:0:0:0:
256,192,85166,12,0,89200,0:0:0:0:
