osu file format v14

[General]
AudioFilename: audio.mp3
AudioLeadIn: 0
PreviewTime: 54030
Countdown: 0
SampleSet: Soft
StackLeniency: 0.7
Mode: 0
LetterboxInBreaks: 0
WidescreenStoryboard: 0

[Editor]
DistanceSpacing: 1
BeatDivisor: 4
GridSize: 4
TimelineZoom: 1

[Metadata]
Title:a e i u e o ao!!
TitleUnicode:あ・え・い・う・え・お・あお!!
Artist:Gekidan Hitotose
ArtistUnicode:劇団ひととせ
Creator:alacat
Version:easy!!
Source:ひなこのーと
Tags:Opening Hinako Note Rare 桜木ひな子 Sakuragi M・A・O 市道真央 Ichimichi Mao 夏川くいな Natsukawa Kuina 富田美憂 Tomita Miyu 柊 真雪 Hiiragi Mayuki 小倉唯 Ogura Yui 萩野千秋 Hagino Chiaki 東城日沙子 Hisako Tojo 中島ゆあ Nakajima Yua 高野麻里佳 Kouno Marika
BeatmapID:1251242
BeatmapSetID:591255

[Difficulty]
HPDrainRate:2
CircleSize:2.8
OverallDifficulty:2
ApproachRate:3
SliderMultiplier:0.9
SliderTickRate:1

[Events]
//Background and Video events
Video,-200,"video.avi"
0,0,"BG.jpg",0,0
//Break Periods
//Storyboard Layer 0 (Background)
//Storyboard Layer 1 (Fail)
//Storyboard Layer 2 (Pass)
//Storyboard Layer 3 (Foreground)
//Storyboard Sound Samples

[TimingPoints]
654,413.793103448276,4,2,1,40,1,0
2309,-100,4,2,1,60,0,0
3964,-100,4,2,1,40,0,0
8929,-100,4,2,1,60,0,0
11412,413.793103448276,4,2,1,60,1,0
12136,-100,4,2,1,60,0,0
12653,-100,4,2,2,60,0,0
13067,-100,4,2,1,60,0,0
16791,413.793103448276,4,2,1,60,1,0
20101,-100,4,2,1,40,0,0
23411,-100,4,2,1,60,0,0
25480,413.793103448276,4,2,1,40,1,0
28790,-100,4,2,1,60,0,0
31480,-100,4,2,1,50,0,0
32100,-100,4,2,1,40,0,0
32514,413.793103448276,3,2,1,40,1,0
38307,413.793103448276,4,2,1,60,1,0
41617,413.793103448276,3,2,1,60,1,0
44099,413.793103448276,4,2,1,60,1,0
53719,-100,4,2,1,20,0,0
54030,-100,4,2,1,70,0,1
70581,-100,4,2,1,60,0,0
74616,-100,4,2,1,60,0,0
75133,-100,4,2,2,60,0,0
75547,-100,4,2,1,60,0,0
79271,413.793103448276,4,2,1,60,1,0
82581,413.793103448276,3,2,1,40,1,0
85063,413.793103448276,4,2,1,60,1,0
88373,-100,4,2,1,40,0,0
88787,-100,4,2,1,20,0,0
89200,-100,4,2,1,5,0,0

[Colours]
Combo1 : 147,255,174
Combo2 : 255,134,255
Combo3 : 255,255,96
Combo4 : 142,255,255
Combo5 : 255,184,113
Combo6 : 203,151,255

[HitObjects]
456,192,654,6,0,P|456:112|356:112,1,180,4|4,0:0|0:0,0:0:0:0:
256,236,2309,2,0,L|256:328,2,89.9999999999999,8|8|8,0:0|0:0|0:0,0:0:0:0:
256,148,3550,1,8,0:0:0:0:
256,56,3964,5,4,0:0:0:0:
20,328,5619,2,0,B|84:328|84:328|124:352|124:352|196:352,1,180,4|4,0:0|0:0,0:0:0:0:
257,288,6860,1,8,0:0:0:0:
320,352,7274,6,0,L|412:352,1,89.9999999999999,4|8,0:0|0:0,0:0:0:0:
473,288,8102,2,0,L|473:198,1,89.9999999999999,0|8,3:0|0:0,0:0:0:0:
409,134,8929,1,12,0:0:0:0:
318,134,9343,1,8,0:0:0:0:
256,68,9757,6,0,B|164:68|164:68|88:112,1,180,8|4,0:0|0:0,0:0:0:0:
48,192,10998,1,8,0:0:0:0:
88,272,11412,2,0,B|248:272,1,157.5,8|8,0:0|0:0,0:0:0:0:
376,116,13067,6,0,L|284:116,1,89.9999999999999,4|8,0:0|0:0,0:0:0:0:
222,52,13894,1,0,3:0:0:0:
131,52,14308,1,8,0:0:0:0:
67,115,14722,2,0,P|51:159|51:207,1,89.9999999999999,0|8,3:0|0:0,0:0:0:0:
113,265,15549,2,0,P|157:249|205:249,1,89.9999999999999,0|8,3:0|0:0,0:0:0:0:
276,300,16377,1,8,0:0:0:0:
336,368,16791,6,0,L|428:356,1,89.9999999999999,0|8,3:0|0:0,0:0:0:0:
388,272,17618,2,0,L|480:260,1,89.9999999999999,0|8,3:0|0:0,0:0:0:0:
512,176,18446,1,0,3:0:0:0:
456,104,18859,1,0,3:0:0:0:
368,96,19273,2,0,P|324:112|292:144,1,89.9999999999999,0|8,3:0|0:0,0:0:0:0:
248,220,20101,6,0,B|160:244|160:192|68:220,1,180,4|0,0:0|3:0,0:0:0:0:
20,292,21342,1,8,0:0:0:0:
88,352,21756,2,0,P|128:364|180:364,1,90,0|8,3:0|0:0,0:0:0:0:
256,320,22584,2,0,P|299:309|344:309,1,89.9999999999999,0|8,3:0|0:0,0:0:0:0:
416,364,23411,6,0,P|368:292|412:220,1,180,4|0,0:0|3:0,0:0:0:0:
496,192,24653,1,8,0:0:0:0:
468,108,25066,1,8,0:0:0:0:
380,136,25480,6,0,L|196:112,1,180,4|0,0:0|3:0,0:0:0:0:
120,156,26721,1,8,0:0:0:0:
48,104,27135,2,0,P|48:60|64:16,2,89.9999999999999,0|8|0,3:0|0:0|3:0,0:0:0:0:
120,156,28376,1,8,0:0:0:0:
208,140,28790,6,0,P|288:168|320:256,1,180,4|0,0:0|3:0,0:0:0:0:
256,316,30031,1,8,0:0:0:0:
172,288,30445,2,0,L|120:296,1,45,8|8,0:0|0:0,0:0:0:0:
28,144,31480,2,0,L|72:137,1,45,8|8,0:0|0:0,0:0:0:0:
136,72,32100,1,8,0:0:0:0:
224,52,32514,6,0,B|272:60|296:96|296:96|336:72|388:88,1,180,4|8,0:0|0:0,0:0:0:0:
471,116,33755,2,0,P|474:71|454:32,2,89.9999999999999,0|2|8,0:0|0:0|0:0,0:0:0:0:
404,176,34996,6,0,B|428:268|428:268|388:260|344:280,1,180,4|8,0:0|0:0,0:0:0:0:
304,360,36238,2,0,P|348:368|400:352,2,89.9999999999999,0|2|8,0:0|0:0|0:0,0:0:0:0:
256,284,37479,1,8,0:0:0:0:
404,180,38307,6,0,L|388:92,1,89.9999999999999,4|8,0:0|0:0,0:0:0:0:
316,36,39134,1,0,3:0:0:0:
240,84,39548,1,8,0:0:0:0:
160,40,39962,2,0,P|116:40|68:52,1,89.9999999999999,0|8,3:0|0:0,0:0:0:0:
12,116,40789,1,0,3:0:0:0:
56,196,41203,1,8,0:0:0:0:
144,172,41617,6,0,B|188:196|201:234|201:234|246:222|291:251,1,180,4|0,0:0|3:0,0:0:0:0:
348,320,42858,2,0,B|392:291|437:303|437:303|450:265|494:241,1,180,4|0,0:0|3:0,0:0:0:0:
456,160,44099,6,0,L|468:68,2,89.9999999999999,4|8|0,0:0|0:0|3:0,0:0:0:0:
384,212,45340,1,8,0:0:0:0:
316,152,45754,2,0,P|268:152|224:164,1,89.9999999999999,0|8,3:0|0:0,0:0:0:0:
160,220,46581,2,0,P|112:220|68:208,1,89.9999999999999,0|8,3:0|0:0,0:0:0:0:
20,136,47409,5,4,0:0:0:0:
72,60,47823,1,8,0:0:0:0:
156,96,48236,2,0,L|248:88,1,89.9999999999999,0|8,3:0|0:0,0:0:0:0:
316,28,49064,2,0,L|408:36,1,89.9999999999999,0|8,3:0|0:0,0:0:0:0:
480,84,49892,1,0,3:0:0:0:
400,120,50305,1,8,0:0:0:0:
472,172,50719,6,0,B|488:216|488:216|488:260,1,89.9999999999999,4|8,0:0|0:0,0:0:0:0:
424,323,51547,2,0,L|332:323,1,89.9999999999999,0|0,3:0|3:0,0:0:0:0:
256,276,52374,2,0,B|245:320|245:320|256:368,2,90,8|8|8,0:0|0:0|0:0,0:0:0:0:
256,184,53616,1,0,0:0:0:0:
192,120,54030,6,0,P|144:120|104:140,1,89.9999999999999,4|8,0:0|0:0,0:0:0:0:
60,216,54857,2,0,L|76:308,1,89.9999999999999,0|8,3:0|0:0,0:0:0:0:
148,356,55685,1,0,3:0:0:0:
220,300,56099,1,8,0:0:0:0:
284,360,56512,2,0,P|328:360|372:344,1,89.9999999999999,0|8,3:0|0:0,0:0:0:0:
416,268,57340,6,0,L|508:284,2,89.9999999999999,4|8|0,0:0|0:0|3:0,0:0:0:0:
328,252,58581,1,8,0:0:0:0:
300,168,58995,1,0,3:0:0:0:
364,104,59409,1,8,0:0:0:0:
276,80,59823,2,0,L|176:88,1,89.9999999999999,0|8,3:0|0:0,0:0:0:0:
116,32,60650,5,4,0:0:0:0:
32,68,61064,1,8,0:0:0:0:
16,156,61478,2,0,L|32:248,1,89.9999999999999,0|8,3:0|0:0,0:0:0:0:
104,296,62305,2,0,P|152:296|196:308,1,89.9999999999999,0|8,3:0|0:0,0:0:0:0:
260,364,63133,1,0,3:0:0:0:
280,276,63547,1,8,0:0:0:0:
304,188,63961,6,0,L|292:96,2,89.9999999999999,4|8|0,0:0|0:0|3:0,0:0:0:0:
280,276,65202,1,8,0:0:0:0:
192,252,65616,2,0,P|148:264|104:264,2,89.9999999999999,0|8|0,3:0|0:0|3:0,0:0:0:0:
216,164,66857,1,8,0:0:0:0:
284,108,67271,6,0,L|376:120,1,89.9999999999999,4|8,0:0|0:0,0:0:0:0:
372,208,68099,2,0,L|280:220,1,89.9999999999999,0|8,3:0|0:0,0:0:0:0:
216,164,68926,2,0,P|128:164|80:240,1,180,0|0,3:0|3:0,0:0:0:0:
122,314,70167,1,8,0:0:0:0:
204,280,70581,6,0,L|296:280,1,89.9999999999999,4|4,0:0|0:0,0:0:0:0:
356,348,71409,2,0,L|448:348,1,89.9999999999999,4|4,0:0|0:0,0:0:0:0:
504,280,72236,2,0,B|488:216|528:216|504:140,2,135,12|8|8,0:0|0:0|0:0,0:0:0:0:
416,260,73892,2,0,L|256:260,1,157.5,8|8,0:0|0:0,0:0:0:0:
80,352,75547,6,0,L|80:262,1,89.9999999999999,4|8,0:0|0:0,0:0:0:0:
16,198,76374,1,0,3:0:0:0:
16,107,76788,1,8,0:0:0:0:
79,43,77202,2,0,P|123:44|165:59,1,89.9999999999999,0|8,3:0|0:0,0:0:0:0:
228,124,78029,2,0,P|272:108|320:108,1,89.9999999999999,0|8,3:0|0:0,0:0:0:0:
400,136,78857,1,8,0:0:0:0:
448,212,79271,6,0,L|436:304,1,89.9999999999999,0|8,3:0|0:0,0:0:0:0:
372,364,80098,2,0,L|280:352,1,89.9999999999999,0|8,3:0|0:0,0:0:0:0:
218,288,80926,1,0,3:0:0:0:
132,308,81339,1,0,3:0:0:0:
56,260,81753,2,0,P|48:212|56:168,1,89.9999999999999,0|8,3:0|0:0,0:0:0:0:
116,104,82581,6,0,B|188:104|188:104|216:124|216:124|292:124,1,180,4|0,0:0|3:0,0:0:0:0:
379,124,83822,2,0,B|379:197|379:197|359:225|359:225|359:297,1,180,4|0,0:0|3:0,0:0:0:0:
422,361,85063,5,4,0:0:0:0:
256,192,85166,12,0,89200,0:0:0:0:
