osu file format v14

[General]
AudioFilename: audio.mp3
AudioLeadIn: 0
PreviewTime: 54169
Countdown: 0
SampleSet: Normal
StackLeniency: 0.7
Mode: 1
LetterboxInBreaks: 0
WidescreenStoryboard: 0

[Editor]
DistanceSpacing: 2.5
BeatDivisor: 4
GridSize: 32
TimelineZoom: 2.1

[Metadata]
Title:a e i u e o ao!!
TitleUnicode:あ・え・い・う・え・お・あお!!
Artist:Gekidan Hitotose
ArtistUnicode:劇団ひととせ
Creator:_yu68
Version:Oni
Source:ひなこのーと
Tags:hinako note opening aeiueoao M・A・O mao 富田美憂 tomita miyu 小倉唯 ogura yui 東城日沙子 tojou hisako 高野麻里佳 kouno marika
BeatmapID:1272259
BeatmapSetID:602313

[Difficulty]
HPDrainRate:6
CircleSize:5
OverallDifficulty:6
ApproachRate:5
SliderMultiplier:1.4
SliderTickRate:1

[Events]
//Background and Video events
0,0,"BG.jpg",0,0
//Break Periods
//Storyboard Layer 0 (Background)
//Storyboard Layer 1 (Fail)
//Storyboard Layer 2 (Pass)
//Storyboard Layer 3 (Foreground)
//Storyboard Sound Samples

[TimingPoints]
790,413.793103448276,4,1,0,80,1,0
9066,413.793103448276,4,1,0,80,1,0
10721,413.793103448276,6,1,0,80,1,0
13203,413.793103448276,4,1,0,80,1,0
14859,413.793103448276,5,1,0,80,1,0
16928,413.793103448276,4,1,0,80,1,0
23548,413.793103448276,5,1,0,80,1,0
25617,413.793103448276,4,1,0,80,1,0
28928,413.793103448276,5,1,0,80,1,0
30996,413.793103448276,4,1,0,80,1,0
32547,-100,4,1,0,70,0,0
32652,413.793103448276,3,1,0,70,1,0
36377,413.793103448276,5,1,0,70,1,0
38342,-100,5,1,0,80,0,0
38446,413.793103448276,4,1,0,80,1,0
41756,413.793103448276,3,1,0,80,1,0
44238,413.793103448276,4,1,0,80,1,0
54065,-100,4,1,0,90,0,0
54169,-100,4,1,0,90,0,1
75582,-100,4,1,0,80,0,1
75686,-100,4,1,0,80,0,0
77341,413.793103448276,5,1,0,80,1,0
79409,413.793103448276,4,1,0,80,1,0
82720,413.793103448276,3,1,0,80,1,0
85202,413.793103448276,4,1,0,80,1,0
85305,-100,4,1,0,50,0,0

[HitObjects]
256,192,790,5,4,0:0:0:0:
256,192,996,1,0,0:0:0:0:
256,192,1100,1,0,0:0:0:0:
256,192,1203,1,8,0:0:0:0:
256,192,1410,1,8,0:0:0:0:
256,192,1617,1,4,0:0:0:0:
256,192,2031,1,8,0:0:0:0:
256,192,2445,1,4,0:0:0:0:
256,192,2652,1,4,0:0:0:0:
256,192,2858,1,12,0:0:0:0:
256,192,3065,1,12,0:0:0:0:
256,192,3272,1,4,0:0:0:0:
256,192,3479,1,4,0:0:0:0:
256,192,3686,1,12,0:0:0:0:
256,192,4100,1,4,0:0:0:0:
256,192,4927,1,8,0:0:0:0:
256,192,5548,1,0,0:0:0:0:
256,192,5755,1,4,0:0:0:0:
256,192,6376,1,8,0:0:0:0:
256,192,6583,1,0,0:0:0:0:
256,192,6790,1,0,0:0:0:0:
256,192,6893,1,0,0:0:0:0:
256,192,6996,1,8,0:0:0:0:
256,192,7410,1,0,0:0:0:0:
256,192,7617,1,0,0:0:0:0:
256,192,7824,1,8,0:0:0:0:
256,192,7927,1,8,0:0:0:0:
256,192,8134,1,8,0:0:0:0:
256,192,8238,1,0,0:0:0:0:
256,192,8445,1,0,0:0:0:0:
256,192,8652,1,8,0:0:0:0:
256,192,8755,1,8,0:0:0:0:
256,192,8858,1,8,0:0:0:0:
256,192,9066,1,0,0:0:0:0:
256,192,9272,1,8,0:0:0:0:
256,192,9479,1,0,0:0:0:0:
256,192,9583,1,8,0:0:0:0:
256,192,9790,1,8,0:0:0:0:
256,192,9893,1,0,0:0:0:0:
256,192,10203,1,8,0:0:0:0:
256,192,10410,1,8,0:0:0:0:
256,192,10514,1,0,0:0:0:0:
256,192,10721,1,0,0:0:0:0:
256,192,10824,1,8,0:0:0:0:
256,192,11031,1,8,0:0:0:0:
256,192,11134,1,0,0:0:0:0:
256,192,11238,1,8,0:0:0:0:
256,192,11445,1,8,0:0:0:0:
256,192,11548,1,0,0:0:0:0:
256,192,11652,1,0,0:0:0:0:
256,192,11755,1,8,0:0:0:0:
256,192,11962,1,0,0:0:0:0:
256,192,12065,1,8,0:0:0:0:
256,192,12272,1,12,0:0:0:0:
256,192,12789,1,8,0:0:0:0:
256,192,13203,5,0,0:0:0:0:
256,192,13409,1,0,0:0:0:0:
256,192,13513,1,0,0:0:0:0:
256,192,13616,1,8,0:0:0:0:
256,192,13823,1,8,0:0:0:0:
256,192,13927,1,8,0:0:0:0:
256,192,14030,1,0,0:0:0:0:
256,192,14237,1,8,0:0:0:0:
256,192,14340,1,0,0:0:0:0:
256,192,14547,1,0,0:0:0:0:
256,192,14651,1,8,0:0:0:0:
256,192,14859,1,0,0:0:0:0:
256,192,14962,1,8,0:0:0:0:
256,192,15065,1,0,0:0:0:0:
256,192,15272,1,8,0:0:0:0:
256,192,15479,1,0,0:0:0:0:
256,192,15583,1,0,0:0:0:0:
256,192,15686,1,8,0:0:0:0:
256,192,15893,1,0,0:0:0:0:
256,192,15996,1,8,0:0:0:0:
256,192,16203,1,8,0:0:0:0:
256,192,16307,1,0,0:0:0:0:
256,192,16410,1,0,0:0:0:0:
256,192,16514,1,8,0:0:0:0:
256,192,16617,1,8,0:0:0:0:
256,192,16721,1,0,0:0:0:0:
256,192,16928,1,8,0:0:0:0:
256,192,17134,1,0,0:0:0:0:
256,192,17238,1,0,0:0:0:0:
256,192,17341,1,8,0:0:0:0:
256,192,17548,1,0,0:0:0:0:
256,192,17652,1,8,0:0:0:0:
256,192,17755,1,0,0:0:0:0:
256,192,17962,1,8,0:0:0:0:
256,192,18065,1,0,0:0:0:0:
256,192,18272,1,0,0:0:0:0:
256,192,18376,1,8,0:0:0:0:
256,192,18583,1,0,0:0:0:0:
256,192,18686,1,8,0:0:0:0:
256,192,18790,1,0,0:0:0:0:
256,192,18893,1,0,0:0:0:0:
256,192,18996,1,8,0:0:0:0:
256,192,19100,1,0,0:0:0:0:
256,192,19203,1,8,0:0:0:0:
256,192,19307,1,8,0:0:0:0:
256,192,19410,1,0,0:0:0:0:
256,192,19617,1,8,0:0:0:0:
256,192,19721,1,0,0:0:0:0:
256,192,19824,1,8,0:0:0:0:
256,192,20238,5,0,0:0:0:0:
256,192,20445,1,8,0:0:0:0:
256,192,20548,1,8,0:0:0:0:
256,192,20652,1,0,0:0:0:0:
256,192,20859,1,8,0:0:0:0:
256,192,21065,1,0,0:0:0:0:
256,192,21272,1,8,0:0:0:0:
256,192,21376,1,8,0:0:0:0:
256,192,21686,1,0,0:0:0:0:
256,192,21790,1,0,0:0:0:0:
256,192,21893,1,0,0:0:0:0:
256,192,22100,1,8,0:0:0:0:
256,192,22307,1,0,0:0:0:0:
256,192,22514,1,0,0:0:0:0:
256,192,22617,1,8,0:0:0:0:
256,192,22721,1,0,0:0:0:0:
256,192,22928,1,8,0:0:0:0:
256,192,23031,1,8,0:0:0:0:
256,192,23238,1,0,0:0:0:0:
256,192,23341,1,8,0:0:0:0:
256,192,23445,1,8,0:0:0:0:
256,192,23548,1,0,0:0:0:0:
256,192,23858,1,8,0:0:0:0:
256,192,24065,1,8,0:0:0:0:
256,192,24168,1,0,0:0:0:0:
256,192,24272,1,0,0:0:0:0:
256,192,24375,1,8,0:0:0:0:
256,192,24582,1,8,0:0:0:0:
256,192,24789,1,0,0:0:0:0:
256,192,24892,1,8,0:0:0:0:
256,192,24996,1,8,0:0:0:0:
256,192,25203,1,4,0:0:0:0:
256,192,25410,1,4,0:0:0:0:
256,192,25617,1,8,0:0:0:0:
256,192,25823,1,0,0:0:0:0:
256,192,25927,1,8,0:0:0:0:
256,192,26030,1,0,0:0:0:0:
256,192,26237,1,8,0:0:0:0:
256,192,26444,1,0,0:0:0:0:
256,192,26651,1,0,0:0:0:0:
256,192,26754,1,8,0:0:0:0:
256,192,27065,1,0,0:0:0:0:
256,192,27168,1,0,0:0:0:0:
256,192,27272,1,0,0:0:0:0:
256,192,27479,1,8,0:0:0:0:
256,192,27685,1,0,0:0:0:0:
256,192,27789,1,0,0:0:0:0:
256,192,27892,1,8,0:0:0:0:
256,192,27996,1,8,0:0:0:0:
256,192,28099,1,0,0:0:0:0:
256,192,28306,1,0,0:0:0:0:
256,192,28410,1,8,0:0:0:0:
256,192,28617,1,0,0:0:0:0:
256,192,28720,1,8,0:0:0:0:
256,192,28823,1,8,0:0:0:0:
256,192,28928,1,0,0:0:0:0:
256,192,29238,1,8,0:0:0:0:
256,192,29445,1,8,0:0:0:0:
256,192,29548,1,0,0:0:0:0:
256,192,29652,1,0,0:0:0:0:
256,192,29755,1,8,0:0:0:0:
256,192,29962,1,8,0:0:0:0:
256,192,30065,1,8,0:0:0:0:
256,192,30169,1,0,0:0:0:0:
256,192,30376,1,8,0:0:0:0:
256,192,30583,1,4,0:0:0:0:
256,192,30790,1,4,0:0:0:0:
256,192,31616,1,0,0:0:0:0:
256,192,31823,1,0,0:0:0:0:
256,192,32237,1,8,0:0:0:0:
256,192,32651,5,0,0:0:0:0:
256,192,33272,1,0,0:0:0:0:
256,192,33479,1,8,0:0:0:0:
256,192,33789,1,8,0:0:0:0:
256,192,33893,1,0,0:0:0:0:
256,192,34307,1,8,0:0:0:0:
256,192,34514,1,0,0:0:0:0:
256,192,34720,1,8,0:0:0:0:
256,192,35031,1,8,0:0:0:0:
256,192,35134,1,0,0:0:0:0:
256,192,35341,1,8,0:0:0:0:
256,192,35755,1,0,0:0:0:0:
256,192,35962,1,8,0:0:0:0:
256,192,36272,1,8,0:0:0:0:
256,192,36376,1,0,0:0:0:0:
256,192,36583,1,8,0:0:0:0:
256,192,36790,1,8,0:0:0:0:
256,192,36894,1,8,0:0:0:0:
256,192,36997,1,0,0:0:0:0:
256,192,37204,1,8,0:0:0:0:
256,192,37514,1,8,0:0:0:0:
256,192,37618,1,0,0:0:0:0:
256,192,37721,1,8,0:0:0:0:
256,192,37825,1,8,0:0:0:0:
256,192,38445,1,0,0:0:0:0:
256,192,38652,1,0,0:0:0:0:
256,192,38859,1,8,0:0:0:0:
256,192,39066,1,8,0:0:0:0:
256,192,39170,1,8,0:0:0:0:
256,192,39273,1,0,0:0:0:0:
256,192,39480,1,0,0:0:0:0:
256,192,39687,1,8,0:0:0:0:
256,192,39894,1,0,0:0:0:0:
256,192,39997,1,0,0:0:0:0:
256,192,40101,1,0,0:0:0:0:
256,192,40308,1,8,0:0:0:0:
256,192,40514,1,8,0:0:0:0:
256,192,40721,1,8,0:0:0:0:
256,192,40825,1,0,0:0:0:0:
256,192,40928,1,0,0:0:0:0:
256,192,41135,1,0,0:0:0:0:
256,192,41342,1,8,0:0:0:0:
256,192,41549,1,8,0:0:0:0:
256,192,41652,1,8,0:0:0:0:
256,192,41756,1,0,0:0:0:0:
256,192,41893,1,8,0:0:0:0:
256,192,42031,1,8,0:0:0:0:
256,192,42169,1,0,0:0:0:0:
256,192,42307,1,8,0:0:0:0:
256,192,42445,1,8,0:0:0:0:
256,192,42583,1,0,0:0:0:0:
256,192,42997,1,0,0:0:0:0:
256,192,43135,1,8,0:0:0:0:
256,192,43273,1,8,0:0:0:0:
256,192,43411,1,0,0:0:0:0:
256,192,43549,1,0,0:0:0:0:
256,192,43687,1,0,0:0:0:0:
256,192,43824,1,8,0:0:0:0:
256,192,44238,5,4,0:0:0:0:
256,192,44651,1,0,0:0:0:0:
256,192,44858,1,8,0:0:0:0:
256,192,44962,1,8,0:0:0:0:
256,192,45065,1,0,0:0:0:0:
256,192,45272,1,0,0:0:0:0:
256,192,45479,1,8,0:0:0:0:
256,192,45686,1,8,0:0:0:0:
256,192,45893,1,0,0:0:0:0:
256,192,46100,1,0,0:0:0:0:
256,192,46203,1,0,0:0:0:0:
256,192,46306,1,8,0:0:0:0:
256,192,46513,1,0,0:0:0:0:
256,192,46720,1,0,0:0:0:0:
256,192,46927,1,8,0:0:0:0:
256,192,47031,1,0,0:0:0:0:
256,192,47134,1,8,0:0:0:0:
256,192,47341,1,8,0:0:0:0:
256,192,47548,1,0,0:0:0:0:
256,192,47755,1,0,0:0:0:0:
256,192,47858,1,0,0:0:0:0:
256,192,47962,1,8,0:0:0:0:
256,192,48169,1,8,0:0:0:0:
256,192,48272,1,8,0:0:0:0:
256,192,48375,1,0,0:0:0:0:
256,192,48479,1,0,0:0:0:0:
256,192,48582,1,0,0:0:0:0:
256,192,48789,1,8,0:0:0:0:
256,192,48996,1,0,0:0:0:0:
256,192,49100,1,8,0:0:0:0:
256,192,49203,1,0,0:0:0:0:
256,192,49410,1,0,0:0:0:0:
256,192,49617,1,8,0:0:0:0:
256,192,49824,1,8,0:0:0:0:
256,192,49927,1,8,0:0:0:0:
256,192,50031,1,0,0:0:0:0:
256,192,50238,1,0,0:0:0:0:
256,192,50444,1,8,0:0:0:0:
256,192,50651,1,0,0:0:0:0:
256,192,50755,1,8,0:0:0:0:
256,192,50858,1,0,0:0:0:0:
256,192,50962,1,0,0:0:0:0:
256,192,51065,1,8,0:0:0:0:
256,192,51272,1,0,0:0:0:0:
256,192,51479,1,8,0:0:0:0:
256,192,51582,1,8,0:0:0:0:
256,192,51686,1,0,0:0:0:0:
256,192,51893,1,0,0:0:0:0:
256,192,52100,1,8,0:0:0:0:
256,192,52513,1,4,0:0:0:0:
256,192,52720,1,0,0:0:0:0:
256,192,52927,1,12,0:0:0:0:
256,192,53134,1,8,0:0:0:0:
256,192,53341,1,4,0:0:0:0:
256,192,53548,1,0,0:0:0:0:
256,192,53755,1,12,0:0:0:0:
256,192,54169,5,4,0:0:0:0:
256,192,54479,1,8,0:0:0:0:
256,192,54582,1,0,0:0:0:0:
256,192,54686,1,0,0:0:0:0:
256,192,54789,1,8,0:0:0:0:
256,192,54996,1,0,0:0:0:0:
256,192,55100,1,8,0:0:0:0:
256,192,55306,1,8,0:0:0:0:
256,192,55410,1,0,0:0:0:0:
256,192,55617,1,8,0:0:0:0:
256,192,55720,1,8,0:0:0:0:
256,192,55824,1,0,0:0:0:0:
256,192,56031,1,8,0:0:0:0:
256,192,56238,1,0,0:0:0:0:
256,192,56341,1,0,0:0:0:0:
256,192,56548,1,8,0:0:0:0:
256,192,56651,1,0,0:0:0:0:
256,192,56858,1,8,0:0:0:0:
256,192,56962,1,8,0:0:0:0:
256,192,57065,1,0,0:0:0:0:
256,192,57272,1,0,0:0:0:0:
256,192,57375,1,8,0:0:0:0:
256,192,57479,1,0,0:0:0:0:
256,192,57686,1,8,0:0:0:0:
256,192,57789,1,0,0:0:0:0:
256,192,57893,1,8,0:0:0:0:
256,192,57996,1,8,0:0:0:0:
256,192,58203,1,8,0:0:0:0:
256,192,58306,1,0,0:0:0:0:
256,192,58513,1,0,0:0:0:0:
256,192,58720,1,8,0:0:0:0:
256,192,58824,1,8,0:0:0:0:
256,192,58927,1,0,0:0:0:0:
256,192,59031,1,0,0:0:0:0:
256,192,59134,1,8,0:0:0:0:
256,192,59341,1,0,0:0:0:0:
256,192,59548,1,8,0:0:0:0:
256,192,59651,1,0,0:0:0:0:
256,192,59858,1,0,0:0:0:0:
256,192,59962,1,8,0:0:0:0:
256,192,60169,1,0,0:0:0:0:
256,192,60375,1,8,0:0:0:0:
256,192,60582,1,8,0:0:0:0:
256,192,60686,1,8,0:0:0:0:
256,192,60789,1,0,0:0:0:0:
256,192,61100,1,8,0:0:0:0:
256,192,61203,1,0,0:0:0:0:
256,192,61306,1,0,0:0:0:0:
256,192,61410,1,8,0:0:0:0:
256,192,61513,1,0,0:0:0:0:
256,192,61720,1,0,0:0:0:0:
256,192,61824,1,8,0:0:0:0:
256,192,62031,1,0,0:0:0:0:
256,192,62238,1,8,0:0:0:0:
256,192,62341,1,8,0:0:0:0:
256,192,62444,1,0,0:0:0:0:
256,192,62651,1,8,0:0:0:0:
256,192,62858,1,0,0:0:0:0:
256,192,62962,1,8,0:0:0:0:
256,192,63169,1,0,0:0:0:0:
256,192,63272,1,0,0:0:0:0:
256,192,63375,1,8,0:0:0:0:
256,192,63582,1,8,0:0:0:0:
256,192,63686,1,0,0:0:0:0:
256,192,63893,1,8,0:0:0:0:
256,192,63996,1,8,0:0:0:0:
256,192,64100,1,0,0:0:0:0:
256,192,64203,1,0,0:0:0:0:
256,192,64306,1,0,0:0:0:0:
256,192,64513,1,8,0:0:0:0:
256,192,64720,1,0,0:0:0:0:
256,192,64824,1,0,0:0:0:0:
256,192,64927,1,8,0:0:0:0:
256,192,65134,1,8,0:0:0:0:
256,192,65341,1,0,0:0:0:0:
256,192,65548,1,8,0:0:0:0:
256,192,65651,1,8,0:0:0:0:
256,192,65755,1,0,0:0:0:0:
256,192,65858,1,8,0:0:0:0:
256,192,65962,1,0,0:0:0:0:
256,192,66169,1,8,0:0:0:0:
256,192,66375,1,0,0:0:0:0:
256,192,66479,1,0,0:0:0:0:
256,192,66582,1,8,0:0:0:0:
256,192,66789,1,0,0:0:0:0:
256,192,66996,1,8,0:0:0:0:
256,192,67203,1,8,0:0:0:0:
256,192,67306,1,8,0:0:0:0:
256,192,67410,1,0,0:0:0:0:
256,192,67720,1,0,0:0:0:0:
256,192,67824,1,8,0:0:0:0:
256,192,68031,1,0,0:0:0:0:
256,192,68134,1,8,0:0:0:0:
256,192,68238,1,0,0:0:0:0:
256,192,68444,1,0,0:0:0:0:
256,192,68651,1,8,0:0:0:0:
256,192,68858,1,8,0:0:0:0:
256,192,68962,1,8,0:0:0:0:
256,192,69065,1,0,0:0:0:0:
256,192,69272,1,8,0:0:0:0:
256,192,69479,1,0,0:0:0:0:
256,192,69686,1,8,0:0:0:0:
256,192,69893,1,0,0:0:0:0:
256,192,69996,1,0,0:0:0:0:
256,192,70100,1,8,0:0:0:0:
256,192,70203,1,8,0:0:0:0:
256,192,70306,1,0,0:0:0:0:
256,192,70410,1,8,0:0:0:0:
256,192,70617,1,8,0:0:0:0:
256,192,70720,1,0,0:0:0:0:
256,192,70927,1,8,0:0:0:0:
256,192,71134,1,0,0:0:0:0:
256,192,71238,1,8,0:0:0:0:
256,192,71444,1,8,0:0:0:0:
256,192,71548,1,0,0:0:0:0:
256,192,71755,1,8,0:0:0:0:
256,192,71962,1,0,0:0:0:0:
256,192,72065,1,8,0:0:0:0:
256,192,72272,1,8,0:0:0:0:
256,192,72375,1,0,0:0:0:0:
256,192,72479,1,8,0:0:0:0:
256,192,72686,1,0,0:0:0:0:
256,192,72789,1,8,0:0:0:0:
256,192,72893,1,8,0:0:0:0:
256,192,72996,1,0,0:0:0:0:
256,192,73100,1,8,0:0:0:0:
256,192,73306,1,0,0:0:0:0:
256,192,73410,1,8,0:0:0:0:
256,192,73513,1,8,0:0:0:0:
256,192,73617,1,0,0:0:0:0:
256,192,73824,1,0,0:0:0:0:
256,192,73927,1,8,0:0:0:0:
256,192,74031,1,0,0:0:0:0:
256,192,74134,1,0,0:0:0:0:
256,192,74238,1,8,0:0:0:0:
256,192,74341,1,8,0:0:0:0:
256,192,74444,1,0,0:0:0:0:
256,192,74548,1,8,0:0:0:0:
256,192,74755,1,12,0:0:0:0:
256,192,75272,1,8,0:0:0:0:
256,192,75686,5,0,0:0:0:0:
256,192,75893,1,0,0:0:0:0:
256,192,75996,1,0,0:0:0:0:
256,192,76100,1,8,0:0:0:0:
256,192,76306,1,8,0:0:0:0:
256,192,76410,1,8,0:0:0:0:
256,192,76513,1,0,0:0:0:0:
256,192,76720,1,8,0:0:0:0:
256,192,76824,1,0,0:0:0:0:
256,192,77031,1,0,0:0:0:0:
256,192,77134,1,8,0:0:0:0:
256,192,77341,1,0,0:0:0:0:
256,192,77444,1,8,0:0:0:0:
256,192,77547,1,0,0:0:0:0:
256,192,77754,1,8,0:0:0:0:
256,192,77858,1,8,0:0:0:0:
256,192,77961,1,0,0:0:0:0:
256,192,78065,1,0,0:0:0:0:
256,192,78168,1,8,0:0:0:0:
256,192,78375,1,0,0:0:0:0:
256,192,78478,1,8,0:0:0:0:
256,192,78685,1,8,0:0:0:0:
256,192,78789,1,0,0:0:0:0:
256,192,78892,1,0,0:0:0:0:
256,192,78996,1,8,0:0:0:0:
256,192,79099,1,8,0:0:0:0:
256,192,79203,1,0,0:0:0:0:
256,192,79409,1,8,0:0:0:0:
256,192,79615,1,0,0:0:0:0:
256,192,79822,1,8,0:0:0:0:
256,192,79926,1,0,0:0:0:0:
256,192,80029,1,8,0:0:0:0:
256,192,80133,1,8,0:0:0:0:
256,192,80236,1,0,0:0:0:0:
256,192,80443,1,8,0:0:0:0:
256,192,80546,1,0,0:0:0:0:
256,192,80753,1,0,0:0:0:0:
256,192,80857,1,8,0:0:0:0:
256,192,81064,1,0,0:0:0:0:
256,192,81167,1,0,0:0:0:0:
256,192,81271,1,8,0:0:0:0:
256,192,81374,1,0,0:0:0:0:
256,192,81477,1,8,0:0:0:0:
256,192,81581,1,8,0:0:0:0:
256,192,81684,1,0,0:0:0:0:
256,192,81788,1,8,0:0:0:0:
256,192,81891,1,0,0:0:0:0:
256,192,82098,1,8,0:0:0:0:
256,192,82202,1,0,0:0:0:0:
256,192,82305,1,8,0:0:0:0:
256,192,82719,1,0,0:0:0:0:
256,192,82857,1,8,0:0:0:0:
256,192,82995,1,8,0:0:0:0:
256,192,83133,1,0,0:0:0:0:
256,192,83271,1,8,0:0:0:0:
256,192,83409,1,8,0:0:0:0:
256,192,83547,1,0,0:0:0:0:
256,192,83961,1,0,0:0:0:0:
256,192,84099,1,8,0:0:0:0:
256,192,84237,1,8,0:0:0:0:
256,192,84375,1,0,0:0:0:0:
256,192,84513,1,0,0:0:0:0:
256,192,84651,1,0,0:0:0:0:
256,192,84788,1,8,0:0:0:0:
256,192,85202,1,12,0:0:0:0:
256,192,85408,12,0,89339,0:0:0:0:
