osu file format v14

[General]
AudioFilename: audio.mp3
AudioLeadIn: 0
PreviewTime: 52374
Countdown: 0
SampleSet: Soft
StackLeniency: 0.7
Mode: 0
LetterboxInBreaks: 0
WidescreenStoryboard: 1

[Editor]
Bookmarks: 654,13067,20101,32514,54030,70581,75547
DistanceSpacing: 1.3
BeatDivisor: 4
GridSize: 4
TimelineZoom: 2.099999

[Metadata]
Title:a e i u e o ao!!
TitleUnicode:あ・え・い・う・え・お・あお!!
Artist:Gekidan Hitotose
ArtistUnicode:劇団ひととせ
Creator:Uta
Version:Hard
Source:ひなこのーと
Tags:Opening Hinako Note 桜木ひな子 Sakuragi M・A・O 市道真央 Ichimichi Mao 夏川くいな Natsukawa Kuina 富田美憂 Tomita Miyu 柊 真雪 Hiiragi Mayuki 小倉唯 Ogura Yui 萩野千秋 Hagino Chiaki 東城日沙子 Hisako Tojo 中島ゆあ Nakajima Yua 高野麻里佳 Kouno Marika Frey Surono
BeatmapID:1292021
BeatmapSetID:610030

[Difficulty]
HPDrainRate:6
CircleSize:3.5
OverallDifficulty:6
ApproachRate:8
SliderMultiplier:1.4
SliderTickRate:1

[Events]
//Background and Video events
0,0,"BG3.png",0,0
//Break Periods
//Storyboard Layer 0 (Background)
//Storyboard Layer 1 (Fail)
//Storyboard Layer 2 (Pass)
//Storyboard Layer 3 (Foreground)
//Storyboard Sound Samples

[TimingPoints]
638,413.793103448276,4,2,0,60,1,0
3948,-100,4,2,0,50,0,0
5603,-111.111111111111,4,2,0,50,0,0
7258,-100,4,2,0,50,0,0
8913,-100,4,2,0,50,0,0
9327,-76.9230769230769,4,2,0,50,0,0
11396,-100,4,2,0,50,0,0
12638,-83.3333333333333,4,2,0,50,0,0
13051,-100,4,2,0,60,0,0
15120,-100,4,2,0,60,0,0
16362,-100,4,2,0,60,0,0
20086,-100,4,2,0,45,0,0
32086,-125,4,2,0,40,0,0
32500,-100,4,2,0,40,0,0
38293,-100,4,2,0,50,0,0
41603,-100,4,2,0,60,0,0
44086,-100,4,2,0,60,0,0
53603,-83.3333333333333,4,2,0,60,0,0
54017,-100,4,2,0,60,0,1
58569,-100,4,2,0,60,0,1
67258,-100,4,2,0,60,0,0
75120,-83.3333333333333,4,2,0,40,0,0
75534,-100,4,2,0,40,0,0
85051,-100,4,2,0,25,0,0
85155,-100,4,2,0,10,0,0
89189,-100,4,2,0,5,0,0

[Colours]
Combo1 : 255,128,128
Combo2 : 0,128,255
Combo3 : 64,0,128
Combo4 : 255,0,128

[HitObjects]
226,303,638,5,2,0:0:0:0:
218,94,1465,1,2,0:0:0:0:
218,94,1879,2,0,L|222:198,1,105,2|0,0:0|0:0,0:0:0:0:
248,228,2293,6,0,P|282:227|315:214,1,70,10|0,0:0|1:0,0:0:0:0:
412,201,2706,2,0,P|395:231|391:266,1,70,8|0,0:0|1:0,0:0:0:0:
314,341,3120,2,0,P|279:342|246:331,1,70,8|0,0:0|1:0,0:0:0:0:
153,225,3534,2,0,P|93:233|49:273,1,105,8|0,0:0|0:0,0:0:0:0:
23,332,3948,6,0,L|19:192,1,140,4|0,0:0|0:0,0:0:0:0:
76,120,4569,1,0,0:0:0:0:
166,122,4775,2,0,P|182:162|178:210,1,70
202,277,5189,2,0,P|243:259|272:258,1,70,8|0,0:0|0:0,0:0:0:0:
333,207,5603,2,0,P|405:193|447:222,1,125.999996154785,4|2,0:0|0:0,0:0:0:0:
378,370,6431,2,0,P|316:376|265:341,1,125.999996154785,4|2,0:0|0:0,0:0:0:0:
195,173,7258,6,0,P|161:180|121:179,1,70,2|0,0:0|0:0,0:0:0:0:
50,225,7672,1,8,0:0:0:0:
50,225,7775,1,0,0:0:0:0:
50,225,7879,1,0,0:0:0:0:
68,314,8086,2,0,P|99:298|134:294,1,70,2|0,0:0|0:0,0:0:0:0:
225,291,8500,1,8,0:0:0:0:
181,371,8706,1,0,0:0:0:0:
181,371,8913,5,0,1:0:0:0:
309,302,9327,1,2,0:0:0:0:
208,196,9741,2,0,P|143:189|92:241,2,136.499993751526,0|2|0,0:0|0:0|0:0,0:0:0:0:
267,92,10569,1,0,0:0:0:0:
267,92,10672,2,0,P|192:132|144:118,1,136.499993751526,0|2,0:0|0:0,0:0:0:0:
353,47,11396,2,8,L|350:12,3,35,8|2|2|8,0:0|0:0|0:0|0:0,0:0:0:0:
382,130,11810,2,8,L|376:170,3,35,8|2|2|8,0:0|0:0|0:0|0:0,0:0:0:0:
372,200,12638,6,0,P|305:189|245:235,1,125.999996154785,2|0,0:0|0:0,0:0:0:0:
252,248,13051,6,8,L|248:284,3,35,8|0|0|0,0:0|0:0|0:0|0:0,0:0:0:0:
260,316,13465,2,8,L|256:360,3,35,8|0|8|0,0:0|0:0|0:0|0:0,0:0:0:0:
232,376,13879,2,0,P|163:371|88:364,1,140,2|0,0:0|0:0,0:0:0:0:
80,280,14500,1,0,0:0:0:0:
156,248,14706,6,8,L|159:213,3,35,8|0|8|0,0:0|0:0|0:0|0:0,0:0:0:0:
144,172,15120,2,8,L|147:137,3,35,8|0|8|0,0:0|0:0|0:0|0:0,0:0:0:0:
164,100,15534,2,0,P|232:104|308:112,1,140,2|2,0:0|0:0,0:0:0:0:
365,179,16155,1,8,0:0:0:0:
385,180,16258,1,8,0:0:0:0:
405,182,16362,1,8,0:0:0:0:
424,183,16465,1,8,0:0:0:0:
444,185,16569,1,2,0:0:0:0:
494,260,16775,6,0,P|449:311|381:313,1,140,4|0,0:0|0:0,0:0:0:0:
291,292,17396,1,0,0:0:0:0:
214,341,17603,2,0,L|142:337,1,70,4|0,0:0|0:0,0:0:0:0:
88,288,18017,2,0,L|157:291,1,70,4|0,0:0|0:0,0:0:0:0:
229,224,18431,2,8,L|223:183,3,35,8|2|2|8,0:0|0:0|0:0|0:0,0:0:0:0:
291,292,18845,2,8,L|286:327,3,35,8|2|2|8,0:0|0:0|0:0|0:0,0:0:0:0:
357,246,19258,2,0,P|357:171|341:102,1,140,2|0,0:0|0:0,0:0:0:0:
273,113,20086,6,0,P|311:108|373:109,1,70,0|8,0:0|0:0,0:0:0:0:
423,121,20499,1,2,0:0:0:0:
429,289,20706,1,8,0:0:0:0:
421,301,20810,1,8,0:0:0:0:
413,313,20913,2,0,P|317:317|273:265,1,140,4|0,0:0|0:0,0:0:0:0:
225,224,21534,5,2,0:0:0:0:
134,232,21741,2,0,P|136:278|149:323,1,70,2|0,0:0|0:0,0:0:0:0:
196,374,22155,2,0,P|164:358|129:358,1,70,2|0,0:0|0:0,0:0:0:0:
47,319,22569,2,0,B|39:259|39:259|47:207|47:207|47:171,1,140,4|0,0:0|0:0,0:0:0:0:
60,90,23189,5,8,0:0:0:0:
73,87,23293,1,8,0:0:0:0:
86,84,23396,2,0,B|119:66|189:64|234:80,1,140,4|0,0:0|0:0,0:0:0:0:
344,73,24017,1,8,0:0:0:0:
332,81,24120,1,8,0:0:0:0:
324,89,24224,2,0,P|300:117|288:157,1,70,2|0,0:0|0:0,0:0:0:0:
200,153,24638,2,0,P|212:181|218:220,1,70,2|0,0:0|0:0,0:0:0:0:
129,277,25051,1,8,0:0:0:0:
113,361,25258,1,8,0:0:0:0:
129,277,25465,6,0,P|137:233|136:196,1,70,2|0,0:0|0:0,0:0:0:0:
248,288,25879,2,0,P|236:328|240:368,1,70,2|8,0:0|0:0,0:0:0:0:
280,368,26189,1,8,0:0:0:0:
280,368,26293,2,0,P|332:368|384:360,1,105
492,252,26913,1,0,0:0:0:0:
468,250,27017,1,8,0:0:0:0:
439,247,27120,5,2,0:0:0:0:
351,270,27327,1,0,0:0:0:0:
285,206,27534,2,0,L|297:126,1,70,0|2,0:0|0:0,0:0:0:0:
255,44,27948,2,0,P|217:40|174:51,1,70
102,88,28362,2,0,P|62:90|22:76,1,70
96,188,28775,6,0,P|165:180|231:199,1,140,2|0,0:0|0:0,0:0:0:0:
292,120,29396,1,8,0:0:0:0:
312,124,29500,1,8,0:0:0:0:
332,128,29603,2,0,L|420:132,1,70,2|0,0:0|0:0,0:0:0:0:
452,208,30017,2,0,P|412:208|380:220,1,70,2|0,0:0|0:0,0:0:0:0:
304,304,30431,5,8,0:0:0:0:
264,220,30638,1,8,0:0:0:0:
384,84,31465,5,8,0:0:0:0:
344,168,31672,1,8,0:0:0:0:
279,299,32086,6,0,P|230:287|187:291,1,84,2|0,0:0|0:0,0:0:0:0:
164,336,32500,2,0,L|148:184,1,140,0|0,3:0|0:0,0:0:0:0:
216,136,33120,1,0,0:0:0:0:
308,124,33327,2,0,P|337:167|348:218,1,105,2|0,0:0|0:0,0:0:0:0:
388,244,33741,2,0,L|244:256,1,140,0|0,3:0|0:0,0:0:0:0:
136,340,34362,5,0,0:0:0:0:
56,320,34569,2,0,P|70:263|114:210,1,105,2|0,0:0|0:0,0:0:0:0:
68,196,34982,2,0,L|216:180,1,140,0|0,3:0|0:0,0:0:0:0:
252,252,35603,1,0,0:0:0:0:
336,236,35810,2,0,P|377:276|401:341,1,105,2|0,0:0|0:0,0:0:0:0:
416,356,36224,2,0,L|452:216,1,140,0|0,3:0|0:0,0:0:0:0:
396,92,36844,5,2,0:0:0:0:
312,104,37051,1,2,0:0:0:0:
228,268,37465,1,8,2:0:0:0:
228,268,37569,1,8,2:0:0:0:
228,268,37672,1,8,2:0:0:0:
324,192,38189,5,2,0:0:0:0:
324,192,38293,2,0,L|316:264,1,70,2|0,0:0|0:0,0:0:0:0:
400,248,38706,2,0,L|392:328,1,70
324,368,39120,2,0,L|244:360,1,70
300,288,39534,2,0,L|184:276,1,105,0|8,0:0|0:0,0:0:0:0:
172,244,39948,6,0,P|216:244|256:232,1,70,2|0,0:0|0:0,0:0:0:0:
320,212,40362,1,2,0:0:0:0:
488,116,40775,2,0,P|444:116|404:104,1,70,8|0,0:0|0:0,0:0:0:0:
340,84,41189,1,8,0:0:0:0:
148,132,41603,6,0,L|160:236,1,93.3333333333333,2|8,0:0|0:0,0:0:0:0:
204,284,42017,2,4,L|264:280,3,46.6666666666667,2|0|0|2,0:0|0:0|0:0|0:0,0:0:0:0:
400,204,42844,2,0,L|388:100,1,93.3333333333333,2|8,0:0|0:0,0:0:0:0:
344,52,43258,2,4,L|284:56,3,46.6666666666667,2|0|0|2,0:0|0:0|0:0|0:0,0:0:0:0:
132,76,44086,6,0,P|132:142|140:220,1,140,2|0,0:0|0:0,0:0:0:0:
184,288,44706,1,8,0:0:0:0:
248,232,44913,2,0,P|300:208|384:240,1,140,2|8,0:0|0:0,0:0:0:0:
436,292,45534,1,0,0:0:0:0:
496,232,45741,2,0,P|500:160|496:92,1,140,2|0,0:0|0:0,0:0:0:0:
420,128,46362,1,8,0:0:0:0:
344,88,46569,2,0,P|284:64|212:88,1,140,2|8,0:0|0:0,0:0:0:0:
252,160,47189,1,0,0:0:0:0:
216,236,47396,5,0,0:0:0:0:
160,300,47603,2,0,L|72:308,2,70
236,332,48224,2,0,L|324:340,2,70
144,268,48844,5,0,0:0:0:0:
252,244,49051,1,0,0:0:0:0:
148,256,49258,1,0,0:0:0:0:
252,232,49465,2,0,L|344:236,1,70,8|0,0:0|0:0,0:0:0:0:
396,168,49879,5,0,0:0:0:0:
284,144,50086,1,0,0:0:0:0:
388,184,50293,2,0,L|396:268,1,70,8|0,0:0|0:0,0:0:0:0:
320,304,50706,5,8,0:0:0:0:
320,304,50810,1,0,0:0:0:0:
320,304,50913,1,8,0:0:0:0:
236,256,51120,2,0,L|242:186,1,70,0|8,0:0|0:0,0:0:0:0:
280,96,51534,2,0,P|236:140|148:140,1,140,0|2,0:0|0:0,0:0:0:0:
171,276,52362,5,2,0:0:0:0:
207,292,52775,1,2,0:0:0:0:
247,304,53189,1,2,0:0:0:0:
352,340,53603,6,0,P|417:358|474:328,1,125.999996154785,4|0,0:0|0:0,0:0:0:0:
490,292,54017,2,0,P|492:220|476:152,1,140,2|0,0:0|0:0,0:0:0:0:
392,112,54638,1,8,0:0:0:0:
359,123,54741,1,8,0:0:0:0:
325,130,54844,6,0,P|253:138|173:134,1,140,2|8,0:0|0:0,0:0:0:0:
117,207,55465,1,0,0:0:0:0:
189,272,55672,1,0,0:0:0:0:
281,240,55879,1,0,0:0:0:0:
357,301,56086,1,2,0:0:0:0:
357,301,56189,2,0,L|458:277,1,70,8|0,0:0|0:0,0:0:0:0:
440,253,56500,6,0,P|444:173|432:93,1,140,8|2,0:0|0:0,0:0:0:0:
380,44,57120,1,8,0:0:0:0:
340,48,57224,1,8,0:0:0:0:
304,52,57327,2,0,L|232:60,1,70,4|0,0:0|0:0,0:0:0:0:
156,104,57741,1,0,0:0:0:0:
129,198,57948,5,0,0:0:0:0:
155,220,58051,1,0,0:0:0:0:
185,227,58155,1,4,0:0:0:0:
266,282,58362,2,0,L|350:278,1,70,0|2,0:0|0:0,0:0:0:0:
358,183,58775,2,0,L|274:179,1,70,0|6,0:0|0:0,0:0:0:0:
128,72,59396,5,4,0:0:0:0:
60,240,59810,1,4,0:0:0:0:
132,284,60017,2,0,L|224:280,1,70,0|8,0:0|0:0,0:0:0:0:
288,308,60431,1,8,0:0:0:0:
288,308,60534,1,8,0:0:0:0:
288,308,60638,2,0,P|312:236|304:168,1,140,4|0,0:0|0:0,0:0:0:0:
244,104,61258,1,8,0:0:0:0:
244,104,61362,2,0,L|368:96,1,105,2|0,0:0|0:0,0:0:0:0:
264,192,61879,5,0,0:0:0:0:
167,215,62086,1,8,0:0:0:0:
169,249,62189,1,8,0:0:0:0:
170,284,62293,2,0,L|98:288,1,70,2|0,0:0|0:0,0:0:0:0:
239,342,62706,2,0,L|315:346,1,70,2|0,0:0|0:0,0:0:0:0:
400,368,63120,2,0,P|376:292|380:212,1,140,2|8,0:0|0:0,0:0:0:0:
274,94,63948,5,8,0:0:0:0:
254,95,64051,1,2,0:0:0:0:
234,96,64155,1,8,0:0:0:0:
215,98,64258,1,2,0:0:0:0:
195,99,64362,1,8,0:0:0:0:
152,188,64569,2,0,L|92:213,4,35,8|2|8|2|8,0:0|0:0|0:0|0:0|0:0,0:0:0:0:
320,208,65189,1,2,0:0:0:0:
308,292,65396,1,0,0:0:0:0:
392,240,65603,5,8,0:0:0:0:
411,238,65706,1,2,0:0:0:0:
431,237,65810,1,8,0:0:0:0:
451,236,65913,1,2,0:0:0:0:
471,235,66017,1,8,0:0:0:0:
432,144,66224,2,0,L|372:119,4,35,8|2|8|2|8,0:0|0:0|0:0|0:0|0:0,0:0:0:0:
318,102,66844,1,2,0:0:0:0:
336,192,67051,1,0,0:0:0:0:
399,257,67258,6,0,P|335:281|272:254,1,140,2|0,0:0|0:0,0:0:0:0:
336,192,67879,1,8,0:0:0:0:
272,254,68086,2,0,P|197:235|140:263,1,140,2|2,0:0|0:0,0:0:0:0:
211,319,68706,1,8,0:0:0:0:
142,260,68913,2,0,P|26:269|75:164,1,280,2|2,0:0|0:0,0:0:0:0:
292,300,70155,6,8,L|288:356,4,35,8|8|8|8|2,0:0|0:0|0:0|0:0|0:0,0:0:0:0:
392,132,70982,2,8,L|396:76,4,35,8|8|8|8|2,0:0|0:0|0:0|0:0|0:0,0:0:0:0:
252,228,71810,6,0,P|308:236|356:224,1,105
376,252,72224,2,0,L|372:332,1,70,2|0,0:0|0:0,0:0:0:0:
340,348,72534,2,0,P|303:348|264:344,1,70,2|0,0:0|0:0,0:0:0:0:
244,312,72844,2,0,P|200:316|164:324,1,70,2|0,0:0|0:0,0:0:0:0:
140,300,73155,2,0,L|144:216,1,70,2|0,0:0|0:0,0:0:0:0:
156,192,73465,1,8,0:0:0:0:
252,204,73672,1,8,0:0:0:0:
344,172,73879,2,8,L|348:132,3,35
384,100,74293,2,8,L|420:104,3,35
140,200,75120,6,0,P|205:186|266:229,1,125.999996154785,4|0,0:0|0:0,0:0:0:0:
260,248,75533,2,8,L|264:284,3,35,8|0|8|0,0:0|0:0|0:0|0:0,0:0:0:0:
252,316,75947,2,8,L|256:360,3,35,8|0|8|0,0:0|0:0|0:0|0:0,0:0:0:0:
280,376,76361,2,0,P|349:371|424:364,1,140,2|8,0:0|0:0,0:0:0:0:
432,280,76982,1,0,0:0:0:0:
356,248,77188,6,8,L|353:213,3,35,8|0|8|0,0:0|0:0|0:0|0:0,0:0:0:0:
368,172,77602,2,8,L|365:137,3,35,8|0|8|0,0:0|0:0|0:0|0:0,0:0:0:0:
348,100,78016,2,0,P|280:104|204:112,1,140,2|8,0:0|0:0,0:0:0:0:
152,176,78637,2,8,L|108:180,4,35
228,208,79258,6,0,P|245:238|250:272,1,70,2|0,0:0|0:0,0:0:0:0:
324,364,79672,2,0,P|290:363|257:350,1,70,2|0,0:0|0:0,0:0:0:0:
140,368,80086,2,0,P|158:338|186:316,1,70,2|0,0:0|0:0,0:0:0:0:
228,244,80500,2,0,L|340:232,1,105,8|0,0:0|0:0,0:0:0:0:
332,200,80913,5,2,0:0:0:0:
296,196,81017,1,8,0:0:0:0:
260,192,81120,1,2,0:0:0:0:
224,188,81224,1,8,0:0:0:0:
188,184,81327,6,8,L|136:176,3,35,8|8|8|8,0:0|0:0|0:0|0:0,0:0:0:0:
120,192,81741,2,8,L|68:196,3,35
52,180,82155,1,2,0:0:0:0:
368,132,82569,6,0,L|352:248,1,93.3333333333333,2|0,0:0|0:0,0:0:0:0:
308,284,82982,2,0,L|248:280,3,46.6666666666667,2|0|0|2,0:0|0:0|0:0|0:0,0:0:0:0:
112,204,83810,2,0,L|124:100,1,93.3333333333333,2|0,0:0|0:0,0:0:0:0:
168,52,84224,2,0,L|228:56,3,46.6666666666667,2|0|0|2,0:0|0:0|0:0|0:0,0:0:0:0:
256,192,85051,12,0,89189,0:0:0:0:
