osu file format v14

[General]
AudioFilename: audio.mp3
AudioLeadIn: 0
PreviewTime: 52374
Countdown: 0
SampleSet: Soft
StackLeniency: 0.7
Mode: 0
LetterboxInBreaks: 0
WidescreenStoryboard: 1

[Editor]
Bookmarks: 654,13067,20101,32514,41603,42431,42844,43672,54030,70581,72844,73879,74603,75547,82569,83396
DistanceSpacing: 1
BeatDivisor: 4
GridSize: 4
TimelineZoom: 1.799999

[Metadata]
Title:a e i u e o ao!!
TitleUnicode:あ・え・い・う・え・お・あお!!
Artist:Gekidan Hitotose
ArtistUnicode:劇団ひととせ
Creator:Uta
Version:Easy
Source:ひなこのーと
Tags:Opening Hinako Note 桜木ひな子 Sakuragi M・A・O 市道真央 Ichimichi Mao 夏川くいな Natsukawa Kuina 富田美憂 Tomita Miyu 柊 真雪 Hiiragi Mayuki 小倉唯 Ogura Yui 萩野千秋 Hagino Chiaki 東城日沙子 Hisako Tojo 中島ゆあ Nakajima Yua 高野麻里佳 Kouno Marika Frey Surono raheta_adi
BeatmapID:1360603
BeatmapSetID:610030

[Difficulty]
HPDrainRate:3
CircleSize:3
OverallDifficulty:4
ApproachRate:3
SliderMultiplier:0.8
SliderTickRate:1

[Events]
//Background and Video events
0,0,"BG3.png",0,0
//Break Periods
//Storyboard Layer 0 (Background)
//Storyboard Layer 1 (Fail)
//Storyboard Layer 2 (Pass)
//Storyboard Layer 3 (Foreground)
//Storyboard Sound Samples

[TimingPoints]
638,413.793103448276,4,2,0,60,1,0
11396,-100,4,2,0,50,0,0
13051,-100,4,2,0,60,0,0
13465,-100,4,2,0,60,0,0
20086,-100,4,2,0,45,0,0
32086,-100,4,2,0,40,0,0
38293,-100,4,2,0,50,0,0
41603,-100,4,2,0,60,0,0
53603,-100,4,2,0,60,0,0
54017,-100,4,2,0,60,0,1
67258,-100,4,2,0,60,0,0
75120,-100,4,2,0,40,0,0
85051,-100,4,2,0,25,0,0
85155,-100,4,2,0,10,0,0
89189,-100,4,2,0,5,0,0

[Colours]
Combo1 : 255,128,128
Combo2 : 0,128,255
Combo3 : 64,0,128
Combo4 : 255,0,128

[HitObjects]
104,136,638,6,0,P|172:176|260:160,1,160,2|2,0:0|0:0,0:0:0:0:
308,108,1879,1,2,0:0:0:0:
376,64,2293,2,0,P|388:104|376:156,2,80,10|8|8,0:0|0:0|0:0,0:0:0:0:
300,32,3534,2,0,P|256:28|216:48,1,80,8|4,0:0|0:0,0:0:0:0:
60,160,5603,6,0,B|56:236|76:232|72:320,1,160,4|4,0:0|0:0,0:0:0:0:
136,368,6844,1,2,0:0:0:0:
216,372,7258,2,0,P|262:371|308:360,1,80,2|8,0:0|0:0,0:0:0:0:
284,284,8086,6,0,L|204:280,1,80,2|8,0:0|0:0,0:0:0:0:
128,252,8913,5,0,1:0:0:0:
48,268,9327,1,2,0:0:0:0:
16,196,9741,2,0,P|8:132|48:80,2,120,0|0|2,0:0|0:0|0:0,0:0:0:0:
84,152,11396,2,0,P|156:132|212:176,1,140,8|8,0:0|0:0,0:0:0:0:
351,257,13051,6,0,P|278:305|205:281,1,160,8|2,0:0|0:0,0:0:0:0:
156,228,14293,1,0,0:0:0:0:
172,148,14706,2,0,P|245:99|318:124,1,160,8|2,0:0|0:0,0:0:0:0:
368,176,15948,1,2,0:0:0:0:
368,256,16362,1,8,0:0:0:0:
312,316,16775,6,0,L|220:308,1,80,4|0,0:0|0:0,0:0:0:0:
180,248,17603,2,0,P|124:244|88:256,1,80,4|4,0:0|0:0,0:0:0:0:
72,324,18431,2,0,B|74:248|54:253|55:165,1,160,8|2,0:0|0:0,0:0:0:0:
96,96,19672,5,0,0:0:0:0:
168,60,20086,2,0,P|260:48|332:84,1,160,0|4,0:0|0:0,0:0:0:0:
352,148,21327,1,0,0:0:0:0:
308,216,21741,2,0,P|216:228|144:192,1,160,2|4,0:0|0:0,0:0:0:0:
100,144,22982,1,0,0:0:0:0:
36,196,23396,6,0,P|33:248|49:287,1,80,4|0,0:0|0:0,0:0:0:0:
104,328,24224,2,0,L|200:332,2,80,2|2|8,0:0|0:0|0:0,0:0:0:0:
120,248,25465,2,0,B|184:224|224:264|280:236,1,160,2|0,0:0|0:0,0:0:0:0:
308,164,26706,1,0,0:0:0:0:
384,188,27120,6,8,B|379:263|359:257|353:344,1,160,2|0,0:0|0:0,0:0:0:0:
274,360,28362,1,0,0:0:0:0:
192,353,28775,2,0,P|166:309|150:251,1,80,2|0,0:0|0:0,0:0:0:0:
160,201,29603,2,0,P|80:197|4:253,1,160,2|8,0:0|0:0,0:0:0:0:
294,157,32500,6,0,P|250:229|281:318,1,160,0|2,3:0|0:0,0:0:0:0:
340,360,33741,2,0,P|428:368|504:332,1,160,0|2,3:0|0:0,0:0:0:0:
480,260,34982,2,0,B|465:185|486:186|470:100,1,160,0|2,3:0|0:0,0:0:0:0:
405,52,36224,2,0,P|311:67|253:13,1,160,0|2,3:0|0:0,0:0:0:0:
183,19,37465,5,8,2:0:0:0:
120,166,38293,2,0,P|158:152|204:162,1,80,2|0,0:0|0:0,0:0:0:0:
272,196,39120,2,0,P|320:196|360:180,1,80,0|0,0:0|0:0,0:0:0:0:
424,152,39948,2,0,P|432:188|417:231,1,80,2|2,0:0|0:0,0:0:0:0:
380,300,40775,2,0,L|292:296,1,80,8|8,0:0|0:0,0:0:0:0:
224,268,41603,6,8,P|180:265|144:280,2,80,2|2|2,0:0|0:0|0:0,0:0:0:0:
276,204,42844,2,8,P|319:201|356:216,2,80,2|2|2,0:0|0:0|0:0,0:0:0:0:
204,164,44086,2,0,P|112:160|44:204,1,160,2|2,0:0|0:0,0:0:0:0:
36,272,45327,5,8,0:0:0:0:
96,328,45741,2,0,P|188:332|256:288,1,160,2|2,0:0|0:0,0:0:0:0:
312,252,46982,2,0,L|404:240,1,80,8|0,0:0|0:0,0:0:0:0:
445,182,47810,1,0,0:0:0:0:
466,104,48224,2,0,P|428:84|378:84,1,80
311,76,49051,6,0,L|315:172,1,80,0|8,0:0|0:0,0:0:0:0:
239,184,49879,2,0,L|235:88,1,80,0|8,0:0|0:0,0:0:0:0:
216,28,50706,6,0,P|132:36|68:80,1,160,8|0,0:0|0:0,0:0:0:0:
92,156,51948,1,2,0:0:0:0:
160,200,52362,2,0,L|256:208,2,80,2|2|2,0:0|0:0|0:0,0:0:0:0:
87,236,53603,5,4,0:0:0:0:
124,308,54018,2,0,P|156:330|195:328,1,80,2|0,0:0|0:0,0:0:0:0:
268,284,54844,2,0,L|364:288,1,80,2|8,0:0|0:0,0:0:0:0:
412,336,55672,2,0,B|440:288|416:244|416:244|403:207|416:164,1,160,0|8,0:0|0:0,0:0:0:0:
363,117,56913,5,2,0:0:0:0:
300,168,57327,2,0,L|212:184,1,80,4|0,0:0|0:0,0:0:0:0:
160,232,58155,2,0,P|112:224|84:204,1,80,0|2,0:0|0:0,0:0:0:0:
100,128,58982,1,2,0:0:0:0:
180,120,59396,1,2,0:0:0:0:
260,112,59810,1,2,0:0:0:0:
408,56,60638,6,0,B|393:131|414:130|398:216,1,160,4|0,0:0|0:0,0:0:0:0:
364,288,61879,1,0,0:0:0:0:
300,336,62293,2,0,B|224:364|228:328|140:346,1,160,2|2,0:0|0:0,0:0:0:0:
88,284,63534,1,8,0:0:0:0:
164,256,63948,2,0,P|208:253|244:264,2,80,8|8|8,0:0|0:0|0:0,0:0:0:0:
120,188,65189,5,2,0:0:0:0:
80,120,65603,2,0,P|37:117|0:132,2,80,8|8|8,0:0|0:0|0:0,0:0:0:0:
124,52,66844,1,2,0:0:0:0:
196,88,67258,2,0,B|250:101|250:101|304:96|304:96|356:104,1,160,2|2,0:0|0:0,0:0:0:0:
420,56,68500,1,2,0:0:0:0:
428,136,68913,2,0,B|414:190|414:190|420:244|420:244|412:296,1,160,2|2,0:0|0:0,0:0:0:0:
348,340,70155,6,0,L|256:344,1,80,8|2,0:0|0:0,0:0:0:0:
216,280,70982,2,0,P|168:280|136:292,1,80,8|2,0:0|0:0,0:0:0:0:
72,340,71810,1,0,0:0:0:0:
16,280,72224,2,0,L|8:160,2,120,2|2|8,0:0|0:0|0:0,0:0:0:0:
96,264,73879,2,0,P|128:216|116:132,1,140,8|8,0:0|0:0,0:0:0:0:
256,48,75534,6,4,B|311:61|311:61|364:56|364:56|413:64,1,160,8|2,0:0|0:0,0:0:0:0:
492,88,76775,1,8,0:0:0:0:
468,164,77189,2,0,B|455:218|455:218|460:272|460:272|452:324,1,160,8|2,0:0|0:0,0:0:0:0:
372,336,78431,1,8,0:0:0:0:
336,264,78844,1,8,0:0:0:0:
264,228,79258,2,4,L|176:240,1,80,2|2,0:0|0:0,0:0:0:0:
152,312,80086,6,0,P|104:304|69:278,1,80,2|8,0:0|0:0,0:0:0:0:
72,208,80913,2,0,P|104:172|152:164,1,80,2|8,0:0|0:0,0:0:0:0:
200,208,81741,2,0,P|304:212|328:172,1,160,8|2,0:0|0:0,0:0:0:0:
388,120,82982,1,2,0:0:0:0:
444,180,83396,2,0,B|442:203|442:203|429:258,1,80,2|2,0:0|0:0,0:0:0:0:
372,316,84224,1,2,0:0:0:0:
296,292,84638,1,2,0:0:0:0:
256,192,85051,12,0,89189,0:0:0:0:
