osu file format v14

[General]
AudioFilename: audio.mp3
AudioLeadIn: 0
PreviewTime: 52374
Countdown: 0
SampleSet: Soft
StackLeniency: 0.7
Mode: 0
LetterboxInBreaks: 0
WidescreenStoryboard: 1

[Editor]
Bookmarks: 654,13067,20101,32514,41603,42431,42844,43672,54030,70581,72844,73879,74603,75547,82569,83396
DistanceSpacing: 1.44
BeatDivisor: 4
GridSize: 4
TimelineZoom: 1.999999

[Metadata]
Title:a e i u e o ao!!
TitleUnicode:あ・え・い・う・え・お・あお!!
Artist:Gekidan Hitotose
ArtistUnicode:劇団ひととせ
Creator:Uta
Version:Advanced
Source:ひなこのーと
Tags:Opening Hinako Note 桜木ひな子 Sakuragi M・A・O 市道真央 Ichimichi Mao 夏川くいな Natsukawa Kuina 富田美憂 Tomita Miyu 柊 真雪 Hiiragi Mayuki 小倉唯 Ogura Yui 萩野千秋 Hagino Chiaki 東城日沙子 Hisako Tojo 中島ゆあ Nakajima Yua 高野麻里佳 Kouno Marika Frey Surono raheta_adi
BeatmapID:1292866
BeatmapSetID:610030

[Difficulty]
HPDrainRate:4
CircleSize:3
OverallDifficulty:4
ApproachRate:5
SliderMultiplier:1.2
SliderTickRate:1

[Events]
//Background and Video events
0,0,"BG3.png",0,0
//Break Periods
//Storyboard Layer 0 (Background)
//Storyboard Layer 1 (Fail)
//Storyboard Layer 2 (Pass)
//Storyboard Layer 3 (Foreground)
//Storyboard Sound Samples

[TimingPoints]
638,413.793103448276,4,2,0,60,1,0
11396,-100,4,2,0,50,0,0
13051,-100,4,2,0,60,0,0
13465,-100,4,2,0,60,0,0
20086,-100,4,2,0,45,0,0
32086,-100,4,2,0,40,0,0
38293,-100,4,2,0,50,0,0
41603,-100,4,2,0,60,0,0
53603,-100,4,2,0,60,0,0
54017,-100,4,2,0,60,0,1
67258,-100,4,2,0,60,0,0
75120,-100,4,2,0,40,0,0
85051,-100,4,2,0,25,0,0
85155,-100,4,2,0,10,0,0
89189,-100,4,2,0,5,0,0

[Colours]
Combo1 : 255,128,128
Combo2 : 0,128,255
Combo3 : 64,0,128
Combo4 : 255,0,128

[HitObjects]
304,120,638,5,2,0:0:0:0:
164,160,1465,1,2,0:0:0:0:
164,160,1879,6,0,P|164:208|172:260,1,90,2|0,0:0|0:0,0:0:0:0:
208,268,2293,2,0,P|240:268|280:272,1,60,10|0,0:0|1:0,0:0:0:0:
304,352,2706,2,0,P|333:351|363:347,1,60,8|0,0:0|1:0,0:0:0:0:
428,300,3120,2,0,P|428:264|424:228,1,60,8|0,0:0|1:0,0:0:0:0:
404,160,3534,1,8,0:0:0:0:
244,116,3948,6,0,P|183:127|125:95,1,120,4|0,0:0|0:0,0:0:0:0:
60,56,4569,1,0,0:0:0:0:
48,140,4775,2,0,P|43:171|40:208,1,60,0|0,0:0|0:0,0:0:0:0:
60,280,5189,2,0,P|91:281|119:277,1,60,8|0,0:0|0:0,0:0:0:0:
176,212,5603,2,0,P|233:201|283:232,1,120,4|2,0:0|0:0,0:0:0:0:
360,384,6431,2,0,P|409:355|432:293,1,120,4|2,0:0|0:0,0:0:0:0:
364,136,7258,6,0,P|330:136|296:140,1,60,2|0,0:0|0:0,0:0:0:0:
228,172,7672,2,0,P|196:172|164:168,1,60,8|0,0:0|0:0,0:0:0:0:
92,132,8086,2,0,P|88:168|92:204,1,60,2|0,0:0|0:0,0:0:0:0:
144,256,8500,2,0,L|140:320,2,60,8|0|0,0:0|0:0|1:0,0:0:0:0:
308,296,9327,2,0,P|361:320|419:308,1,120,2|0,0:0|0:0,0:0:0:0:
462,196,10051,6,0,B|461:150|461:150|440:112,1,90,2|0,0:0|0:0,0:0:0:0:
312,112,10672,2,0,B|291:150|291:150|289:196,1,90,0|2,0:0|0:0,0:0:0:0:
296,356,11396,6,8,P|324:360|356:356,1,60,8|2,0:0|0:0,0:0:0:0:
440,364,11810,2,0,B|448:316|448:316|441:275,1,90,8|8,0:0|0:0,0:0:0:0:
376,72,12638,5,2,0:0:0:0:
392,200,13051,2,0,P|356:204|316:200,1,60,8|0,0:0|0:0,0:0:0:0:
308,120,13465,2,0,P|276:120|240:124,1,60,8|8,0:0|0:0,0:0:0:0:
168,100,13879,2,0,P|164:160|176:236,1,120,2|0,0:0|0:0,0:0:0:0:
316,300,14706,6,0,L|312:240,1,60,8|8,0:0|0:0,0:0:0:0:
360,172,15120,2,0,P|395:169|433:175,1,60,8|8,0:0|0:0,0:0:0:0:
472,240,15534,2,0,L|476:320,2,60,2|0|2,0:0|0:0|0:0,0:0:0:0:
508,164,16155,1,8,0:0:0:0:
472,84,16362,6,0,P|440:80|400:84,1,60,8|2,0:0|0:0,0:0:0:0:
340,124,16775,2,0,P|276:124|216:112,1,120,4|0,0:0|0:0,0:0:0:0:
140,84,17396,1,0,0:0:0:0:
76,140,17603,2,0,P|80:168|92:204,1,60,4|0,0:0|0:0,0:0:0:0:
144,264,18017,2,0,P|185:264|220:260,1,60,4|0,0:0|0:0,0:0:0:0:
292,252,18431,6,0,L|296:320,1,60,8|2,0:0|0:0,0:0:0:0:
384,324,18844,2,0,L|380:264,1,60,8|2,0:0|0:0,0:0:0:0:
456,216,19258,1,2,0:0:0:0:
448,36,19672,1,0,0:0:0:0:
288,8,20086,6,0,P|232:4|168:8,1,120,0|2,0:0|0:0,0:0:0:0:
124,80,20706,1,8,0:0:0:0:
156,160,20913,2,0,P|215:163|275:159,1,120,4|0,0:0|0:0,0:0:0:0:
344,108,21534,1,2,0:0:0:0:
424,128,21741,2,0,P|432:160|432:204,1,60,2|0,0:0|0:0,0:0:0:0:
384,256,22155,2,0,P|380:288|384:320,1,60,2|0,0:0|0:0,0:0:0:0:
444,372,22569,2,0,P|384:376|296:368,1,120,4|0,0:0|0:0,0:0:0:0:
252,328,23189,1,8,0:0:0:0:
168,336,23396,6,0,P|164:272|172:212,1,120,4|0,0:0|0:0,0:0:0:0:
248,184,24017,1,8,0:0:0:0:
328,208,24224,2,0,L|400:212,1,60,2|0,0:0|0:0,0:0:0:0:
356,288,24638,2,0,L|432:292,1,60,2|0,0:0|0:0,0:0:0:0:
476,232,25051,1,8,0:0:0:0:
476,232,25258,1,8,0:0:0:0:
408,80,25672,5,0,0:0:0:0:
408,80,25879,2,0,P|373:80|336:76,1,60,2|8,0:0|0:0,0:0:0:0:
268,52,26293,2,0,P|260:112|268:196,1,120,0|0,0:0|0:0,0:0:0:0:
332,220,26913,1,0,0:0:0:0:
272,280,27120,2,0,P|240:280|204:276,1,60,2|0,0:0|0:0,0:0:0:0:
132,248,27534,2,0,P|128:276|128:312,1,60,0|2,0:0|0:0,0:0:0:0:
44,312,27948,2,0,P|48:248|68:184,1,120,0|0,0:0|0:0,0:0:0:0:
132,148,28569,1,0,0:0:0:0:
204,192,28775,6,0,P|268:204|340:200,1,120,2|0,0:0|0:0,0:0:0:0:
396,164,29396,1,8,0:0:0:0:
336,104,29603,2,0,L|272:100,1,60,2|0,0:0|0:0,0:0:0:0:
240,24,30017,2,0,L|304:20,1,60,2|0,0:0|0:0,0:0:0:0:
376,12,30431,1,8,0:0:0:0:
376,12,30638,1,8,0:0:0:0:
452,160,31465,2,8,P|454:191|452:232,1,60,8|8,0:0|0:0,0:0:0:0:
312,312,32086,1,2,0:0:0:0:
172,220,32500,6,0,P|234:211|291:213,1,120,0|0,3:0|0:0,0:0:0:0:
372,184,33120,1,0,0:0:0:0:
428,244,33327,2,0,P|420:280|424:320,1,60,2|0,0:0|0:0,0:0:0:0:
344,340,33741,2,0,P|284:336|215:340,1,120,0|0,3:0|0:0,0:0:0:0:
144,364,34362,1,0,0:0:0:0:
64,340,34569,2,0,P|60:304|64:272,1,60,2|0,0:0|0:0,0:0:0:0:
0,224,34982,6,0,P|62:220|128:224,1,120,0|0,3:0|0:0,0:0:0:0:
196,260,35603,1,0,0:0:0:0:
252,324,35810,2,0,P|287:322|336:312,1,60,2|0,0:0|0:0,0:0:0:0:
392,292,36224,2,0,L|396:164,1,120,0|0,3:0|0:0,0:0:0:0:
400,88,36844,1,2,0:0:0:0:
400,88,37051,1,2,0:0:0:0:
232,224,38293,6,0,L|220:288,2,60,2|0|0,0:0|0:0|0:0,0:0:0:0:
148,136,39120,2,0,L|92:184,2,60,0|0|0,0:0|0:0|0:0,0:0:0:0:
240,60,39948,6,0,L|225:1,2,60,2|0|2,0:0|0:0|0:0,0:0:0:0:
352,104,40775,2,0,L|393:60,2,60,8|0|8,0:0|0:0|0:0,0:0:0:0:
256,160,41603,6,0,P|241:198|245:242,1,60,2|8,0:0|0:0,0:0:0:0:
265,298,42017,2,0,P|218:299|182:286,1,60,2|0,0:0|0:0,0:0:0:0:
129,263,42431,1,2,0:0:0:0:
75,99,42844,6,0,L|151:90,1,60,2|8,0:0|0:0,0:0:0:0:
216,122,43258,2,0,P|219:78|211:52,1,60,2|0,0:0|0:0,0:0:0:0:
148,8,43672,1,2,0:0:0:0:
98,175,44086,6,0,P|97:213|101:259,1,60,2|0,0:0|0:0,0:0:0:0:
184,228,44500,2,0,P|188:264|188:304,1,60,0|8,0:0|0:0,0:0:0:0:
244,352,44913,2,0,P|296:356|348:344,1,90,2|0,0:0|0:0,0:0:0:0:
356,312,45327,2,0,L|360:240,1,60,8|0,0:0|0:0,0:0:0:0:
356,168,45741,6,0,L|280:156,1,60,2|0,0:0|0:0,0:0:0:0:
264,232,46155,2,0,L|192:224,1,60,0|8,0:0|0:0,0:0:0:0:
128,180,46569,2,0,P|120:228|132:276,1,90,2|0,0:0|0:0,0:0:0:0:
152,304,46982,2,0,L|220:312,1,60,8|0,0:0|0:0,0:0:0:0:
292,292,47396,1,0,0:0:0:0:
352,232,47603,6,0,L|343:172,2,60,0|0|0,0:0|0:0|0:0,0:0:0:0:
424,280,48224,2,0,L|436:360,2,60,0|0|0,0:0|0:0|0:0,0:0:0:0:
472,208,48844,1,0,0:0:0:0:
440,132,49051,2,0,L|432:52,1,60,0|0,0:0|0:0,0:0:0:0:
380,8,49465,1,8,0:0:0:0:
296,16,49672,1,0,0:0:0:0:
240,80,49879,2,0,L|244:152,1,60,0|0,0:0|0:0,0:0:0:0:
304,196,50293,1,8,0:0:0:0:
260,356,50706,6,0,L|192:348,1,60,8|8,0:0|0:0,0:0:0:0:
164,272,51120,2,0,L|232:264,1,60,0|8,0:0|0:0,0:0:0:0:
320,256,51534,1,0,0:0:0:0:
176,124,51948,1,2,0:0:0:0:
340,132,52362,6,0,B|348:176|348:176|340:228,1,90,2|0,0:0|0:0,0:0:0:0:
320,256,52775,2,0,B|268:259|268:259|220:252,1,90,2|0,0:0|0:0,0:0:0:0:
188,248,53189,2,0,B|188:296|188:296|196:348,1,90,2|0,0:0|0:0,0:0:0:0:
212,376,53603,1,4,0:0:0:0:
372,319,54017,6,0,P|384:255|360:195,1,120,2|0,0:0|0:0,0:0:0:0:
312,140,54638,1,8,0:0:0:0:
232,120,54844,2,0,L|228:180,1,60,2|0,0:0|0:0,0:0:0:0:
148,148,55258,2,0,L|144:214,1,60,8|0,0:0|0:0,0:0:0:0:
92,276,55672,6,0,P|131:327|192:350,1,120,0|8,0:0|0:0,0:0:0:0:
264,364,56293,1,0,0:0:0:0:
340,328,56500,2,0,L|336:260,1,60,8|0,0:0|0:0,0:0:0:0:
416,296,56913,2,0,L|412:232,1,60,2|8,0:0|0:0,0:0:0:0:
452,160,57327,2,0,P|412:108|351:85,1,120,4|0,0:0|0:0,0:0:0:0:
312,156,57948,1,0,0:0:0:0:
232,132,58155,2,0,L|216:72,2,60,0|0|2,0:0|0:0|0:0,0:0:0:0:
180,200,58775,1,0,0:0:0:0:
96,216,58982,6,0,B|92:264|92:264|104:312,1,90,2|0,0:0|0:0,0:0:0:0:
124,340,59396,2,0,B|176:345|176:345|224:332,1,90,2|0,0:0|0:0,0:0:0:0:
240,300,59810,2,0,B|304:284|304:284|360:292,1,120,2|8,0:0|0:0,0:0:0:0:
436,324,60431,1,8,0:0:0:0:
496,264,60638,2,0,P|509:192|481:142,1,120,4|0,0:0|0:0,0:0:0:0:
408,129,61258,1,8,0:0:0:0:
422,211,61465,6,0,P|390:211|358:199,1,60,0|0,0:0|0:0,0:0:0:0:
312,135,61879,2,0,P|280:131|248:139,1,60,0|0,0:0|0:0,0:0:0:0:
180,184,62293,2,0,P|184:244|196:304,1,120,2|2,0:0|0:0,0:0:0:0:
343,222,63120,2,0,P|339:162|327:103,1,120,2|8,0:0|0:0,0:0:0:0:
160,76,63948,6,0,L|88:72,2,60,8|8|8,0:0|0:0|0:0,0:0:0:0:
221,137,64569,2,0,L|293:133,2,60,8|8|8,0:0|0:0|0:0,0:0:0:0:
144,180,65189,2,0,P|148:216|160:256,1,60,2|0,0:0|0:0,0:0:0:0:
228,276,65603,2,0,L|221:335,2,60,8|8|8,0:0|0:0|0:0,0:0:0:0:
308,248,66224,2,0,L|300:166,2,60,8|8|8,0:0|0:0|0:0,0:0:0:0:
390,223,66844,2,0,P|429:208|448:186,1,60,2|0,0:0|0:0,0:0:0:0:
372,140,67258,6,0,P|312:136|244:152,1,120,2|0,0:0|0:0,0:0:0:0:
132,264,68086,2,0,P|192:268|260:252,1,120,2|2,0:0|0:0,0:0:0:0:
400,184,68913,2,0,P|456:108|384:160,1,240,2|2,0:0|0:0,0:0:0:0:
316,288,70155,6,0,P|284:296|240:292,1,60,8|8,0:0|0:0,0:0:0:0:
176,272,70569,1,2,0:0:0:0:
130,112,70982,2,0,P|166:104|206:108,1,60,8|8,0:0|0:0,0:0:0:0:
270,128,71396,1,2,0:0:0:0:
428,196,71810,2,0,L|420:256,1,60,0|0,0:0|0:0,0:0:0:0:
376,328,72224,6,0,B|328:328|328:328|280:313,1,90,2|2,0:0|0:0,0:0:0:0:
196,228,72844,2,0,B|241:213|241:213|291:212,1,90,2|2,0:0|0:0,0:0:0:0:
360,112,73465,1,8,0:0:0:0:
196,80,73879,2,0,P|164:80|128:88,1,60,8|8,0:0|0:0,0:0:0:0:
64,132,74293,2,0,P|64:179|72:244,1,90,8|8,0:0|0:0,0:0:0:0:
216,272,75120,1,4,0:0:0:0:
168,100,75534,6,0,L|176:164,1,60,8|8,0:0|0:0,0:0:0:0:
256,140,75948,2,0,L|264:204,1,60,8|8,0:0|0:0,0:0:0:0:
300,276,76362,2,0,P|372:268|420:224,1,120,2|8,0:0|0:0,0:0:0:0:
336,88,77189,6,0,L|272:100,1,60,8|8,0:0|0:0,0:0:0:0:
276,16,77603,2,0,L|212:28,1,60,8|8,0:0|0:0,0:0:0:0:
132,16,78017,2,0,P|72:56|50:118,1,120,2|8,0:0|0:0,0:0:0:0:
176,212,78844,1,8,0:0:0:0:
336,160,79258,6,0,L|340:96,1,60,2|0,0:0|0:0,0:0:0:0:
424,84,79672,2,0,L|420:143,1,60,2|0,0:0|0:0,0:0:0:0:
442,223,80086,2,0,P|413:275|363:305,1,120,2|8,0:0|0:0,0:0:0:0:
228,208,80913,2,0,L|308:204,1,60,2|2,0:0|0:0,0:0:0:0:
264,288,81327,2,0,L|192:292,1,60,8|8,0:0|0:0,0:0:0:0:
120,296,81741,1,8,0:0:0:0:
124,128,82155,6,0,P|176:132|224:116,1,80,2|0,0:0|0:0,0:0:0:0:
244,84,82569,2,0,L|316:76,2,40,2|0|0,0:0|0:0|0:0,0:0:0:0:
360,112,82982,2,0,P|368:144|368:208,1,80,2|0,0:0|0:0,0:0:0:0:
356,268,83396,6,0,P|312:280|272:272,1,80,2|0,0:0|0:0,0:0:0:0:
236,252,83810,2,0,L|232:196,2,40,2|0|0,0:0|0:0|0:0,0:0:0:0:
148,176,84224,2,0,P|144:216|156:272,1,80,2|0,0:0|0:0,0:0:0:0:
172,336,84638,1,2,0:0:0:0:
256,192,85051,1,0,0:0:0:0:
256,192,85155,12,0,89189,0:0:0:0:
