osu file format v14

[General]
AudioFilename: audio.mp3
AudioLeadIn: 0
PreviewTime: 52374
Countdown: 0
SampleSet: Soft
StackLeniency: 0.7
Mode: 3
LetterboxInBreaks: 0
SpecialStyle: 0
WidescreenStoryboard: 1

[Editor]
Bookmarks: 38297,70571,80502,85053
DistanceSpacing: 1.3
BeatDivisor: 3
GridSize: 32
TimelineZoom: 2.3

[Metadata]
Title:a e i u e o ao!! (TV Size)
TitleUnicode:あ・え・い・う・え・お・あお!! (TV Size)
Artist:Gekidan Hitotose
ArtistUnicode:劇団ひととせ
Creator:Chilly-
Version:normal!!
Source:ひなこのーと
Tags:opening Hinako Note 桜木ひな子 Sakuragi M・A・O 市道真央 Ichimichi Mao 夏川くいな Natsukawa Kuina 富田美憂 Tomita Miyu 柊 真雪 Hiiragi Mayuki 小倉唯 Ogura Yui 萩野千秋 Hagino Chiaki 東城日沙子 Hisako Tojo 中島ゆあ Nakajima Yua 高野麻里佳 Kouno Marika
BeatmapID:1765312
BeatmapSetID:843804

[Difficulty]
HPDrainRate:7
CircleSize:4
OverallDifficulty:7.5
ApproachRate:7
SliderMultiplier:1.5
SliderTickRate:1

[Events]
//Background and Video events
Video,-200,"video.avi"
0,0,"bg.png",0,0
//Break Periods
//Storyboard Layer 0 (Background)
//Storyboard Layer 1 (Fail)
//Storyboard Layer 2 (Pass)
//Storyboard Layer 3 (Foreground)
//Storyboard Sound Samples

[TimingPoints]
644,413.793103448276,4,2,1,60,1,0
11402,413.793103448276,4,2,1,60,1,0
16781,413.793103448276,4,2,1,60,1,0
25470,413.793103448276,4,2,1,60,1,0
32504,413.793103448276,3,2,1,60,1,0
38297,413.793103448276,4,2,1,60,1,0
41607,413.793103448276,3,2,1,60,1,0
44089,413.793103448276,4,2,1,60,1,0
54020,-100,4,2,1,60,0,1
70571,-100,4,2,1,60,0,0
79261,413.793103448276,4,2,1,60,1,0
82571,413.793103448276,3,2,1,60,1,0

[Colours]
Combo1 : 147,255,174
Combo2 : 255,134,255
Combo3 : 255,255,96
Combo4 : 142,255,255
Combo5 : 255,184,113
Combo6 : 203,151,255

[HitObjects]
448,192,644,5,2,0:0:0:0:
64,192,644,1,0,0:0:0:0:
192,192,1471,1,2,0:0:0:0:
320,192,1471,1,0,0:0:0:0:
192,192,2299,1,2,0:0:0:0:
320,192,2506,1,2,0:0:0:0:
64,192,2712,1,2,0:0:0:0:
448,192,2919,1,2,0:0:0:0:
192,192,3126,1,2,0:0:0:0:
448,192,3333,1,2,0:0:0:0:
320,192,3540,128,2,3954:0:0:0:0:
64,192,3954,128,4,5609:0:0:0:0:
448,192,3954,1,2,0:0:0:0:
320,192,5609,128,0,6437:0:0:0:0:
448,192,5609,1,8,0:0:0:0:
192,192,6437,128,2,7264:0:0:0:0:
448,192,6850,1,0,0:0:0:0:
320,192,6850,1,8,0:0:0:0:
64,192,7264,1,4,0:0:0:0:
448,192,7264,1,2,0:0:0:0:
320,192,7471,1,0,0:0:0:0:
192,192,7678,1,8,0:0:0:0:
64,192,7678,1,0,0:0:0:0:
320,192,8092,1,2,0:0:0:0:
64,192,8506,1,8,0:0:0:0:
448,192,8506,1,0,0:0:0:0:
320,192,8712,1,0,0:0:0:0:
192,192,8919,1,2,0:0:0:0:
64,192,8919,1,4,0:0:0:0:
448,192,9333,1,2,0:0:0:0:
64,192,9333,1,0,0:0:0:0:
320,192,9747,1,2,0:0:0:0:
448,192,9747,1,0,0:0:0:0:
448,192,10057,1,8,0:0:0:0:
64,192,10057,1,0,0:0:0:0:
192,192,10368,1,8,0:0:0:0:
64,192,10368,1,0,0:0:0:0:
448,192,10575,1,2,0:0:0:0:
320,192,10678,1,8,0:0:0:0:
64,192,10988,1,2,0:0:0:0:
192,192,11092,1,8,0:0:0:0:
448,192,11299,1,0,0:0:0:0:
192,192,11402,1,2,0:0:0:0:
64,192,11402,1,4,0:0:0:0:
448,192,11608,1,8,0:0:0:0:
192,192,11815,1,2,0:0:0:0:
320,192,11919,1,8,0:0:0:0:
64,192,12126,1,2,0:0:0:0:
448,192,12126,1,0,0:0:0:0:
448,192,12643,128,0,13057:0:0:0:0:
64,192,12643,1,8,0:0:0:0:
192,192,13057,1,2,0:0:0:0:
64,192,13057,1,4,0:0:0:0:
320,192,13264,1,0,0:0:0:0:
448,192,13470,1,8,0:0:0:0:
64,192,13470,1,0,0:0:0:0:
192,192,13677,1,0,0:0:0:0:
320,192,13884,1,2,0:0:0:0:
64,192,14091,1,0,0:0:0:0:
448,192,14298,1,0,0:0:0:0:
192,192,14298,1,8,0:0:0:0:
320,192,14505,1,0,0:0:0:0:
64,192,14712,1,2,0:0:0:0:
448,192,14919,1,0,0:0:0:0:
192,192,15126,1,8,0:0:0:0:
320,192,15126,1,0,0:0:0:0:
64,192,15333,1,0,0:0:0:0:
448,192,15539,1,2,0:0:0:0:
320,192,15746,1,0,0:0:0:0:
192,192,15953,1,8,0:0:0:0:
64,192,15953,1,0,0:0:0:0:
448,192,16160,1,0,0:0:0:0:
64,192,16367,1,0,0:0:0:0:
192,192,16367,1,8,0:0:0:0:
320,192,16574,1,0,0:0:0:0:
448,192,16781,1,2,0:0:0:0:
64,192,16987,1,0,0:0:0:0:
192,192,17194,1,8,0:0:0:0:
448,192,17194,1,0,0:0:0:0:
320,192,17401,1,0,0:0:0:0:
192,192,17608,1,2,0:0:0:0:
448,192,17815,1,0,0:0:0:0:
320,192,18022,1,8,0:0:0:0:
64,192,18022,1,0,0:0:0:0:
192,192,18229,1,0,0:0:0:0:
448,192,18436,1,2,0:0:0:0:
320,192,18436,128,4,18643:0:0:0:0:
192,192,18643,128,8,18849:0:0:0:0:
448,192,18849,128,2,19056:0:0:0:0:
64,192,19056,128,8,19263:0:0:0:0:
448,192,19263,128,2,20091:0:0:0:0:
192,192,19677,1,8,0:0:0:0:
64,192,19677,1,0,0:0:0:0:
64,192,20091,1,6,0:0:0:0:
320,192,20091,1,0,0:0:0:0:
192,192,20298,1,0,0:0:0:0:
320,192,20505,1,8,0:0:0:0:
64,192,20712,1,0,0:0:0:0:
192,192,20918,1,2,0:0:0:0:
448,192,21125,1,0,0:0:0:0:
64,192,21332,1,8,0:0:0:0:
320,192,21643,1,8,0:0:0:0:
192,192,21746,1,2,0:0:0:0:
448,192,21953,1,0,0:0:0:0:
192,192,22160,1,8,0:0:0:0:
320,192,22470,1,8,0:0:0:0:
64,192,22574,128,2,22987:0:0:0:0:
448,192,22781,1,0,0:0:0:0:
448,192,22987,128,2,23401:0:0:0:0:
320,192,22987,1,0,0:0:0:0:
192,192,23194,1,0,0:0:0:0:
64,192,23401,1,2,0:0:0:0:
320,192,23401,1,4,0:0:0:0:
192,192,23608,1,0,0:0:0:0:
320,192,23815,1,8,0:0:0:0:
448,192,23815,1,0,0:0:0:0:
64,192,24022,1,0,0:0:0:0:
192,192,24229,1,2,0:0:0:0:
448,192,24436,1,0,0:0:0:0:
320,192,24643,1,8,0:0:0:0:
64,192,24643,1,0,0:0:0:0:
192,192,24849,1,0,0:0:0:0:
320,192,25056,1,8,0:0:0:0:
448,192,25056,1,0,0:0:0:0:
320,192,25263,1,8,0:0:0:0:
448,192,25263,1,0,0:0:0:0:
64,192,25470,1,4,0:0:0:0:
192,192,25470,1,2,0:0:0:0:
448,192,25676,1,0,0:0:0:0:
320,192,25883,1,8,0:0:0:0:
64,192,26090,1,0,0:0:0:0:
320,192,26297,1,2,0:0:0:0:
192,192,26504,1,0,0:0:0:0:
64,192,26711,1,8,0:0:0:0:
320,192,27021,1,8,0:0:0:0:
192,192,27125,1,2,0:0:0:0:
448,192,27332,1,0,0:0:0:0:
320,192,27538,1,8,0:0:0:0:
192,192,27849,1,8,0:0:0:0:
320,192,27952,128,2,28366:0:0:0:0:
64,192,28159,1,0,0:0:0:0:
192,192,28366,128,0,28780:0:0:0:0:
448,192,28366,1,2,0:0:0:0:
320,192,28573,1,0,0:0:0:0:
64,192,28780,1,2,0:0:0:0:
448,192,28780,1,4,0:0:0:0:
320,192,28987,1,0,0:0:0:0:
64,192,29194,1,0,0:0:0:0:
192,192,29194,1,8,0:0:0:0:
448,192,29401,1,0,0:0:0:0:
320,192,29607,1,2,0:0:0:0:
64,192,29814,1,0,0:0:0:0:
192,192,30021,1,0,0:0:0:0:
320,192,30021,1,8,0:0:0:0:
448,192,30228,1,0,0:0:0:0:
64,192,30435,1,0,0:0:0:0:
192,192,30435,1,8,0:0:0:0:
64,192,30642,1,0,0:0:0:0:
192,192,30642,1,8,0:0:0:0:
320,192,30849,128,0,31056:0:0:0:0:
64,192,31056,128,0,31263:0:0:0:0:
448,192,31263,128,0,31470:0:0:0:0:
192,192,31470,128,0,31676:0:0:0:0:
320,192,31470,1,2,0:0:0:0:
448,192,31676,1,2,0:0:0:0:
448,192,32090,128,0,32504:0:0:0:0:
64,192,32090,1,8,0:0:0:0:
64,192,32504,128,4,33745:0:0:0:0:
320,192,32504,1,2,0:0:0:0:
192,192,32917,1,0,0:0:0:0:
320,192,33124,1,2,0:0:0:0:
192,192,33331,1,0,0:0:0:0:
448,192,33331,1,8,0:0:0:0:
320,192,33745,128,2,34986:0:0:0:0:
448,192,34159,1,0,0:0:0:0:
192,192,34366,1,2,0:0:0:0:
448,192,34572,1,0,0:0:0:0:
64,192,34572,1,8,0:0:0:0:
192,192,34986,128,4,36228:0:0:0:0:
64,192,34986,1,2,0:0:0:0:
448,192,35400,1,0,0:0:0:0:
320,192,35607,1,2,0:0:0:0:
64,192,35814,1,0,0:0:0:0:
448,192,35814,1,8,0:0:0:0:
448,192,36228,128,2,37469:0:0:0:0:
64,192,36641,1,0,0:0:0:0:
192,192,36848,1,2,0:0:0:0:
320,192,37055,1,8,0:0:0:0:
64,192,37055,1,0,0:0:0:0:
64,192,37469,1,8,0:0:0:0:
192,192,37572,1,8,0:0:0:0:
320,192,37676,1,8,0:0:0:0:
64,192,37883,128,0,38297:0:0:0:0:
448,192,38297,1,2,0:0:0:0:
192,192,38297,1,4,0:0:0:0:
320,192,38503,1,0,0:0:0:0:
64,192,38710,1,0,0:0:0:0:
192,192,38710,1,8,0:0:0:0:
320,192,39021,1,8,0:0:0:0:
192,192,39124,1,2,0:0:0:0:
448,192,39331,1,2,0:0:0:0:
64,192,39538,1,8,0:0:0:0:
320,192,39538,1,0,0:0:0:0:
192,192,39848,1,8,0:0:0:0:
448,192,39952,1,2,0:0:0:0:
64,192,40159,1,0,0:0:0:0:
192,192,40365,1,0,0:0:0:0:
448,192,40365,1,8,0:0:0:0:
320,192,40676,1,8,0:0:0:0:
192,192,40779,1,2,0:0:0:0:
448,192,40986,1,2,0:0:0:0:
320,192,41193,1,0,0:0:0:0:
64,192,41193,1,8,0:0:0:0:
448,192,41503,1,8,0:0:0:0:
64,192,41607,1,6,0:0:0:0:
192,192,41744,1,8,0:0:0:0:
320,192,41882,1,8,0:0:0:0:
64,192,42020,1,2,0:0:0:0:
192,192,42158,1,8,0:0:0:0:
320,192,42296,1,8,0:0:0:0:
64,192,42434,1,2,0:0:0:0:
448,192,42434,1,0,0:0:0:0:
448,192,42848,1,6,0:0:0:0:
320,192,42986,1,8,0:0:0:0:
192,192,43124,1,8,0:0:0:0:
448,192,43262,1,2,0:0:0:0:
320,192,43400,1,8,0:0:0:0:
192,192,43538,1,8,0:0:0:0:
64,192,43675,128,0,44089:0:0:0:0:
448,192,43675,1,2,0:0:0:0:
448,192,44089,1,2,0:0:0:0:
192,192,44089,1,4,0:0:0:0:
320,192,44295,1,0,0:0:0:0:
64,192,44502,1,0,0:0:0:0:
192,192,44502,1,8,0:0:0:0:
448,192,44709,1,0,0:0:0:0:
192,192,44916,1,2,0:0:0:0:
320,192,45123,1,0,0:0:0:0:
192,192,45330,1,8,0:0:0:0:
64,192,45330,1,0,0:0:0:0:
448,192,45537,1,0,0:0:0:0:
320,192,45744,1,2,0:0:0:0:
64,192,45951,1,0,0:0:0:0:
448,192,46157,1,0,0:0:0:0:
192,192,46157,1,8,0:0:0:0:
320,192,46364,1,0,0:0:0:0:
64,192,46571,1,2,0:0:0:0:
192,192,46778,1,0,0:0:0:0:
320,192,46985,1,8,0:0:0:0:
448,192,46985,1,0,0:0:0:0:
64,192,47192,1,0,0:0:0:0:
448,192,47399,1,4,0:0:0:0:
192,192,47399,1,2,0:0:0:0:
64,192,47813,1,0,0:0:0:0:
192,192,47813,1,8,0:0:0:0:
448,192,48020,1,0,0:0:0:0:
192,192,48226,1,2,0:0:0:0:
320,192,48433,1,0,0:0:0:0:
448,192,48640,1,8,0:0:0:0:
64,192,48640,1,0,0:0:0:0:
192,192,48847,1,0,0:0:0:0:
320,192,49054,1,2,0:0:0:0:
64,192,49261,1,0,0:0:0:0:
192,192,49468,1,8,0:0:0:0:
448,192,49468,1,0,0:0:0:0:
320,192,49675,1,0,0:0:0:0:
64,192,49882,1,2,0:0:0:0:
192,192,50089,1,0,0:0:0:0:
448,192,50295,1,0,0:0:0:0:
320,192,50295,1,8,0:0:0:0:
192,192,50502,1,0,0:0:0:0:
64,192,50709,1,2,0:0:0:0:
448,192,50709,1,4,0:0:0:0:
192,192,51123,1,0,0:0:0:0:
64,192,51123,1,8,0:0:0:0:
448,192,51330,1,0,0:0:0:0:
320,192,51537,1,2,0:0:0:0:
192,192,51744,1,0,0:0:0:0:
64,192,51744,1,8,0:0:0:0:
320,192,51951,1,8,0:0:0:0:
448,192,51951,1,0,0:0:0:0:
192,192,52157,1,8,0:0:0:0:
64,192,52157,1,0,0:0:0:0:
448,192,52364,1,4,0:0:0:0:
320,192,52364,1,2,0:0:0:0:
64,192,52778,1,2,0:0:0:0:
448,192,52778,1,4,0:0:0:0:
192,192,53192,1,2,0:0:0:0:
64,192,53192,1,4,0:0:0:0:
320,192,53606,128,4,54020:0:0:0:0:
64,192,54020,1,2,0:0:0:0:
448,192,54020,1,4,0:0:0:0:
192,192,54226,1,0,0:0:0:0:
448,192,54433,1,0,0:0:0:0:
320,192,54433,1,8,0:0:0:0:
64,192,54640,1,0,0:0:0:0:
192,192,54847,1,2,0:0:0:0:
448,192,55054,1,0,0:0:0:0:
320,192,55261,1,8,0:0:0:0:
64,192,55261,1,0,0:0:0:0:
192,192,55571,1,8,0:0:0:0:
448,192,55675,1,2,0:0:0:0:
64,192,55882,1,0,0:0:0:0:
192,192,56089,1,8,0:0:0:0:
320,192,56089,1,0,0:0:0:0:
448,192,56295,1,0,0:0:0:0:
192,192,56502,1,2,0:0:0:0:
320,192,56709,1,0,0:0:0:0:
448,192,56916,1,0,0:0:0:0:
64,192,56916,1,8,0:0:0:0:
192,192,57226,1,8,0:0:0:0:
448,192,57330,1,4,0:0:0:0:
320,192,57330,1,2,0:0:0:0:
64,192,57537,1,0,0:0:0:0:
192,192,57744,1,8,0:0:0:0:
448,192,57744,1,0,0:0:0:0:
320,192,57951,1,0,0:0:0:0:
64,192,58157,1,2,0:0:0:0:
192,192,58364,1,0,0:0:0:0:
448,192,58571,1,8,0:0:0:0:
64,192,58571,1,0,0:0:0:0:
320,192,58882,1,8,0:0:0:0:
64,192,58985,1,2,0:0:0:0:
448,192,59192,1,0,0:0:0:0:
320,192,59399,1,8,0:0:0:0:
192,192,59399,1,0,0:0:0:0:
64,192,59606,1,0,0:0:0:0:
448,192,59813,1,2,0:0:0:0:
192,192,60020,1,8,0:0:0:0:
320,192,60226,1,8,0:0:0:0:
64,192,60226,1,0,0:0:0:0:
448,192,60433,1,8,0:0:0:0:
320,192,60537,1,8,0:0:0:0:
192,192,60640,1,2,0:0:0:0:
64,192,60640,1,4,0:0:0:0:
448,192,60847,1,0,0:0:0:0:
320,192,61054,1,8,0:0:0:0:
64,192,61054,1,0,0:0:0:0:
192,192,61261,1,0,0:0:0:0:
448,192,61468,1,2,0:0:0:0:
64,192,61675,1,0,0:0:0:0:
192,192,61882,1,8,0:0:0:0:
320,192,61882,1,0,0:0:0:0:
448,192,62192,1,8,0:0:0:0:
64,192,62295,1,2,0:0:0:0:
192,192,62502,1,0,0:0:0:0:
448,192,62709,1,0,0:0:0:0:
320,192,62709,1,8,0:0:0:0:
64,192,62916,1,0,0:0:0:0:
448,192,63123,1,2,0:0:0:0:
192,192,63226,1,8,0:0:0:0:
64,192,63537,1,0,0:0:0:0:
448,192,63537,1,8,0:0:0:0:
320,192,63847,1,8,0:0:0:0:
192,192,63951,1,2,0:0:0:0:
64,192,63951,1,4,0:0:0:0:
448,192,64157,1,0,0:0:0:0:
320,192,64364,1,8,0:0:0:0:
64,192,64364,1,0,0:0:0:0:
192,192,64571,1,0,0:0:0:0:
448,192,64778,1,2,0:0:0:0:
320,192,64985,1,0,0:0:0:0:
192,192,65192,1,8,0:0:0:0:
64,192,65192,1,0,0:0:0:0:
192,192,65502,1,8,0:0:0:0:
448,192,65606,1,2,0:0:0:0:
320,192,65813,1,0,0:0:0:0:
64,192,66020,1,8,0:0:0:0:
192,192,66020,1,0,0:0:0:0:
448,192,66226,1,0,0:0:0:0:
320,192,66433,1,2,0:0:0:0:
64,192,66640,1,0,0:0:0:0:
448,192,66847,1,0,0:0:0:0:
192,192,66847,1,8,0:0:0:0:
320,192,67157,1,8,0:0:0:0:
64,192,67261,128,4,67675:0:0:0:0:
192,192,67261,1,2,0:0:0:0:
448,192,67468,1,0,0:0:0:0:
448,192,67675,128,0,68089:0:0:0:0:
320,192,67675,1,8,0:0:0:0:
192,192,67882,1,0,0:0:0:0:
320,192,68089,128,2,68502:0:0:0:0:
64,192,68295,1,0,0:0:0:0:
192,192,68502,128,0,68916:0:0:0:0:
448,192,68502,1,8,0:0:0:0:
320,192,68813,1,8,0:0:0:0:
64,192,68916,1,2,0:0:0:0:
448,192,69123,1,0,0:0:0:0:
320,192,69330,1,0,0:0:0:0:
64,192,69330,1,8,0:0:0:0:
192,192,69537,1,0,0:0:0:0:
448,192,69744,1,2,0:0:0:0:
320,192,69847,1,8,0:0:0:0:
64,192,70054,1,8,0:0:0:0:
192,192,70157,1,2,0:0:0:0:
320,192,70364,1,8,0:0:0:0:
192,192,70468,1,8,0:0:0:0:
64,192,70571,1,2,0:0:0:0:
448,192,70571,1,4,0:0:0:0:
320,192,70778,1,0,0:0:0:0:
192,192,70985,1,2,0:0:0:0:
64,192,70985,1,0,0:0:0:0:
448,192,71192,1,0,0:0:0:0:
320,192,71399,1,2,0:0:0:0:
64,192,71399,1,0,0:0:0:0:
192,192,71606,1,0,0:0:0:0:
448,192,71813,1,2,0:0:0:0:
320,192,71813,1,0,0:0:0:0:
64,192,72020,1,0,0:0:0:0:
192,192,72226,1,2,0:0:0:0:
320,192,72226,1,4,0:0:0:0:
320,192,72537,1,8,0:0:0:0:
192,192,72640,1,2,0:0:0:0:
64,192,72847,1,0,0:0:0:0:
448,192,72847,1,8,0:0:0:0:
192,192,73054,1,2,0:0:0:0:
320,192,73157,1,8,0:0:0:0:
320,192,73468,1,0,0:0:0:0:
192,192,73468,1,2,0:0:0:0:
448,192,73778,1,8,0:0:0:0:
64,192,73882,1,2,0:0:0:0:
192,192,73882,1,4,0:0:0:0:
448,192,74089,1,8,0:0:0:0:
192,192,74295,1,2,0:0:0:0:
320,192,74399,1,8,0:0:0:0:
64,192,74606,1,0,0:0:0:0:
192,192,74606,1,2,0:0:0:0:
192,192,75123,128,0,75537:0:0:0:0:
320,192,75123,1,8,0:0:0:0:
448,192,75537,1,2,0:0:0:0:
320,192,75537,1,4,0:0:0:0:
192,192,75744,1,0,0:0:0:0:
64,192,75951,1,0,0:0:0:0:
448,192,75951,1,8,0:0:0:0:
320,192,76157,1,0,0:0:0:0:
192,192,76364,1,2,0:0:0:0:
448,192,76571,1,0,0:0:0:0:
320,192,76778,1,8,0:0:0:0:
64,192,76778,1,0,0:0:0:0:
192,192,76985,1,0,0:0:0:0:
448,192,77192,1,2,0:0:0:0:
320,192,77399,1,0,0:0:0:0:
64,192,77606,1,0,0:0:0:0:
192,192,77606,1,8,0:0:0:0:
448,192,77813,1,0,0:0:0:0:
64,192,78020,1,2,0:0:0:0:
192,192,78226,1,0,0:0:0:0:
320,192,78433,1,8,0:0:0:0:
448,192,78433,1,0,0:0:0:0:
64,192,78640,1,0,0:0:0:0:
320,192,78847,1,8,0:0:0:0:
448,192,78847,1,0,0:0:0:0:
192,192,79054,1,0,0:0:0:0:
64,192,79261,1,2,0:0:0:0:
448,192,79467,1,0,0:0:0:0:
320,192,79674,1,8,0:0:0:0:
64,192,79674,1,0,0:0:0:0:
192,192,79881,1,0,0:0:0:0:
448,192,80088,1,2,0:0:0:0:
64,192,80295,1,0,0:0:0:0:
448,192,80502,1,8,0:0:0:0:
192,192,80502,1,0,0:0:0:0:
320,192,80709,1,0,0:0:0:0:
192,192,80916,128,4,81123:0:0:0:0:
64,192,80916,1,2,0:0:0:0:
320,192,81123,128,8,81329:0:0:0:0:
64,192,81329,128,2,81536:0:0:0:0:
448,192,81536,128,8,81743:0:0:0:0:
192,192,81743,128,2,82571:0:0:0:0:
448,192,82157,1,8,0:0:0:0:
320,192,82157,1,0,0:0:0:0:
448,192,82571,1,6,0:0:0:0:
320,192,82708,1,8,0:0:0:0:
192,192,82846,1,8,0:0:0:0:
448,192,82984,1,2,0:0:0:0:
320,192,83122,1,8,0:0:0:0:
192,192,83260,1,8,0:0:0:0:
448,192,83398,1,2,0:0:0:0:
64,192,83398,1,0,0:0:0:0:
64,192,83812,1,6,0:0:0:0:
192,192,83950,1,8,0:0:0:0:
320,192,84088,1,8,0:0:0:0:
64,192,84226,1,2,0:0:0:0:
192,192,84364,1,8,0:0:0:0:
320,192,84502,1,8,0:0:0:0:
448,192,84639,1,2,0:0:0:0:
64,192,84639,1,0,0:0:0:0:
64,192,85053,128,4,89191:0:0:0:0:
448,192,85053,1,2,0:0:0:0:
