osu file format v14

[General]
AudioFilename: audio.mp3
AudioLeadIn: 0
PreviewTime: 52374
Countdown: 0
SampleSet: Soft
StackLeniency: 0.7
Mode: 3
LetterboxInBreaks: 0
SpecialStyle: 0
WidescreenStoryboard: 1

[Editor]
Bookmarks: 38297,70571,80502,85053
DistanceSpacing: 1.3
BeatDivisor: 4
GridSize: 32
TimelineZoom: 1.8

[Metadata]
Title:a e i u e o ao!! (TV Size)
TitleUnicode:あ・え・い・う・え・お・あお!! (TV Size)
Artist:Gekidan Hitotose
ArtistUnicode:劇団ひととせ
Creator:Chilly-
Version:easy!!
Source:ひなこのーと
Tags:opening Hinako Note 桜木ひな子 Sakuragi M・A・O 市道真央 Ichimichi Mao 夏川くいな Natsukawa Kuina 富田美憂 Tomita Miyu 柊 真雪 Hiiragi Mayuki 小倉唯 Ogura Yui 萩野千秋 Hagino Chiaki 東城日沙子 Hisako Tojo 中島ゆあ Nakajima Yua 高野麻里佳 Kouno Marika
BeatmapID:1765310
BeatmapSetID:843804

[Difficulty]
HPDrainRate:7
CircleSize:4
OverallDifficulty:7
ApproachRate:7
SliderMultiplier:1.5
SliderTickRate:1

[Events]
//Background and Video events
Video,-200,"video.avi"
0,0,"bg.png",0,0
//Break Periods
//Storyboard Layer 0 (Background)
//Storyboard Layer 1 (Fail)
//Storyboard Layer 2 (Pass)
//Storyboard Layer 3 (Foreground)
//Storyboard Sound Samples

[TimingPoints]
644,413.793103448276,4,2,1,60,1,0
11402,413.793103448276,4,2,1,60,1,0
16781,413.793103448276,4,2,1,60,1,0
25470,413.793103448276,4,2,1,60,1,0
32504,413.793103448276,3,2,1,60,1,0
38297,413.793103448276,4,2,1,60,1,0
41607,413.793103448276,3,2,1,60,1,0
44089,413.793103448276,4,2,1,60,1,0
54020,-100,4,2,1,60,0,1
70571,-100,4,2,1,60,0,0
79261,413.793103448276,4,2,1,60,1,0
82571,413.793103448276,3,2,1,60,1,0

[Colours]
Combo1 : 147,255,174
Combo2 : 255,134,255
Combo3 : 255,255,96
Combo4 : 142,255,255
Combo5 : 255,184,113
Combo6 : 203,151,255

[HitObjects]
64,192,644,5,2,0:0:0:0:
448,192,644,1,0,0:0:0:0:
192,192,1471,1,2,0:0:0:0:
320,192,1471,1,0,0:0:0:0:
64,192,2299,1,2,0:0:0:0:
448,192,2712,1,2,0:0:0:0:
192,192,3126,1,2,0:0:0:0:
320,192,3540,128,2,3954:0:0:0:0:
64,192,3954,128,4,5609:0:0:0:0:
448,192,3954,1,2,0:0:0:0:
320,192,5609,128,0,6437:0:0:0:0:
448,192,5609,1,8,0:0:0:0:
192,192,6437,128,2,7264:0:0:0:0:
320,192,6850,1,8,0:0:0:0:
448,192,7264,1,2,0:0:0:0:
64,192,7264,1,4,0:0:0:0:
320,192,7678,1,8,0:0:0:0:
64,192,7678,1,0,0:0:0:0:
192,192,8092,1,2,0:0:0:0:
320,192,8506,1,8,0:0:0:0:
448,192,8506,1,0,0:0:0:0:
64,192,8919,1,6,0:0:0:0:
192,192,9333,1,2,0:0:0:0:
448,192,9747,1,2,0:0:0:0:
320,192,10057,1,8,0:0:0:0:
192,192,10368,1,8,0:0:0:0:
448,192,10678,1,8,0:0:0:0:
64,192,10988,1,2,0:0:0:0:
320,192,11402,128,6,12126:0:0:0:0:
64,192,12126,1,2,0:0:0:0:
192,192,12643,128,8,13057:0:0:0:0:
448,192,13057,1,2,0:0:0:0:
320,192,13057,1,4,0:0:0:0:
320,192,13470,1,8,0:0:0:0:
64,192,13470,1,0,0:0:0:0:
448,192,13884,1,2,0:0:0:0:
192,192,14298,1,8,0:0:0:0:
64,192,14298,1,0,0:0:0:0:
320,192,14712,1,2,0:0:0:0:
448,192,15126,1,0,0:0:0:0:
64,192,15126,1,8,0:0:0:0:
192,192,15539,1,2,0:0:0:0:
320,192,15953,1,8,0:0:0:0:
448,192,15953,1,0,0:0:0:0:
320,192,16367,1,8,0:0:0:0:
448,192,16367,1,0,0:0:0:0:
64,192,16781,1,2,0:0:0:0:
192,192,17194,1,8,0:0:0:0:
448,192,17194,1,0,0:0:0:0:
320,192,17608,1,2,0:0:0:0:
448,192,18022,1,0,0:0:0:0:
64,192,18022,1,8,0:0:0:0:
192,192,18436,128,6,18849:0:0:0:0:
320,192,18849,128,2,19263:0:0:0:0:
64,192,19263,128,2,20091:0:0:0:0:
320,192,19677,1,8,0:0:0:0:
192,192,20091,1,4,0:0:0:0:
448,192,20091,1,2,0:0:0:0:
320,192,20505,1,8,0:0:0:0:
64,192,20918,1,2,0:0:0:0:
448,192,21332,1,8,0:0:0:0:
192,192,21746,1,2,0:0:0:0:
320,192,22160,1,8,0:0:0:0:
192,192,22574,1,2,0:0:0:0:
448,192,22987,128,2,23401:0:0:0:0:
64,192,23401,1,2,0:0:0:0:
320,192,23401,1,4,0:0:0:0:
192,192,23815,1,0,0:0:0:0:
320,192,23815,1,8,0:0:0:0:
448,192,24229,1,2,0:0:0:0:
64,192,24643,1,0,0:0:0:0:
320,192,24643,1,8,0:0:0:0:
448,192,25056,1,8,0:0:0:0:
448,192,25263,1,8,0:0:0:0:
192,192,25470,1,4,0:0:0:0:
64,192,25470,1,2,0:0:0:0:
448,192,25883,1,8,0:0:0:0:
192,192,26297,1,2,0:0:0:0:
320,192,26711,1,8,0:0:0:0:
64,192,27125,1,2,0:0:0:0:
448,192,27538,1,8,0:0:0:0:
320,192,27952,1,2,0:0:0:0:
64,192,28366,128,2,28780:0:0:0:0:
448,192,28780,1,2,0:0:0:0:
192,192,28780,1,4,0:0:0:0:
320,192,29194,1,0,0:0:0:0:
192,192,29194,1,8,0:0:0:0:
64,192,29607,1,2,0:0:0:0:
448,192,30021,1,8,0:0:0:0:
320,192,30021,1,0,0:0:0:0:
192,192,30435,1,8,0:0:0:0:
192,192,30642,1,8,0:0:0:0:
320,192,31470,1,2,0:0:0:0:
192,192,31676,1,2,0:0:0:0:
320,192,32090,1,8,0:0:0:0:
448,192,32090,128,0,32504:0:0:0:0:
64,192,32504,128,4,33745:0:0:0:0:
192,192,32504,1,2,0:0:0:0:
320,192,33745,128,2,34986:0:0:0:0:
192,192,34986,128,4,36228:0:0:0:0:
448,192,34986,1,2,0:0:0:0:
448,192,36228,128,2,37469:0:0:0:0:
192,192,37469,1,8,0:0:0:0:
320,192,37676,1,8,0:0:0:0:
64,192,37883,128,0,38297:0:0:0:0:
192,192,38297,1,2,0:0:0:0:
448,192,38297,1,4,0:0:0:0:
320,192,38710,1,0,0:0:0:0:
448,192,38710,1,8,0:0:0:0:
192,192,39124,1,2,0:0:0:0:
448,192,39538,1,0,0:0:0:0:
64,192,39538,1,8,0:0:0:0:
320,192,39952,1,2,0:0:0:0:
64,192,40365,1,0,0:0:0:0:
192,192,40365,1,8,0:0:0:0:
320,192,40779,1,2,0:0:0:0:
448,192,41193,1,8,0:0:0:0:
192,192,41193,1,0,0:0:0:0:
64,192,41607,128,6,42020:0:0:0:0:
448,192,42020,128,2,42434:0:0:0:0:
192,192,42434,1,2,0:0:0:0:
320,192,42848,128,6,43262:0:0:0:0:
192,192,43262,128,2,43675:0:0:0:0:
448,192,43675,128,2,44089:0:0:0:0:
320,192,44089,1,6,0:0:0:0:
192,192,44089,1,0,0:0:0:0:
448,192,44502,1,8,0:0:0:0:
64,192,44502,1,0,0:0:0:0:
320,192,44916,1,2,0:0:0:0:
192,192,45330,1,8,0:0:0:0:
64,192,45330,1,0,0:0:0:0:
448,192,45744,1,2,0:0:0:0:
320,192,46157,1,8,0:0:0:0:
64,192,46157,1,0,0:0:0:0:
192,192,46571,1,2,0:0:0:0:
448,192,46985,1,0,0:0:0:0:
64,192,46985,1,8,0:0:0:0:
192,192,47399,1,4,0:0:0:0:
320,192,47399,1,2,0:0:0:0:
448,192,47813,1,8,0:0:0:0:
64,192,47813,1,0,0:0:0:0:
192,192,48226,1,2,0:0:0:0:
448,192,48640,1,0,0:0:0:0:
320,192,48640,1,8,0:0:0:0:
64,192,49054,1,2,0:0:0:0:
192,192,49468,1,8,0:0:0:0:
448,192,49468,1,0,0:0:0:0:
320,192,49882,1,2,0:0:0:0:
64,192,50295,1,8,0:0:0:0:
448,192,50295,1,0,0:0:0:0:
320,192,50709,1,2,0:0:0:0:
192,192,50709,1,4,0:0:0:0:
64,192,51123,1,8,0:0:0:0:
448,192,51123,1,0,0:0:0:0:
192,192,51537,1,2,0:0:0:0:
320,192,51951,1,8,0:0:0:0:
192,192,52364,1,4,0:0:0:0:
64,192,52364,1,2,0:0:0:0:
448,192,52778,1,6,0:0:0:0:
192,192,53192,1,6,0:0:0:0:
448,192,53606,128,4,54020:0:0:0:0:
64,192,54020,1,2,0:0:0:0:
192,192,54020,1,4,0:0:0:0:
448,192,54433,1,0,0:0:0:0:
320,192,54433,1,8,0:0:0:0:
64,192,54847,1,2,0:0:0:0:
192,192,55261,1,0,0:0:0:0:
448,192,55261,1,8,0:0:0:0:
320,192,55675,1,2,0:0:0:0:
192,192,56089,1,8,0:0:0:0:
64,192,56089,1,0,0:0:0:0:
320,192,56502,1,2,0:0:0:0:
448,192,56916,1,0,0:0:0:0:
64,192,56916,1,8,0:0:0:0:
320,192,57330,1,4,0:0:0:0:
192,192,57330,1,2,0:0:0:0:
64,192,57744,1,0,0:0:0:0:
320,192,57744,1,8,0:0:0:0:
192,192,58157,1,2,0:0:0:0:
320,192,58571,1,8,0:0:0:0:
448,192,58571,1,0,0:0:0:0:
192,192,58985,1,2,0:0:0:0:
64,192,59399,1,8,0:0:0:0:
448,192,59399,1,0,0:0:0:0:
320,192,59813,1,2,0:0:0:0:
192,192,60226,1,8,0:0:0:0:
64,192,60226,1,0,0:0:0:0:
448,192,60433,1,8,0:0:0:0:
320,192,60640,1,2,0:0:0:0:
192,192,60640,1,4,0:0:0:0:
64,192,61054,1,0,0:0:0:0:
448,192,61054,1,8,0:0:0:0:
192,192,61468,1,2,0:0:0:0:
320,192,61882,1,8,0:0:0:0:
448,192,61882,1,0,0:0:0:0:
64,192,62295,1,2,0:0:0:0:
192,192,62709,1,8,0:0:0:0:
448,192,62709,1,0,0:0:0:0:
320,192,63123,1,2,0:0:0:0:
64,192,63537,1,8,0:0:0:0:
448,192,63537,1,0,0:0:0:0:
192,192,63951,1,2,0:0:0:0:
64,192,63951,1,4,0:0:0:0:
448,192,64364,1,8,0:0:0:0:
192,192,64364,1,0,0:0:0:0:
320,192,64778,1,2,0:0:0:0:
192,192,65192,1,8,0:0:0:0:
64,192,65192,1,0,0:0:0:0:
320,192,65606,1,2,0:0:0:0:
448,192,66020,1,0,0:0:0:0:
64,192,66020,1,8,0:0:0:0:
192,192,66433,1,2,0:0:0:0:
320,192,66847,1,8,0:0:0:0:
448,192,66847,1,0,0:0:0:0:
64,192,67261,128,6,67675:0:0:0:0:
448,192,67675,128,0,68089:0:0:0:0:
192,192,67675,1,8,0:0:0:0:
320,192,68089,128,2,68502:0:0:0:0:
192,192,68502,128,0,68916:0:0:0:0:
64,192,68502,1,8,0:0:0:0:
448,192,68916,1,2,0:0:0:0:
64,192,69330,1,0,0:0:0:0:
192,192,69330,1,8,0:0:0:0:
320,192,69744,128,2,70157:0:0:0:0:
64,192,70157,1,2,0:0:0:0:
192,192,70364,1,8,0:0:0:0:
320,192,70571,1,2,0:0:0:0:
448,192,70571,1,4,0:0:0:0:
192,192,70985,1,2,0:0:0:0:
320,192,71399,1,2,0:0:0:0:
64,192,71813,1,2,0:0:0:0:
448,192,72226,1,6,0:0:0:0:
320,192,72537,1,8,0:0:0:0:
192,192,72847,1,8,0:0:0:0:
64,192,73157,1,8,0:0:0:0:
448,192,73468,1,2,0:0:0:0:
192,192,73882,128,6,74606:0:0:0:0:
320,192,74606,1,2,0:0:0:0:
64,192,75123,128,8,75537:0:0:0:0:
320,192,75537,1,2,0:0:0:0:
448,192,75537,1,4,0:0:0:0:
192,192,75951,1,8,0:0:0:0:
64,192,75951,1,0,0:0:0:0:
320,192,76364,1,2,0:0:0:0:
448,192,76778,1,0,0:0:0:0:
192,192,76778,1,8,0:0:0:0:
64,192,77192,1,2,0:0:0:0:
448,192,77606,1,0,0:0:0:0:
192,192,77606,1,8,0:0:0:0:
320,192,78020,1,2,0:0:0:0:
64,192,78433,1,0,0:0:0:0:
192,192,78433,1,8,0:0:0:0:
192,192,78847,1,8,0:0:0:0:
64,192,78847,1,0,0:0:0:0:
320,192,79261,1,2,0:0:0:0:
448,192,79674,1,0,0:0:0:0:
192,192,79674,1,8,0:0:0:0:
64,192,80088,1,2,0:0:0:0:
320,192,80502,1,8,0:0:0:0:
448,192,80502,1,0,0:0:0:0:
320,192,80916,128,6,81329:0:0:0:0:
192,192,81329,128,2,81743:0:0:0:0:
448,192,81743,128,2,82571:0:0:0:0:
192,192,82157,1,8,0:0:0:0:
64,192,82571,128,6,82984:0:0:0:0:
320,192,82984,128,2,83398:0:0:0:0:
192,192,83398,1,2,0:0:0:0:
448,192,83812,128,6,84226:0:0:0:0:
192,192,84226,128,2,84639:0:0:0:0:
320,192,84639,1,2,0:0:0:0:
448,192,85053,1,2,0:0:0:0:
64,192,85053,128,4,89191:0:0:0:0:
