osu file format v14

[General]
AudioFilename: audio.mp3
AudioLeadIn: 0
PreviewTime: 54030
Countdown: 0
SampleSet: Soft
StackLeniency: 0.7
Mode: 0
LetterboxInBreaks: 0
WidescreenStoryboard: 1

[Editor]
Bookmarks: 71823
DistanceSpacing: 1
BeatDivisor: 4
GridSize: 32
TimelineZoom: 3.599999

[Metadata]
Title:a e i u e o ao!!
TitleUnicode:あ・え・い・う・え・お・あお!!
Artist:Gekidan Hitotose
ArtistUnicode:劇団ひととせ
Creator:Kashima
Version:byd's Easy
Source:ひなこのーと
Tags:Opening Hinako Note 桜木ひな子 Sakuragi M・A・O 市道真央 Ichimichi Mao 夏川くいな Natsukawa Kuina 富田美憂 Tomita Miyu 柊 真雪 Hiiragi Mayuki 小倉唯 Ogura Yui 萩野千秋 Hagino Chiaki 東城日沙子 Hisako Tojo 中島ゆあ Nakajima Yua 高野麻里佳 Kouno Marika - Sunflower - Karen Moecho bite you death byd
BeatmapID:1358865
BeatmapSetID:620436

[Difficulty]
HPDrainRate:2
CircleSize:3
OverallDifficulty:2
ApproachRate:3
SliderMultiplier:0.9
SliderTickRate:1

[Events]
//Background and Video events
0,0,"hinako.png",0,0
//Break Periods
//Storyboard Layer 0 (Background)
//Storyboard Layer 1 (Fail)
//Storyboard Layer 2 (Pass)
//Storyboard Layer 3 (Foreground)
//Storyboard Sound Samples

[TimingPoints]
654,413.793103448276,4,2,1,50,1,0
11412,413.793103448276,4,2,1,50,1,0
12653,-100,4,2,2,50,0,0
13067,-100,4,2,1,50,0,0
16791,413.793103448276,4,2,1,50,1,0
25480,413.793103448276,4,2,1,50,1,0
30859,413.793103448276,4,2,1,50,1,0
38307,413.793103448276,4,2,1,50,1,0
41617,413.793103448276,3,2,1,50,1,0
44099,413.793103448276,4,2,1,50,1,0
50720,413.793103448276,4,2,1,50,1,0
54030,-100,4,2,1,50,0,1
75133,-100,4,2,2,50,0,1
75547,-100,4,2,1,50,0,0
79271,413.793103448276,4,2,1,50,1,0
82581,413.793103448276,3,2,1,50,1,0
85063,413.793103448276,4,2,1,50,1,0

[Colours]
Combo1 : 176,176,217
Combo2 : 255,157,206
Combo3 : 128,128,255
Combo4 : 255,174,255

[HitObjects]
73,156,654,6,0,B|162:125|161:187|264:150,1,180,8|8,0:0|0:0,0:0:0:0:
386,38,2309,2,0,P|426:122|397:212,1,180,8|10,0:0|0:0,0:0:0:0:
293,345,3964,5,4,0:1:0:0:
293,345,5619,2,0,P|284:254|277:151,1,180,4|4,0:1|0:1,0:0:0:0:
315,83,6860,1,8,0:0:0:0:
236,38,7274,6,0,P|191:33|137:47,1,90,0|8,0:0|0:0,0:0:0:0:
80,102,8102,2,0,L|73:208,1,90,0|8,0:0|0:0,0:0:0:0:
115,271,8929,6,0,P|159:253|217:259,1,90,2|10,0:0|0:0,0:0:0:0:
266,316,9757,2,0,P|340:329|412:301,2,135,2|8|2,0:0|0:0|0:0,0:0:0:0:
200,254,11412,6,0,P|204:173|138:97,1,180,8|2,0:0|0:0,0:0:0:0:
110,16,12653,1,8,0:0:0:0:
198,29,13067,6,0,L|380:22,1,180,0|2,0:0|0:0,0:0:0:0:
455,68,14308,1,0,0:0:0:0:
494,148,14722,2,0,P|495:203|477:251,1,90,2|8,0:0|0:0,0:0:0:0:
411,288,15549,2,0,L|306:283,1,90,2|0,0:0|0:0,0:0:0:0:
231,289,16377,1,2,0:0:0:0:
178,361,16791,6,0,P|141:283|187:210,1,180,8|2,0:0|0:0,0:0:0:0:
274,189,18032,1,0,0:0:0:0:
345,243,18446,2,0,P|399:251|444:238,1,90,2|2,0:0|0:0,0:0:0:0:
486,170,19274,2,0,L|478:73,1,90,2|8,0:0|0:0,0:0:0:0:
409,22,20101,6,0,P|322:5|221:38,1,180,0|2,0:0|0:0,0:0:0:0:
173,94,21342,1,0,0:0:0:0:
120,166,21756,2,0,L|126:262,1,90,0|0,0:0|0:0,0:0:0:0:
174,331,22583,2,0,P|227:340|278:327,1,90,2|0,0:0|0:0,0:0:0:0:
331,275,23411,6,0,L|306:85,1,180,4|2,0:1|0:0,0:0:0:0:
241,35,24652,2,0,P|200:30|144:44,1,90,2|8,0:0|0:0,0:0:0:0:
83,97,25480,6,0,B|113:177|51:182|82:281,1,180,4|2,0:1|0:0,0:0:0:0:
140,339,26721,1,0,0:0:0:0:
210,283,27135,2,0,P|300:258|394:288,1,180,0|2,0:0|0:0,0:0:0:0:
443,345,28376,1,0,0:0:0:0:
487,266,28790,6,0,L|469:73,1,180,4|2,0:1|0:0,0:0:0:0:
415,13,30031,1,2,0:0:0:0:
337,58,30445,6,0,L|276:48,1,45,8|8,0:0|0:0,0:0:0:0:
126,121,31479,2,0,L|183:118,1,45,8|8,0:0|0:0,0:0:0:0:
241,174,32100,1,4,0:1:0:0:
293,246,32514,6,0,P|329:185|266:87,1,180,0|8,0:0|0:0,0:0:0:0:
195,77,33755,2,0,L|386:55,1,180,0|2,0:0|0:0,0:0:0:0:
447,107,34996,6,0,B|474:197|420:199|441:287,1,180,0|8,0:0|0:0,0:0:0:0:
372,343,36238,2,0,P|286:365|183:329,1,180,0|2,0:0|0:0,0:0:0:0:
133,280,37479,5,8,0:0:0:0:
133,280,38307,6,0,L|137:179,1,90,0|8,0:0|0:0,0:0:0:0:
185,114,39134,2,0,P|231:103|283:118,1,90,0|8,0:0|0:0,0:0:0:0:
338,173,39962,2,0,P|384:184|436:169,1,90,0|8,0:0|0:0,0:0:0:0:
494,117,40789,2,0,P|513:163|504:217,1,90,0|8,0:0|0:0,0:0:0:0:
438,257,41617,6,0,B|413:306|429:353|429:353|390:310|345:308,1,180,4|8,0:1|0:0,0:0:0:0:
277,341,42858,6,0,P|184:358|89:326,1,180,4|0,0:1|0:0,0:0:0:0:
49,262,44099,6,0,L|64:68,1,180,4|0,0:1|0:0,0:0:0:0:
131,24,45340,1,8,0:0:0:0:
200,81,45754,2,0,P|246:92|308:81,1,90,2|8,0:0|0:0,0:0:0:0:
364,40,46581,2,0,P|410:29|472:40,1,90,2|8,0:0|0:0,0:0:0:0:
495,112,47409,6,0,L|481:302,1,180,2|2,0:0|0:0,0:0:0:0:
420,357,48650,1,0,0:0:0:0:
346,305,49064,2,0,P|293:297|246:310,1,90,8|10,0:0|0:0,0:0:0:0:
179,349,49892,2,0,P|126:357|79:344,1,90,8|10,0:0|0:0,0:0:0:0:
35,278,50719,6,8,L|53:80,1,180,4|10,0:1|0:0,0:0:0:0:
105,26,51961,1,0,0:0:0:0:
169,89,52375,6,0,B|214:103|214:103|264:90,1,90,8|8,0:0|0:0,0:0:0:0:
326,36,53202,2,0,B|371:22|371:22|421:35,1,90,10|10,0:0|0:0,0:0:0:0:
479,93,54030,6,0,B|503:175|444:173|466:272,1,180,2|2,0:0|0:0,0:0:0:0:
415,343,55271,1,0,0:0:0:0:
348,281,55685,2,0,P|255:265|158:292,1,180,2|0,0:0|0:0,0:0:0:0:
101,339,56926,1,8,0:0:0:0:
46,266,57340,6,0,L|57:76,1,180,2|2,0:0|0:0,0:0:0:0:
121,25,58582,1,10,0:0:0:0:
193,78,58995,2,0,P|249:83|294:70,1,90,0|10,0:0|0:0,0:0:0:0:
357,123,59823,2,0,L|347:227,1,90,2|8,0:0|0:0,0:0:0:0:
285,277,60651,6,0,P|206:250|106:276,1,180,2|0,0:0|0:0,0:0:0:0:
45,329,61892,1,10,0:0:0:0:
7,247,62306,2,0,L|15:136,1,90,2|10,0:0|0:0,0:0:0:0:
65,83,63133,2,0,P|110:69|166:76,1,90,0|10,0:0|0:0,0:0:0:0:
214,136,63961,6,0,B|296:167|309:109|390:145,1,180,2|0,0:0|0:0,0:0:0:0:
447,214,65202,1,8,0:0:0:0:
502,143,65616,2,0,P|536:222|484:296,1,180,2|0,0:0|0:0,0:0:0:0:
399,276,66857,1,8,0:0:0:0:
320,319,67271,6,0,P|272:325|216:311,1,90,2|10,0:0|0:0,0:0:0:0:
164,257,68099,2,0,P|116:251|60:265,1,90,2|10,0:0|0:0,0:0:0:0:
20,330,68926,2,0,L|35:139,1,180,2|0,0:0|0:0,0:0:0:0:
87,77,70168,1,10,0:0:0:0:
169,39,70582,6,0,B|255:14|262:76|354:47,1,180,8|8,0:0|0:0,0:0:0:0:
429,18,71823,1,10,0:0:0:0:
480,92,72237,6,0,L|470:285,1,180,8|0,0:0|0:0,0:0:0:0:
416,343,73478,1,8,0:0:0:0:
343,289,73892,6,0,P|273:275|178:302,1,157.5,8|2,0:0|0:0,0:0:0:0:
103,366,75133,1,8,0:2:0:0:
53,291,75547,6,0,L|68:98,1,180,2|2,0:0|0:0,0:0:0:0:
130,48,76788,1,0,0:0:0:0:
205,97,77202,2,0,P|259:105|303:90,1,90,2|8,0:0|0:0,0:0:0:0:
367,46,78030,2,0,P|421:38|465:53,1,90,2|0,0:0|0:0,0:0:0:0:
504,122,78857,1,2,0:0:0:0:
433,177,79271,6,0,B|404:261|467:262|425:365,1,180,2|2,0:0|0:0,0:0:0:0:
341,369,80512,1,0,0:0:0:0:
264,321,80926,2,0,P|217:315|158:325,1,90,2|2,0:0|0:0,0:0:0:0:
97,366,81753,2,0,P|84:316|100:266,1,90,2|8,0:0|0:0,0:0:0:0:
154,213,82581,6,0,B|136:159|161:120|161:120|123:89|133:27,1,180,4|8,0:1|0:0,0:0:0:0:
220,54,83822,6,0,B|307:23|311:78|397:46,1,180,4|0,0:1|0:0,0:0:0:0:
473,92,85063,5,4,0:1:0:0:
256,192,85166,12,0,89200,0:0:0:0:
