osu file format v14

[General]
AudioFilename: audio.mp3
AudioLeadIn: 0
PreviewTime: 54030
Countdown: 0
SampleSet: Soft
StackLeniency: 0.3
Mode: 0
LetterboxInBreaks: 0
WidescreenStoryboard: 0

[Editor]
DistanceSpacing: 0.5
BeatDivisor: 4
GridSize: 32
TimelineZoom: 2.1

[Metadata]
Title:a e i u e o ao!!
TitleUnicode:あ・え・い・う・え・お・あお!!
Artist:Gekidan Hitotose
ArtistUnicode:劇団ひととせ
Creator:Kashima
Version:Moecho's Insane
Source:ひなこのーと
Tags:Opening Hinako Note 桜木ひな子 Sakuragi M・A・O 市道真央 Ichimichi Mao 夏川くいな Natsukawa Kuina 富田美憂 Tomita Miyu 柊 真雪 Hiiragi Mayuki 小倉唯 Ogura Yui 萩野千秋 Hagino Chiaki 東城日沙子 Hisako Tojo 中島ゆあ Nakajima Yua 高野麻里佳 Kouno Marika - Sunflower - Karen Moecho bite you death byd
BeatmapID:1412467
BeatmapSetID:620436

[Difficulty]
HPDrainRate:6
CircleSize:4
OverallDifficulty:7.5
ApproachRate:8.5
SliderMultiplier:1.6
SliderTickRate:1

[Events]
//Background and Video events
0,0,"hinako.png",0,0
//Break Periods
//Storyboard Layer 0 (Background)
//Storyboard Layer 1 (Fail)
//Storyboard Layer 2 (Pass)
//Storyboard Layer 3 (Foreground)
//Storyboard Sound Samples

[TimingPoints]
654,413.793103448276,4,2,1,50,1,0
3550,-66.6666666666667,4,2,1,50,0,0
3964,-100,4,2,1,50,0,0
11412,413.793103448276,4,2,1,50,1,0
12653,-66.6666666666667,4,2,2,50,0,0
13067,-100,4,2,1,50,0,0
16791,413.793103448276,4,2,1,50,1,0
25480,413.793103448276,4,2,1,50,1,0
30859,413.793103448276,4,2,1,50,1,0
32100,-80,4,2,1,50,0,0
32514,-133.333333333333,4,2,1,50,0,0
38307,413.793103448276,4,2,1,50,1,0
41617,413.793103448276,3,2,1,50,1,0
43685,-133.333333333333,3,2,1,50,0,0
44099,413.793103448276,4,2,1,50,1,0
49685,-80,4,2,1,50,0,0
50720,413.793103448276,4,2,1,50,1,0
50720,-80,4,2,1,50,0,0
53616,-66.6666666666667,4,2,1,50,0,0
54030,-83.3333333333333,4,2,1,70,0,1
67685,-95.2380952380952,4,2,1,70,0,1
68099,-111.111111111111,4,2,1,70,0,1
68512,-133.333333333333,4,2,1,70,0,1
68926,-100,4,2,1,70,0,1
70581,-66.6666666666667,4,2,1,70,0,1
70995,-100,4,2,1,70,0,1
71409,-66.6666666666667,4,2,1,70,0,1
71823,-100,4,2,1,70,0,1
72236,-80,4,2,1,70,0,1
75133,-66.6666666666667,4,2,2,70,0,1
75547,-100,4,2,1,70,0,1
79271,413.793103448276,4,2,1,50,1,0
82581,413.793103448276,3,2,1,50,1,0
82581,-80,3,2,1,50,0,0
85063,413.793103448276,4,2,1,50,1,0
85063,-126.582278481013,4,2,1,50,0,0

[Colours]
Combo1 : 255,190,125
Combo2 : 255,157,206
Combo3 : 255,128,128
Combo4 : 255,255,128

[HitObjects]
102,176,654,6,0,P|137:158|177:157,1,80,8|0,0:0|0:0,0:0:0:0:
244,195,964,1,0,0:0:0:0:
244,195,1067,1,0,0:0:0:0:
208,79,1274,1,0,0:0:0:0:
73,110,1481,6,0,P|118:148|177:156,1,120,8|0,0:0|0:0,0:0:0:0:
287,86,1895,2,0,L|278:46,1,40,0|0,0:0|0:0,0:0:0:0:
474,231,2309,5,8,0:0:0:0:
448,153,2516,1,2,0:0:0:0:
380,231,2722,5,8,0:0:0:0:
347,134,2929,1,2,0:0:0:0:
286,231,3136,5,10,0:0:0:0:
244,110,3343,1,2,0:0:0:0:
125,293,3550,6,0,B|176:357|231:301|261:306|261:306|231:301|217:265,1,180.000006866455,6|0,0:0|0:0,0:0:0:0:
366,349,3964,6,0,P|386:309|263:245,1,200,4|0,0:1|0:0,0:0:0:0:
261,306,4585,2,0,L|221:313,1,40,0|0,0:0|0:0,0:0:0:0:
78,365,4791,1,0,0:0:0:0:
78,365,4895,2,0,L|-9:349,2,80,0|0|0,0:0|0:0|0:0,0:0:0:0:
150,340,5412,1,0,0:0:0:0:
126,222,5619,6,0,L|111:137,1,80,4|0,0:1|0:0,0:0:0:0:
6,274,6033,1,0,0:0:0:0:
6,274,6136,2,0,L|93:290,1,80,0|0,0:0|0:0,0:0:0:0:
186,326,6447,2,0,L|206:207,1,120,4|0,0:1|0:0,0:0:0:0:
112,143,6860,2,0,L|126:222,1,80,8|0,0:0|0:0,0:0:0:0:
93,66,7274,5,0,0:0:0:0:
41,199,7481,1,0,0:0:0:0:
126,222,7688,2,0,L|119:182,1,40,8|0,0:0|0:0,0:0:0:0:
141,299,7895,1,0,0:0:0:0:
319,236,8102,5,0,0:0:0:0:
200,192,8309,1,0,0:0:0:0:
294,135,8516,5,8,0:0:0:0:
228,314,8723,1,0,0:0:0:0:
416,282,8929,5,2,0:0:0:0:
331,339,9136,1,0,0:0:0:0:
228,314,9343,1,10,0:0:0:0:
228,314,9447,2,0,P|192:297|152:295,1,80,0|0,0:0|0:0,0:0:0:0:
77,314,9757,2,0,P|116:312|152:295,1,80,2|0,0:0|0:0,0:0:0:0:
213,213,10067,1,8,0:0:0:0:
213,213,10171,2,0,L|221:146,1,40,0|0,0:0|0:0,0:0:0:0:
229,95,10378,1,8,0:0:0:0:
70,66,10585,5,2,0:0:0:0:
70,65,10688,2,0,P|103:44|143:40,1,80,8|0,0:0|0:0,0:0:0:0:
217,18,10998,1,2,0:0:0:0:
216,18,11102,2,0,P|182:38|142:42,1,80,8|0,0:0|0:0,0:0:0:0:
134,129,11412,6,0,L|142:177,1,40,8|8,0:0|0:0,0:0:0:0:
252,279,11618,2,0,L|206:261,1,40,8|8,0:0|0:0,0:0:0:0:
32,331,11825,2,0,L|69:300,1,40,8|8,0:0|0:0,0:0:0:0:
146,244,12032,1,8,0:0:0:0:
146,244,12136,1,2,0:0:0:0:
145,243,12653,6,0,B|128:236|99:234|99:234|174:200|214:264,1,180.000006866455,8|0,0:0|0:0,0:0:0:0:
289,308,13067,6,0,L|328:302,1,40,0|0,0:0|0:0,0:0:0:0:
384,224,13274,2,0,L|423:218,1,40,0|0,0:0|0:0,0:0:0:0:
276,325,13480,6,0,L|315:319,1,40,8|0,0:0|0:0,0:0:0:0:
371,241,13687,2,0,L|410:235,1,40
262,349,13894,6,0,P|300:339|339:344,1,80,2|0,0:0|0:0,0:0:0:0:
417,349,14205,2,0,P|377:354|339:343,1,80,2|0,0:0|0:0,0:0:0:0:
278,247,14515,1,0,0:1:0:0:
289,76,14722,6,0,L|328:82,1,40,2|0,0:0|0:0,0:0:0:0:
384,160,14929,2,0,L|423:166,1,40,0|0,0:0|0:0,0:0:0:0:
276,59,15135,6,0,L|315:65,1,40,8|0,0:0|0:0,0:0:0:0:
371,143,15342,2,0,L|410:149,1,40,0|0,0:0|0:0,0:0:0:0:
262,34,15549,6,0,P|300:44|339:39,1,80,2|0,0:0|0:0,0:0:0:0:
417,35,15860,2,0,P|377:29|339:40,1,80,2|0,0:0|0:0,0:0:0:0:
278,137,16170,2,0,L|221:127,1,40,0|0,0:0|0:0,0:0:0:0:
174,67,16377,2,0,P|168:47|166:27,2,40,2|0|0,0:0|0:0|0:0,0:0:0:0:
295,159,16791,6,0,P|256:149|217:158,1,80,8|0,0:0|0:0,0:0:0:0:
157,217,17101,1,0,0:0:0:0:
157,217,17205,6,0,L|118:211,1,40,2|0,0:0|0:0,0:0:0:0:
62,133,17412,2,0,L|23:127,1,40,0|0,0:0|0:0,0:0:0:0:
171,241,17618,6,0,P|133:231|94:236,1,80,2|2,0:0|0:0,0:0:0:0:
16,241,17929,2,0,P|56:246|94:235,1,80,2|2,0:0|0:0,0:0:0:0:
155,139,18239,1,2,0:0:0:0:
155,139,18446,6,0,L|148:99,1,40,2|8,0:0|0:0,0:0:0:0:
249,104,18653,6,0,L|284:85,1,40,8|8,0:0|0:0,0:0:0:0:
335,186,18860,6,0,L|363:213,1,40,2|8,0:0|0:0,0:0:0:0:
271,296,19067,6,0,L|253:331,1,40,8|8,0:0|0:0,0:0:0:0:
116,285,19274,6,0,L|76:279,1,40,2|0,0:0|0:0,0:0:0:0:
202,215,19480,2,0,L|196:255,1,40,0|0,0:0|0:0,0:0:0:0:
56,367,19687,6,0,P|109:341|168:345,1,120,8|0,0:0|0:0,0:0:0:0:
241,384,20101,6,0,L|320:372,1,80,0|0,0:0|0:0,0:0:0:0:
396,365,20411,1,0,0:0:0:0:
396,365,20514,1,0,0:0:0:0:
341,226,20721,1,0,0:0:0:0:
422,246,20928,2,0,L|476:254,1,40,2|0,0:0|0:0,0:0:0:0:
273,280,21135,2,0,L|228:311,1,40,0|2,0:0|0:0,0:0:0:0:
341,226,21342,2,0,P|341:186|323:148,1,80,0|0,0:0|0:0,0:0:0:0:
299,74,21652,1,0,0:0:0:0:
299,74,21756,6,0,L|259:70,1,40,0|0,0:0|0:0,0:0:0:0:
159,117,21963,2,0,L|119:113,1,40,0|0,0:0|0:0,0:0:0:0:
273,83,22169,6,0,L|233:79,1,40,0|0,0:0|0:0,0:0:0:0:
133,126,22376,2,0,L|93:122,1,40,0|0,0:0|0:0,0:0:0:0:
0,29,22583,6,0,L|39:25,1,40,2|0,0:0|0:0,0:0:0:0:
128,38,22790,2,0,L|167:34,1,40,0|2,0:0|0:0,0:0:0:0:
107,197,22997,2,0,P|90:161|93:122,1,80,0|0,0:0|0:0,0:0:0:0:
174,114,23307,1,0,0:0:0:0:
174,114,23411,6,0,L|213:110,2,40,4|0|0,0:1|0:0|0:0,0:0:0:0:
74,270,23825,2,0,L|35:266,2,40,0|0|0,0:0|0:0|0:0,0:0:0:0:
239,179,24238,6,0,L|235:218,1,40,2|0,0:0|0:0,0:0:0:0:
149,281,24445,2,0,L|188:285,1,40,2|0,0:0|0:0,0:0:0:0:
260,200,24652,6,0,L|256:239,1,40,2|0,0:0|0:0,0:0:0:0:
170,302,24859,2,0,L|209:306,1,40,2|0,0:0|0:0,0:0:0:0:
337,226,25066,5,8,0:0:0:0:
122,209,25273,1,8,0:0:0:0:
258,383,25480,6,0,P|291:362|330:354,1,80,4|0,0:1|0:0,0:0:0:0:
464,315,25893,2,0,P|424:307|391:285,1,80,0|0,0:0|0:0,0:0:0:0:
341,230,26204,1,0,0:0:0:0:
341,230,26307,2,0,L|348:150,1,80,2|0,0:0|0:0,0:0:0:0:
263,119,26617,2,0,L|271:158,1,40,2|0,0:0|0:0,0:0:0:0:
439,76,26928,1,0,0:0:0:0:
439,76,27031,1,0,0:0:0:0:
437,74,27135,6,0,P|422:60|405:49,1,40,0|0,0:0|0:0,0:0:0:0:
330,34,27342,2,0,P|310:39|292:48,1,40,0|0,0:0|0:0,0:0:0:0:
438,156,27548,6,0,L|423:194,1,40,0|0,0:0|0:0,0:0:0:0:
263,119,27755,2,0,L|271:158,1,40,0|0,0:0|0:0,0:0:0:0:
341,230,27962,5,2,0:0:0:0:
341,230,28066,2,0,L|348:150,1,80,0|2,0:0|0:0,0:0:0:0:
369,300,28376,2,0,P|326:286|283:292,1,80,0|0,0:0|0:0,0:0:0:0:
218,335,28686,1,0,0:0:0:0:
218,335,28790,6,0,L|227:373,2,40,4|0|0,0:1|0:0|0:0,0:0:0:0:
126,223,29204,2,0,L|135:184,2,40,0|0|0,0:0|0:0|0:0,0:0:0:0:
131,317,29617,6,0,L|140:355,1,40,2|0,0:0|0:0,0:0:0:0:
50,239,29824,2,0,L|11:229,1,40,2|0,0:0|0:0,0:0:0:0:
131,298,30031,6,0,L|140:336,1,40,2|0,0:0|0:0,0:0:0:0:
50,220,30238,2,0,L|11:210,1,40,2|0,0:0|0:0,0:0:0:0:
7,350,30445,5,8,0:0:0:0:
161,187,30652,1,8,0:0:0:0:
75,122,30859,6,0,L|64:83,2,40,0|0|0,0:0|0:0|0:0,0:0:0:0:
161,187,31272,2,0,L|200:198,1,40,0|0,0:0|0:0,0:0:0:0:
191,72,31479,5,8,0:0:0:0:
50,239,31686,1,8,0:0:0:0:
265,277,32100,6,0,P|323:232|413:237,1,150,4|0,0:1|0:0,0:0:0:0:
466,310,32514,5,0,0:0:0:0:
511,169,32721,2,0,L|441:177,1,60.0000022888184,0|8,0:0|0:0,0:0:0:0:
466,292,33134,5,8,0:0:0:0:
511,151,33341,2,0,L|413:162,1,90.0000034332277,8|0,0:0|0:0,0:0:0:0:
336,120,33755,5,0,0:0:0:0:
381,261,33962,2,0,L|311:253,1,60.0000022888184,0|8,0:0|0:0,0:0:0:0:
336,138,34375,5,0,0:1:0:0:
381,279,34582,2,0,L|283:267,1,90.0000034332277,2|0,0:0|0:0,0:0:0:0:
256,192,34996,5,0,0:0:0:0:
222,345,35203,2,0,P|209:317|207:287,1,60.0000022888184,0|8,0:0|0:0,0:0:0:0:
228,198,35617,5,8,0:0:0:0:
193,350,35824,2,0,P|178:308|181:264,1,90.0000034332277,8|0,0:0|0:0,0:0:0:0:
149,194,36238,5,0,0:0:0:0:
115,40,36445,2,0,P|102:67|100:97,1,60.0000022888184,0|0,0:0|0:0,0:0:0:0:
121,188,36859,5,0,0:0:0:0:
87,13,37066,2,0,P|71:55|74:99,1,90.0000034332277,2|0,0:0|0:0,0:0:0:0:
148,171,37479,5,8,0:0:0:0:
171,167,37583,1,8,0:0:0:0:
194,164,37686,1,8,0:0:0:0:
222,147,38307,5,0,0:0:0:0:
290,205,38513,2,0,P|329:209|367:197,1,80,0|8,0:0|0:0,0:0:0:0:
417,91,38927,2,0,L|424:51,1,40,0|0,0:0|0:0,0:0:0:0:
512,147,39135,5,0,0:0:0:0:
444,205,39341,2,0,P|406:192|366:197,1,80,0|8,0:0|0:0,0:0:0:0:
317,91,39755,2,0,L|309:51,1,40,0|0,0:0|0:0,0:0:0:0:
222,147,39962,5,0,0:0:0:0:
290,205,40169,2,0,P|329:209|367:197,1,80,0|8,0:0|0:0,0:0:0:0:
393,311,40582,2,0,L|385:350,1,40,0|0,0:0|0:0,0:0:0:0:
510,262,40789,5,0,0:0:0:0:
443,204,40996,2,0,P|403:209|366:197,1,80,0|8,0:0|0:0,0:0:0:0:
245,276,41410,2,0,L|252:315,1,40,0|0,0:0|0:0,0:0:0:0:
289,204,41617,6,0,P|261:192|231:191,2,53.3333333333333,4|8|8,0:1|0:0|0:0,0:0:0:0:
144,103,42030,2,0,P|168:121|184:147,2,53.3333333333333,4|8|8,0:1|0:0|0:0,0:0:0:0:
169,217,42444,1,8,0:0:0:0:
18,279,42858,6,0,P|46:291|76:292,2,53.3333333333333,4|8|8,0:1|0:0|0:0,0:0:0:0:
163,380,43272,2,0,P|138:361|122:335,2,53.3333333333333,4|8|8,0:1|0:0|0:0,0:0:0:0:
169,217,43685,6,0,L|258:210,1,90.0000034332277,0|0,0:1|0:0,0:0:0:0:
330,244,44099,5,4,0:1:0:0:
395,190,44305,2,0,L|385:133,1,40,0|0,0:0|0:0,0:0:0:0:
335,261,44512,5,8,0:0:0:0:
412,225,44719,2,0,L|417:167,1,40,0|0,0:0|0:0,0:0:0:0:
336,278,44927,5,0,0:0:0:0:
419,264,45133,2,0,L|438:209,1,40,0|0,0:0|0:0,0:0:0:0:
333,295,45341,5,8,0:0:0:0:
416,303,45547,2,0,L|449:255,1,40,0|0,0:0|0:0,0:0:0:0:
342,374,45754,6,0,P|309:350|271:340,1,80,2|0,0:0|0:0,0:0:0:0:
191,345,46064,2,0,L|198:384,1,40,0|8,0:0|0:0,0:0:0:0:
83,313,46374,1,0,0:0:0:0:
83,313,46478,1,0,0:0:0:0:
83,313,46581,6,0,L|92:233,1,80,2|0,0:0|0:0,0:0:0:0:
0,188,46892,2,0,P|17:179|36:174,1,40,0|8,0:0|0:0,0:0:0:0:
168,276,47202,2,0,L|207:268,1,40,0|0,0:0|0:0,0:0:0:0:
409,233,47409,5,2,0:0:0:0:
280,340,47616,5,0,0:0:0:0:
425,336,47823,1,8,0:0:0:0:
424,335,47926,2,0,P|391:312|352:303,1,80,2|0,0:0|0:0,0:0:0:0:
280,340,48236,5,2,0:0:0:0:
253,190,48443,1,0,0:0:0:0:
254,191,48547,2,0,P|276:223|285:262,1,80,2|0,0:0|0:0,0:0:0:0:
280,340,48857,5,2,0:0:0:0:
164,379,49064,2,0,L|175:324,1,40,8|0,0:0|0:0,0:0:0:0:
85,277,49271,2,0,P|137:250|194:263,1,120,0|0,0:0|0:0,0:0:0:0:
280,340,49685,5,2,0:0:0:0:
153,383,49892,2,0,L|162:333,1,50,8|0,0:0|0:0,0:0:0:0:
68,264,50099,2,0,P|136:234|208:249,1,150,0|0,0:0|0:0,0:0:0:0:
280,340,50512,5,0,0:0:0:0:
445,283,50719,5,4,0:1:0:0:
450,243,50823,1,0,0:0:0:0:
455,203,50926,1,0,0:0:0:0:
472,360,51133,2,0,P|429:334|380:327,1,100,8|0,0:0|0:0,0:0:0:0:
305,349,51443,1,0,0:0:0:0:
280,340,51547,5,10,0:0:0:0:
336,233,51754,1,8,0:0:0:0:
255,331,51961,5,0,0:0:0:0:
247,179,52167,1,0,0:0:0:0:
51,379,52374,5,8,0:0:0:0:
150,356,52581,1,2,0:0:0:0:
63,261,52787,5,8,0:0:0:0:
187,233,52994,1,2,0:0:0:0:
75,144,53201,5,10,0:0:0:0:
231,108,53408,1,2,0:0:0:0:
72,43,53616,6,0,B|123:-21|178:35|208:30|208:30|178:35|164:71,1,180.000006866455,10|0,0:0|0:0,0:0:0:0:
223,186,54030,6,0,P|178:169|153:127,1,95.9999970703126,2|0,0:0|0:0,0:0:0:0:
301,70,54443,2,0,P|310:91|310:115,1,47.9999985351563,8|0,0:0|0:0,0:0:0:0:
333,90,54650,2,0,P|330:113|318:134,1,47.9999985351563,2|0,0:0|0:0,0:0:0:0:
209,166,54857,5,2,0:0:0:0:
223,186,54961,2,0,P|176:175|134:195,1,95.9999970703126,2|2,0:0|0:0,0:0:0:0:
46,177,55271,2,0,L|66:270,1,95.9999970703126,0|2,0:0|0:0,0:0:0:0:
0,346,55581,1,0,0:0:0:0:
0,345,55685,6,0,P|47:346|91:365,1,95.9999970703126,2|2,0:0|0:0,0:0:0:0:
194,295,56099,1,10,0:0:0:0:
194,295,56202,2,0,L|186:247,2,47.9999985351563,2|0|0,0:0|0:0|0:1,0:0:0:0:
262,337,56512,5,0,0:0:0:0:
369,384,56719,2,0,P|375:360|375:336,1,47.9999985351563,0|0,0:0|0:0,0:0:0:0:
275,347,56926,5,8,0:0:0:0:
392,341,57133,2,0,P|385:317|374:296,1,47.9999985351563,0|0,0:0|0:0,0:0:0:0:
276,248,57340,5,2,0:0:0:0:
419,150,57547,1,0,0:0:0:0:
487,263,57754,2,0,P|465:251|442:245,1,47.9999985351563,8|0,0:0|0:0,0:0:0:0:
374,296,57961,1,0,0:0:0:0:
283,163,58167,5,2,0:0:0:0:
476,83,58374,1,2,0:0:0:0:
335,98,58581,5,10,0:0:0:0:
419,150,58788,2,0,L|411:203,1,47.9999985351563,2|0,0:0|0:0,0:0:0:0:
283,163,58995,5,0,0:0:0:0:
476,83,59202,1,0,0:0:0:0:
441,270,59409,1,10,0:0:0:0:
440,269,59513,2,0,P|401:243|354:238,1,95.9999970703126,2|0,0:0|0:0,0:0:0:0:
276,246,59823,2,0,L|284:299,1,47.9999985351563,2|0,0:0|0:0,0:0:0:0:
164,190,60030,2,0,L|171:142,2,47.9999985351563,0|0|8,0:0|0:0|0:0,0:0:0:0:
274,376,60443,2,0,L|321:368,1,47.9999985351563,0|0,0:0|0:0,0:0:0:0:
440,269,60650,6,0,P|401:243|354:238,1,95.9999970703126,2|0,0:0|0:0,0:0:0:0:
260,165,61064,1,8,0:0:0:0:
340,34,61271,1,0,0:0:0:0:
357,17,61374,2,0,L|340:160,1,143.999995605469,2|2,0:0|0:0,0:0:0:0:
188,220,61892,2,0,P|227:246|274:251,1,95.9999970703126,10|2,0:0|0:0,0:0:0:0:
440,269,62202,1,0,0:0:0:0:
440,269,62306,6,0,P|401:243|354:238,1,95.9999970703126,2|0,0:0|0:0,0:0:0:0:
205,328,62719,1,10,0:0:0:0:
205,328,62823,2,0,L|110:311,1,95.9999970703126,2|2,0:0|0:0,0:0:0:0:
38,341,63133,2,0,P|34:305|41:278,1,47.9999985351563,0|0,0:0|0:0,0:0:0:0:
90,238,63340,1,0,0:0:0:0:
0,127,63547,2,0,L|95:110,1,95.9999970703126,10|0,0:0|0:0,0:0:0:0:
130,16,63857,1,0,0:0:0:0:
130,16,63961,6,0,P|152:23|172:36,1,47.9999985351563,2|0,0:0|0:0,0:0:0:0:
221,104,64167,2,0,P|226:127|224:151,1,47.9999985351563,0|0,0:0|0:0,0:0:0:0:
190,226,64374,1,8,0:0:0:0:
176,240,64581,6,0,L|223:234,1,47.9999985351563,2|0,0:0|0:0,0:0:0:0:
304,225,64788,2,0,L|351:219,1,47.9999985351563,0|0,0:0|0:0,0:0:0:0:
432,210,64995,1,0,0:0:0:0:
447,220,65202,5,8,0:0:0:0:
300,351,65409,1,8,0:0:0:0:
284,361,65616,6,0,P|261:353|241:340,1,47.9999985351563,2|0,0:0|0:0,0:0:0:0:
193,273,65822,2,0,P|187:249|189:225,1,47.9999985351563,0|0,0:0|0:0,0:0:0:0:
224,151,66029,1,8,0:0:0:0:
240,142,66236,6,0,L|287:147,1,47.9999985351563,2|0,0:0|0:0,0:0:0:0:
368,157,66443,2,0,L|415:162,1,47.9999985351563,0|0,0:0|0:0,0:0:0:0:
496,172,66650,1,0,0:0:0:0:
336,79,66857,5,8,0:0:0:0:
421,265,67064,1,8,0:0:0:0:
417,273,67167,1,0,0:0:0:0:
413,281,67271,6,0,P|353:242|282:237,1,143.999995605469,2|0,0:0|0:0,0:0:0:0:
231,298,67685,6,0,P|249:238|239:176,1,125.999996154785,10|0,0:0|0:0,0:0:0:0:
177,139,68099,6,0,P|230:139|280:120,1,107.999996704102,2|0,0:0|0:0,0:0:0:0:
333,71,68513,6,0,P|337:100|350:127,1,60.0000022888184,10|0,0:0|0:0,0:0:0:0:
417,186,68823,1,0,0:0:0:0:
417,186,68926,5,2,0:0:0:0:
321,244,69133,2,0,L|281:236,1,40,0|0,0:0|0:0,0:0:0:0:
166,198,69340,2,0,P|209:175|253:180,1,80,8|0,0:0|0:0,0:0:0:0:
335,329,69754,1,0,0:0:0:0:
335,329,69857,2,0,L|295:321,2,40,0|0|0,0:0|0:0|0:0,0:0:0:0:
457,314,70167,5,10,0:0:0:0:
472,301,70271,2,0,P|429:278|385:283,1,80,0|0,0:0|0:0,0:0:0:0:
295,321,70581,6,0,L|306:379,1,60.0000022888184,8|0,0:0|0:0,0:0:0:0:
58,237,70995,5,8,0:0:0:0:
43,224,71099,2,0,P|86:201|130:206,1,80,0|0,0:0|0:0,0:0:0:0:
220,244,71409,6,0,L|208:302,1,60.0000022888184,8|0,0:0|0:0,0:0:0:0:
457,160,71822,5,10,0:0:0:0:
472,147,71926,2,0,P|429:124|385:129,1,80,0|0,0:0|0:0,0:0:0:0:
295,167,72236,5,8,0:0:0:0:
295,167,72340,2,0,L|307:225,1,50,0|0,0:0|0:0,0:0:0:0:
365,279,72547,5,8,0:0:0:0:
365,279,72651,2,0,L|313:308,1,50
280,380,72857,5,8,0:0:0:0:
280,380,72961,2,0,L|236:340,1,50,0|0,0:0|0:0,0:0:0:0:
157,330,73167,5,2,0:0:0:0:
157,330,73271,2,0,L|181:276,1,50,0|0,0:0|0:0,0:0:0:0:
121,191,73478,6,0,P|170:188|215:208,1,100,8|8,0:0|0:0,0:0:0:0:
284,118,73788,1,0,0:0:0:0:
284,118,73892,6,0,L|294:166,1,50,8|8,0:0|0:0,0:0:0:0:
218,324,74099,2,0,L|255:290,1,50,2|2,0:0|0:0,0:0:0:0:
476,301,74305,2,0,L|428:285,1,50,8|8,0:0|0:0,0:0:0:0:
323,249,74512,1,8,0:0:0:0:
323,249,74616,1,2,0:0:0:0:
323,249,75133,6,0,B|340:242|369:240|369:240|294:206|254:270,1,180.000006866455,8|0,0:0|0:0,0:0:0:0:
179,314,75547,6,0,L|140:308,1,40,2|0,0:0|0:0,0:0:0:0:
84,230,75754,2,0,L|45:224,1,40,0|0,0:0|0:0,0:0:0:0:
192,331,75960,6,0,L|153:325,1,40,8|0,0:0|0:0,0:0:0:0:
97,247,76167,2,0,L|58:241,1,40,0|0,0:0|0:0,0:0:0:0:
206,355,76375,6,0,P|168:345|129:350,1,80,2|0,0:0|0:0,0:0:0:0:
51,355,76685,2,0,P|91:360|129:349,1,80,2|0,0:0|0:0,0:0:0:0:
190,253,76995,1,2,0:0:0:0:
179,82,77202,6,0,L|140:88,1,40,2|0,0:0|0:0,0:0:0:0:
84,166,77409,2,0,L|45:172,1,40,0|0,0:0|0:0,0:0:0:0:
192,65,77616,6,0,L|153:71,1,40,8|0,0:0|0:0,0:0:0:0:
97,149,77823,2,0,L|58:155,1,40,0|0,0:0|0:0,0:0:0:0:
206,40,78030,6,0,P|168:50|129:45,1,80,2|0,0:0|0:0,0:0:0:0:
51,41,78340,2,0,P|91:35|129:46,1,80,2|0,0:0|0:0,0:0:0:0:
190,143,78651,2,0,L|247:133,1,40,2|0,0:0|0:0,0:0:0:0:
294,73,78857,2,0,P|300:53|302:33,2,40,2|0|0,0:0|0:0|0:0,0:0:0:0:
173,165,79271,6,0,P|212:155|251:164,1,80,2|2,0:0|0:0,0:0:0:0:
311,223,79581,1,0,0:0:0:0:
311,223,79685,6,0,L|350:217,1,40,8|0,0:0|0:0,0:0:0:0:
406,139,79892,2,0,L|445:133,1,40,0|0,0:0|0:0,0:0:0:0:
297,247,80098,6,0,P|335:237|374:242,1,80,2|0,0:0|0:0,0:0:0:0:
452,247,80409,2,0,P|412:252|374:241,1,80,2|0,0:0|0:0,0:0:0:0:
313,145,80719,1,2,0:0:0:0:
313,145,80926,6,0,L|320:105,1,40,2|8,0:0|0:0,0:0:0:0:
219,110,81133,6,0,L|184:91,1,40,8|8,0:0|0:0,0:0:0:0:
133,192,81340,6,0,L|105:219,1,40,2|8,0:0|0:0,0:0:0:0:
197,302,81547,6,0,L|215:337,1,40,8|8,0:0|0:0,0:0:0:0:
352,291,81754,6,0,L|392:285,1,40,2|0,0:0|0:0,0:0:0:0:
266,221,81960,2,0,L|272:261,1,40,0|0,0:0|0:0,0:0:0:0:
412,373,82167,6,0,P|359:347|300:351,1,120,8|0,0:0|0:0,0:0:0:0:
218,384,82581,6,0,L|152:374,2,66.6666666666667,4|8|8,0:1|0:0|0:0,0:0:0:0:
78,237,82994,2,0,L|87:302,2,66.6666666666667,4|8|8,0:1|0:0|0:0,0:0:0:0:
71,382,83408,5,8,0:0:0:0:
193,148,83822,6,0,L|258:157,2,66.6666666666667,4|8|8,0:1|0:0|0:0,0:0:0:0:
333,295,84236,2,0,L|323:229,2,66.6666666666667,4|8|8,0:1|0:0|0:0,0:0:0:0:
393,113,84649,5,8,0:0:0:0:
96,109,85063,6,0,B|130:64|191:29|280:55|310:131|310:131|356:97|354:42|354:42|374:79|354:146|354:146|393:113|393:113|376:190|323:229|323:229|302:298|182:330|123:266|123:266|61:259|25:222|25:222|62:231|62:231|25:203|11:133|11:133|42:197|106:189,1,1264.00003085938,4|0,0:1|0:0,0:0:0:0:
