osu file format v14

[General]
AudioFilename: audio.mp3
AudioLeadIn: 0
PreviewTime: 54030
Countdown: 0
SampleSet: Soft
StackLeniency: 0.7
Mode: 0
LetterboxInBreaks: 0
WidescreenStoryboard: 1

[Editor]
Bookmarks: 71823
DistanceSpacing: 0.5
BeatDivisor: 4
GridSize: 32
TimelineZoom: 3.599999

[Metadata]
Title:a e i u e o ao!!
TitleUnicode:あ・え・い・う・え・お・あお!!
Artist:Gekidan Hitotose
ArtistUnicode:劇団ひととせ
Creator:Kashima
Version:Insane
Source:ひなこのーと
Tags:Opening Hinako Note 桜木ひな子 Sakuragi M・A・O 市道真央 Ichimichi Mao 夏川くいな Natsukawa Kuina 富田美憂 Tomita Miyu 柊 真雪 Hiiragi Mayuki 小倉唯 Ogura Yui 萩野千秋 Hagino Chiaki 東城日沙子 Hisako Tojo 中島ゆあ Nakajima Yua 高野麻里佳 Kouno Marika - Sunflower - Karen Moecho bite you death byd
BeatmapID:1357823
BeatmapSetID:620436

[Difficulty]
HPDrainRate:5
CircleSize:4
OverallDifficulty:7.5
ApproachRate:8.5
SliderMultiplier:1.8
SliderTickRate:1

[Events]
//Background and Video events
0,0,"hinako.png",0,0
//Break Periods
//Storyboard Layer 0 (Background)
//Storyboard Layer 1 (Fail)
//Storyboard Layer 2 (Pass)
//Storyboard Layer 3 (Foreground)
//Storyboard Sound Samples

[TimingPoints]
654,413.793103448276,4,2,1,50,1,0
3550,-66.6666666666667,4,2,1,50,0,0
3964,-200,4,2,1,50,0,0
9343,-133.333333333333,4,2,1,50,0,0
9964,-100,4,2,1,50,0,0
10585,-83.3333333333333,4,2,1,50,0,0
10998,-71.4285714285714,4,2,1,50,0,0
11412,413.793103448276,4,2,1,50,1,0
11412,-71.4285714285714,4,2,1,50,0,0
12653,-66.6666666666667,4,2,2,50,0,0
13067,-83.3333333333333,4,2,1,50,0,0
16791,413.793103448276,4,2,1,50,1,0
16791,-83.3333333333333,4,2,1,50,0,0
20101,-100,4,2,1,50,0,0
23411,-83.3333333333333,4,2,1,50,0,0
25480,413.793103448276,4,2,1,50,1,0
25480,-100,4,2,1,50,0,0
28790,-83.3333333333333,4,2,1,50,0,0
30859,413.793103448276,4,2,1,50,1,0
32100,-66.6666666666667,4,2,1,50,0,0
32514,-125,4,2,1,50,0,0
38307,413.793103448276,4,2,1,50,1,0
38307,-100,4,2,1,50,0,0
41617,413.793103448276,3,2,1,50,1,0
44099,413.793103448276,4,2,1,50,1,0
50720,413.793103448276,4,2,1,50,1,0
53616,-66.6666666666667,4,2,2,50,0,0
54030,-83.3333333333333,4,2,1,70,0,1
55616,-83.3333333333333,4,2,1,5,0,1
55685,-83.3333333333333,4,2,1,70,0,1
55823,-83.3333333333333,4,2,1,5,0,1
55892,-83.3333333333333,4,2,1,70,0,1
56030,-83.3333333333333,4,2,1,5,0,1
56099,-83.3333333333333,4,2,1,70,0,1
58271,-83.3333333333333,4,2,1,5,0,1
58375,-83.3333333333333,4,2,1,70,0,1
58478,-83.3333333333333,4,2,1,5,0,1
58582,-83.3333333333333,4,2,1,70,0,1
58685,-83.3333333333333,4,2,1,5,0,1
58788,-83.3333333333333,4,2,1,70,0,1
58892,-83.3333333333333,4,2,1,5,0,1
58995,-83.3333333333333,4,2,1,70,0,1
61788,-83.3333333333333,4,2,1,5,0,1
61892,-83.3333333333333,4,2,1,70,0,1
61995,-83.3333333333333,4,2,1,5,0,1
62099,-83.3333333333333,4,2,1,70,0,1
62202,-83.3333333333333,4,2,1,5,0,1
62306,-83.3333333333333,4,2,1,70,0,1
75133,-66.6666666666667,4,2,2,70,0,1
75547,-83.3333333333333,4,2,1,50,0,0
79271,413.793103448276,4,2,1,50,1,0
79271,-83.3333333333333,4,2,1,50,0,0
82581,413.793103448276,3,2,1,50,1,0
85063,413.793103448276,4,2,1,50,1,0

[Colours]
Combo1 : 176,176,217
Combo2 : 255,157,206
Combo3 : 128,128,255
Combo4 : 255,174,255

[HitObjects]
92,41,654,5,8,0:0:0:0:
201,79,860,1,0,0:0:0:0:
201,79,964,1,0,0:0:0:0:
201,79,1067,1,0,0:0:0:0:
314,49,1274,1,0,0:0:0:0:
424,87,1481,2,0,P|435:144|421:189,2,90,8|0|0,0:0|0:0|0:0,0:0:0:0:
188,172,2309,6,0,P|129:180|80:165,1,90,8|2,0:0|0:0,0:0:0:0:
307,143,2722,2,0,P|329:88|367:53,1,90,8|2,0:0|0:0,0:0:0:0:
272,260,3136,2,0,P|309:307|320:357,1,90,10|2,0:0|0:0,0:0:0:0:
54,169,3550,2,0,P|128:178|193:170,1,135.000005149842,6|0,0:0|0:0,0:0:0:0:
359,144,3964,6,0,B|369:131|415:160|426:206|356:267|264:258|232:160|301:64,1,315,4|0,0:1|0:0,0:0:0:0:
477,127,5619,2,0,P|486:195|454:271,1,135,4|0,0:1|0:0,0:0:0:0:
343,306,6447,2,0,L|240:292,1,90,4|8,0:1|0:0,0:0:0:0:
161,238,7274,5,0,0:0:0:0:
151,168,7480,1,0,0:0:0:0:
141,99,7687,1,8,0:0:0:0:
121,57,7791,2,0,L|58:49,1,45
35,72,8102,5,0,0:0:0:0:
44,141,8308,1,0,0:0:0:0:
53,210,8515,1,8,0:0:0:0:
63,278,8722,1,0,0:0:0:0:
267,295,8929,5,2,0:0:0:0:
122,234,9136,1,0,0:0:0:0:
265,219,9343,5,10,0:0:0:0:
332,258,9447,2,0,L|401:256,1,67.5000025749208,0|0,0:0|0:0,0:0:0:0:
430,253,9757,1,2,0:0:0:0:
266,143,9964,5,0,0:0:0:0:
195,177,10067,2,0,L|98:172,1,90,8|0,0:0|0:0,0:0:0:0:
84,170,10378,1,8,0:0:0:0:
265,219,10585,5,2,0:0:0:0:
332,258,10688,2,0,B|448:253,1,107.999996704102,8|0,0:0|0:0,0:0:0:0:
266,143,10998,5,2,0:0:0:0:
195,177,11102,2,0,B|67:173,1,125.999996154785,8|0,0:0|0:0,0:0:0:0:
40,273,11412,5,8,0:0:0:0:
84,275,11515,1,8,0:0:0:0:
128,276,11619,1,8,0:0:0:0:
173,277,11722,1,8,0:0:0:0:
227,314,11825,5,8,0:0:0:0:
272,316,11928,1,8,0:0:0:0:
317,318,12031,1,8,0:0:0:0:
363,320,12136,1,0,0:0:0:0:
441,229,12653,6,0,L|260:223,1,135.000005149842,8|0,0:0|0:0,0:0:0:0:
146,241,13067,5,0,0:0:0:0:
108,238,13170,1,0,0:0:0:0:
80,212,13273,1,0,0:0:0:0:
75,174,13377,1,0,0:0:0:0:
94,142,13480,1,8,0:0:0:0:
130,129,13584,1,0,0:0:0:0:
166,141,13687,1,0,0:0:0:0:
186,173,13791,1,0,0:0:0:0:
197,213,13894,6,0,P|209:267|188:336,1,107.999996704102,2|0,0:0|0:0,0:0:0:0:
313,317,14205,2,0,P|303:265|315:213,1,107.999996704102,2|0,0:0|0:0,0:0:0:0:
260,154,14516,1,0,0:1:0:0:
500,253,14722,5,2,0:0:0:0:
494,291,14825,1,0,0:0:0:0:
468,317,14928,1,0,0:0:0:0:
430,321,15032,1,0,0:0:0:0:
399,301,15135,1,8,0:0:0:0:
386,265,15239,1,0,0:0:0:0:
400,230,15342,1,0,0:0:0:0:
431,209,15446,1,0,0:0:0:0:
475,221,15549,6,0,L|463:101,1,107.999996704102,2|0,0:0|0:0,0:0:0:0:
423,138,15860,2,0,L|414:30,1,107.999996704102,2|0,0:0|0:0,0:0:0:0:
378,55,16171,2,0,L|373:-5,1,53.9999983520508,0|0,0:0|0:0,0:0:0:0:
298,35,16377,5,2,0:0:0:0:
292,88,16480,1,0,0:0:0:0:
286,142,16584,1,0,0:0:0:0:
194,163,16791,5,8,0:0:0:0:
200,109,16894,1,0,0:0:0:0:
206,56,16998,1,0,0:0:0:0:
111,83,17205,5,2,0:0:0:0:
106,120,17308,1,0,0:0:0:0:
102,158,17411,1,0,0:0:0:0:
97,195,17515,1,0,0:0:0:0:
95,232,17619,2,0,L|172:267,1,53.9999983520508,2|0,0:0|0:0,0:0:0:0:
232,330,17826,5,2,0:0:0:0:
264,349,17929,1,2,0:0:0:0:
269,255,18136,5,2,0:0:0:0:
306,260,18239,1,2,0:0:0:0:
401,209,18446,5,2,0:0:0:0:
411,172,18549,1,2,0:0:0:0:
412,135,18652,1,8,0:0:0:0:
404,97,18756,1,8,0:0:0:0:
336,57,18860,5,2,0:0:0:0:
298,62,18963,1,2,0:0:0:0:
261,67,19066,1,8,0:0:0:0:
223,73,19170,1,8,0:0:0:0:
165,169,19274,5,2,0:0:0:0:
205,162,19377,1,0,0:0:0:0:
245,156,19480,1,2,0:0:0:0:
285,150,19584,1,0,0:0:0:0:
325,143,19687,1,10,0:0:0:0:
138,30,20101,5,0,0:0:0:0:
109,139,20307,1,0,0:0:0:0:
112,170,20411,1,0,0:0:0:0:
115,201,20514,1,0,0:0:0:0:
219,106,20618,2,0,P|259:101|317:105,1,90
396,142,20928,6,0,L|379:27,1,90,2|0,0:0|0:0,0:0:0:0:
467,207,21239,2,0,L|482:114,1,90,2|0,0:0|0:0,0:0:0:0:
383,225,21549,6,0,P|376:247|367:267,1,45
318,340,21756,2,0,P|302:323|289:305,1,45
250,226,21963,2,0,P|272:220|295:218,1,45,0|0,0:0|0:0,0:0:0:0:
457,278,22169,1,0,0:0:0:0:
469,248,22273,1,0,0:0:0:0:
467,216,22376,1,0,0:0:0:0:
458,185,22480,1,0,0:0:0:0:
407,116,22584,6,0,L|300:102,1,90,2|0,0:0|0:0,0:0:0:0:
380,193,22894,2,0,L|262:227,1,90,2|0,0:0|0:0,0:0:0:0:
221,271,23204,5,0,0:0:0:0:
213,301,23307,1,0,0:0:0:0:
201,337,23411,2,0,L|188:226,1,107.999996704102,4|0,0:1|0:0,0:0:0:0:
255,138,23721,2,0,L|266:219,1,53.9999983520508
340,283,24031,1,0,0:0:0:0:
377,289,24134,1,0,0:0:0:0:
414,280,24238,2,0,P|419:252|414:220,1,53.9999983520508,2|0,0:0|0:0,0:0:0:0:
436,189,24445,2,0,P|427:162|406:137,1,53.9999983520508,2|0,0:0|0:0,0:0:0:0:
411,99,24652,2,0,P|389:80|359:69,1,53.9999983520508,2|0,0:0|0:0,0:0:0:0:
344,34,24859,2,0,P|316:29|284:34,1,53.9999983520508,2|0,0:0|0:0,0:0:0:0:
230,250,25066,5,8,0:0:0:0:
350,152,25273,1,8,0:0:0:0:
76,148,25480,5,4,0:1:0:0:
276,192,25686,2,0,P|299:193|321:190,1,45
266,223,25893,1,0,0:0:0:0:
258,253,25996,1,0,0:0:0:0:
258,284,26099,1,0,0:0:0:0:
264,315,26204,1,0,0:0:0:0:
332,359,26307,2,0,P|375:368|419:360,1,90,2|0,0:0|0:0,0:0:0:0:
470,204,26617,2,0,P|480:247|470:290,1,90,2|0,0:0|0:0,0:0:0:0:
392,249,26928,5,0,0:0:0:0:
361,243,27031,1,0,0:0:0:0:
330,236,27135,2,0,L|255:218,1,45
169,179,27342,2,0,L|244:161,1,45
279,64,27548,2,0,L|273:108,1,45
212,306,27755,2,0,L|207:257,1,45
339,152,27962,6,0,P|399:162|442:138,1,90,2|0,0:0|0:0,0:0:0:0:
474,217,28273,2,0,L|466:324,1,90,2|0,0:0|0:0,0:0:0:0:
379,328,28583,1,0,0:0:0:0:
382,296,28686,1,0,0:0:0:0:
388,258,28790,6,0,L|274:266,1,107.999996704102,4|0,0:1|0:0,0:0:0:0:
187,250,29100,1,0,0:0:0:0:
161,127,29411,1,0,0:0:0:0:
157,90,29514,1,0,0:0:0:0:
157,52,29618,2,0,L|184:-36,1,53.9999983520508,2|0,0:0|0:0,0:0:0:0:
254,77,29824,2,0,L|281:-11,1,53.9999983520508,2|0,0:0|0:0,0:0:0:0:
341,132,30031,2,0,L|325:183,1,53.9999983520508,2|0,0:0|0:0,0:0:0:0:
438,157,30238,2,0,L|422:208,1,53.9999983520508,2|0,0:0|0:0,0:0:0:0:
254,77,30446,5,8,0:0:0:0:
338,274,30653,1,8,0:0:0:0:
195,153,30860,5,0,0:0:0:0:
74,239,31065,1,0,0:0:0:0:
68,88,31272,1,0,0:0:0:0:
191,3,31479,5,8,0:0:0:0:
378,195,31686,1,8,0:0:0:0:
481,193,32100,6,0,B|431:199|367:180|367:180|397:223,1,135.000005149842,4|0,0:1|0:0,0:0:0:0:
407,342,32514,6,0,P|412:304|407:266,1,72
214,268,32927,1,8,0:0:0:0:
328,305,33134,1,8,0:0:0:0:
293,121,33341,2,0,L|289:229,1,108,8|0,0:0|0:0,0:0:0:0:
328,305,33755,6,0,L|415:293,1,72,0|0,0:0|0:0,0:0:0:0:
209,202,34169,2,0,L|137:211,1,72,8|0,0:0|0:1,0:0:0:0:
289,229,34583,2,0,L|293:121,1,108,2|0,0:0|0:0,0:0:0:0:
148,51,34996,5,0,0:0:0:0:
175,223,35203,1,0,0:0:0:0:
196,113,35410,1,8,0:0:0:0:
23,138,35617,1,8,0:0:0:0:
84,312,35824,2,0,L|87:193,1,108,8|0,0:0|0:0,0:0:0:0:
148,51,36238,5,0,0:0:0:0:
321,83,36445,1,0,0:0:0:0:
262,22,36652,1,0,0:0:0:0:
226,194,36859,1,0,0:0:0:0:
92,105,37065,2,0,P|154:128|204:105,1,120,2|0,0:0|0:0,0:0:0:0:
321,83,37479,5,8,0:0:0:0:
321,83,37582,1,8,0:0:0:0:
321,83,37686,1,8,0:0:0:0:
398,187,38307,5,0,0:0:0:0:
247,208,38514,1,0,0:0:0:0:
403,101,38721,1,8,0:0:0:0:
328,250,38927,1,0,0:0:0:0:
328,250,39030,1,0,0:0:0:0:
328,250,39134,5,0,0:0:0:0:
295,68,39341,1,0,0:0:0:0:
485,163,39548,1,8,0:0:0:0:
255,166,39755,1,0,0:0:0:0:
255,166,39859,1,0,0:0:0:0:
255,166,39962,6,0,L|156:162,1,90,0|0,0:0|0:0,0:0:0:0:
91,103,40376,1,8,0:0:0:0:
255,266,40582,1,0,0:0:0:0:
255,266,40686,1,0,0:0:0:0:
255,266,40789,6,0,L|354:262,1,90,0|0,0:0|0:0,0:0:0:0:
410,202,41203,1,8,0:0:0:0:
495,280,41410,2,0,P|470:282|426:272,1,45,0|0,0:0|0:0,0:0:0:0:
410,202,41617,5,4,0:1:0:0:
418,161,41754,1,8,0:0:0:0:
413,119,41892,1,8,0:0:0:0:
397,80,42030,5,4,0:1:0:0:
389,39,42167,1,8,0:0:0:0:
394,1,42305,1,8,0:0:0:0:
479,43,42444,5,8,0:0:0:0:
319,128,42858,5,4,0:1:0:0:
278,139,42996,1,8,0:0:0:0:
236,130,43134,1,8,0:0:0:0:
197,114,43272,5,4,0:1:0:0:
155,105,43410,1,8,0:0:0:0:
114,116,43548,1,8,0:0:0:0:
158,202,43685,2,0,P|206:239|168:286,1,135,0|0,0:0|0:0,0:0:0:0:
114,116,44099,6,0,P|156:104|231:128,1,90,4|0,0:1|0:0,0:0:0:0:
231,120,44409,1,0,0:0:0:0:
231,120,44512,1,8,0:0:0:0:
365,272,44719,1,0,0:0:0:0:
360,242,44823,1,0,0:0:0:0:
355,212,44926,1,0,0:0:0:0:
248,302,45133,5,0,0:0:0:0:
335,125,45341,1,8,0:0:0:0:
477,260,45548,1,0,0:0:0:0:
248,302,45754,6,0,L|364:282,1,90,2|0,0:0|0:0,0:0:0:0:
368,282,46065,1,0,0:0:0:0:
368,282,46168,1,8,0:0:0:0:
460,164,46375,1,0,0:0:0:0:
184,226,46581,6,0,L|300:206,1,90,2|0,0:0|0:0,0:0:0:0:
304,206,46892,1,0,0:0:0:0:
304,206,46995,1,8,0:0:0:0:
412,79,47202,1,0,0:0:0:0:
136,148,47409,6,0,L|252:128,1,90,2|0,0:0|0:0,0:0:0:0:
310,84,47719,2,0,L|315:39,1,45,0|8,0:0|0:0,0:0:0:0:
383,153,47926,2,0,P|395:201|388:250,1,90,2|0,0:0|0:0,0:0:0:0:
417,58,48236,2,0,L|422:13,2,45,2|0|8,0:0|0:0|0:0,0:0:0:0:
490,128,48547,2,0,P|502:176|495:225,1,90,2|0,0:0|0:0,0:0:0:0:
291,300,48858,5,2,0:0:0:0:
415,182,49065,1,8,0:0:0:0:
313,197,49272,1,0,0:0:0:0:
313,197,49375,1,0,0:0:0:0:
313,197,49479,1,10,0:0:0:0:
383,354,49685,5,2,0:0:0:0:
352,117,49892,1,8,0:0:0:0:
278,278,50099,1,0,0:0:0:0:
278,278,50202,1,0,0:0:0:0:
278,278,50306,1,10,0:0:0:0:
478,190,50513,1,0,0:0:0:0:
352,117,50720,5,4,0:1:0:0:
352,117,50824,1,0,0:0:0:0:
352,117,50927,1,0,0:0:0:0:
325,297,51134,1,8,0:0:0:0:
392,201,51340,1,0,0:0:0:0:
253,352,51547,6,8,P|237:297|260:238,1,90,10|8,0:0|0:0,0:0:0:0:
464,145,51961,2,8,P|481:209|457:266,1,90,0|0,0:0|0:0,0:0:0:0:
348,337,52375,6,0,L|310:341,1,22.5,8|0,0:0|0:0,0:0:0:0:
253,352,52582,2,0,L|215:356,1,22.5,2|0,0:0|0:0,0:0:0:0:
271,256,52788,6,0,L|293:253,1,22.5,8|0,0:0|0:0,0:0:0:0:
366,241,52995,2,0,L|388:238,1,22.5,2|0,0:0|0:0,0:0:0:0:
437,138,53202,6,0,L|399:142,1,22.5,10|0,0:0|0:0,0:0:0:0:
342,153,53409,2,0,L|304:157,1,22.5,2|0,0:0|0:0,0:0:0:0:
241,168,53616,2,0,P|189:136|265:107,1,168.750006437302,10|0,0:0|0:0,0:0:0:0:
337,65,54030,6,0,L|450:49,2,107.999996704102,2|0|8,0:0|0:0|0:0,0:0:0:0:
250,49,54547,1,0,0:0:0:0:
234,52,54650,1,2,0:0:0:0:
218,54,54754,1,0,0:0:0:0:
202,57,54857,1,2,0:0:0:0:
186,61,54961,2,0,L|127:72,1,53.9999983520508,2|0,0:0|0:0,0:0:0:0:
51,121,55168,2,0,P|82:177|68:235,1,107.999996704102,2|0,0:0|0:0,0:0:0:0:
25,318,55478,6,0,L|107:301,1,71.9999978027344,2|0,0:0|0:0,0:0:0:0:
118,314,55685,2,0,L|175:270,1,71.9999978027344,2|0,0:0|0:0,0:0:0:0:
201,270,55892,2,0,L|234:206,1,71.9999978027344,2|0,0:0|0:0,0:0:0:0:
246,183,56099,1,10,0:0:0:0:
262,148,56202,2,0,P|266:116|260:77,1,53.9999983520508,2|0,0:0|0:0,0:0:0:0:
331,235,56409,6,0,P|399:255|483:196,1,161.999995056153,0|0,0:1|0:0,0:0:0:0:
396,45,56926,2,0,L|387:152,1,107.999996704102,8|0,0:0|0:0,0:0:0:0:
387,152,57237,1,0,0:0:0:0:
387,152,57340,1,2,0:0:0:0:
323,296,57547,5,0,0:0:0:0:
302,125,57754,1,8,0:0:0:0:
207,214,57857,2,0,L|314:209,1,107.999996704102,0|0,0:0|0:0,0:0:0:0:
387,152,58168,2,0,P|389:119|366:64,1,53.9999983520508,2|0,0:0|0:0,0:0:0:0:
320,42,58375,2,0,P|287:40|232:63,1,53.9999983520508,2|0,0:0|0:0,0:0:0:0:
216,108,58582,2,0,P|214:141|237:196,1,53.9999983520508,10|0,0:0|0:0,0:0:0:0:
281,211,58788,2,0,P|314:213|369:190,1,53.9999983520508,2|0,0:0|0:0,0:0:0:0:
387,152,58995,6,0,L|373:34,1,107.999996704102
216,108,59409,1,10,0:0:0:0:
216,108,59513,2,0,L|228:215,1,107.999996704102,2|0,0:0|0:0,0:0:0:0:
228,215,59823,1,2,0:0:0:0:
395,321,60030,1,0,0:0:0:0:
276,342,60237,1,8,0:0:0:0:
372,175,60444,1,0,0:0:0:0:
372,175,60547,1,0,0:0:0:0:
372,175,60651,6,0,L|479:157,1,107.999996704102,2|0,0:0|0:0,0:0:0:0:
355,16,61064,1,8,0:0:0:0:
215,123,61271,1,0,0:0:0:0:
215,123,61375,2,0,L|319:97,1,107.999996704102,2|0,0:0|0:0,0:0:0:0:
397,122,61685,2,0,P|413:147|425:177,1,53.9999983520508,2|0,0:0|0:0,0:0:0:0:
317,209,61892,2,0,P|345:216|372:231,1,53.9999983520508,10|0,0:0|0:0,0:0:0:0:
299,321,62099,2,0,P|326:309|351:307,1,53.9999983520508,2|0,0:0|0:0,0:0:0:0:
458,351,62306,6,0,L|444:233,1,107.999996704102,2|0,0:0|0:0,0:0:0:0:
482,110,62720,1,10,0:0:0:0:
482,110,62823,2,0,L|472:183,1,53.9999983520508,2|0,0:0|0:0,0:0:0:0:
396,180,63030,2,0,L|268:190,1,107.999996704102,0|0,0:0|0:0,0:0:0:0:
289,189,63340,1,0,0:0:0:0:
289,189,63444,1,0,0:0:0:0:
289,189,63547,2,0,L|161:199,1,107.999996704102,10|0,0:0|0:0,0:0:0:0:
110,149,63961,6,0,P|105:104|109:78,1,53.9999983520508,2|0,0:0|0:0,0:0:0:0:
181,197,64168,2,0,P|181:223|176:250,1,53.9999983520508,0|0,0:0|0:0,0:0:0:0:
186,115,64375,2,0,L|285:103,1,53.9999983520508,8|0,0:0|0:0,0:0:0:0:
316,114,64582,6,0,P|324:148|323:183,1,53.9999983520508,2|0,0:0|0:0,0:0:0:0:
272,282,64788,2,0,P|264:248|265:213,1,53.9999983520508,0|0,0:0|0:0,0:0:0:0:
343,241,64995,2,0,L|424:230,1,53.9999983520508,0|0,0:0|0:0,0:0:0:0:
475,175,65202,6,0,P|480:143|463:72,1,53.9999983520508,8|0,0:0|0:0,0:0:0:0:
452,43,65409,2,0,P|429:16|391:-3,1,53.9999983520508,8|0,0:0|0:0,0:0:0:0:
307,31,65616,6,0,L|246:45,1,53.9999983520508,2|0,0:0|0:0,0:0:0:0:
176,64,65823,2,0,L|108:80,1,53.9999983520508,0|0,0:0|0:0,0:0:0:0:
238,124,66030,2,0,P|255:163|254:198,1,53.9999983520508,8|0,0:0|0:0,0:0:0:0:
269,264,66237,6,0,L|257:318,1,53.9999983520508,2|0,0:0|0:0,0:0:0:0:
341,213,66444,2,0,L|357:155,1,53.9999983520508,0|0,0:0|0:0,0:0:0:0:
393,275,66651,2,0,P|425:282|452:275,1,53.9999983520508,0|0,0:0|0:0,0:0:0:0:
489,201,66857,6,0,L|484:128,1,53.9999983520508,10|0,0:0|0:0,0:0:0:0:
480,59,67064,2,0,L|475:-14,1,53.9999983520508,10|0,0:0|0:0,0:0:0:0:
276,28,67271,6,0,B|287:91|287:91|386:115,1,161.999995056153,2|0,0:0|0:0,0:0:0:0:
489,201,67685,2,0,B|478:138|478:138|379:114,1,161.999995056153,10|0,0:0|0:0,0:0:0:0:
308,182,68099,2,0,P|289:252|310:304,1,107.999996704102,2|0,0:0|0:0,0:0:0:0:
403,357,68513,2,0,P|422:287|401:235,1,107.999996704102,10|0,0:0|0:0,0:0:0:0:
262,310,68927,6,0,B|299:295|333:304|333:304|362:353|415:358,1,161.999995056153,2|0,0:0|0:0,0:0:0:0:
505,249,69340,2,0,B|463:267|429:258|429:258|400:209|348:202,1,161.999995056153,8|0,0:0|0:0,0:0:0:0:
272,257,69754,2,0,L|261:310,3,53.9999983520508,0|0|0|0,0:0|0:0|0:0|0:0,0:0:0:0:
292,167,70168,6,0,L|303:114,3,53.9999983520508,10|0|0|0,0:0|0:0|0:0|0:0,0:0:0:0:
202,199,70582,2,0,P|139:204|46:166,1,161.999995056153,8|0,0:0|0:0,0:0:0:0:
212,251,70995,6,0,L|201:198,3,53.9999983520508,8|0|0|0,0:0|0:0|0:0|0:0,0:0:0:0:
302,283,71409,2,0,P|365:288|458:250,1,161.999995056153,8|0,0:0|0:0,0:0:0:0:
291,335,71823,6,0,L|302:282,3,53.9999983520508,10|0|0|0,0:0|0:0|0:0|0:0,0:0:0:0:
204,368,72237,2,0,P|168:374|139:369,1,53.9999983520508,8|0,0:0|0:0,0:0:0:0:
32,305,72547,2,0,P|58:306|85:300,1,53.9999983520508,8|0,0:0|0:0,0:0:0:0:
206,232,72857,2,0,P|170:238|141:233,1,53.9999983520508,8|0,0:0|0:0,0:0:0:0:
29,166,73168,2,0,P|55:167|82:161,1,53.9999983520508,2|0,0:0|0:0,0:0:0:0:
154,133,73375,2,0,P|181:113|196:89,1,53.9999983520508,0|8,0:0|0:0,0:0:0:0:
29,166,73685,2,0,P|55:167|82:161,1,53.9999983520508,8|0,0:0|0:0,0:0:0:0:
154,133,73892,5,8,0:0:0:0:
189,131,73995,1,8,0:0:0:0:
225,129,74098,1,2,0:0:0:0:
261,127,74202,1,2,0:0:0:0:
311,145,74306,5,8,0:0:0:0:
363,142,74409,1,8,0:0:0:0:
417,138,74512,1,8,0:0:0:0:
471,136,74616,1,2,0:0:0:0:
374,239,75133,6,0,B|349:282|349:335|349:335|318:266|288:254,1,202.500007724762,8|0,0:0|0:0,0:0:0:0:
205,235,75547,1,2,0:0:0:0:
173,255,75650,1,0,0:0:0:0:
135,252,75753,1,0,0:0:0:0:
107,227,75857,1,0,0:0:0:0:
100,189,75960,1,8,0:0:0:0:
117,156,76064,1,0,0:0:0:0:
152,140,76167,1,0,0:0:0:0:
189,148,76271,1,0,0:0:0:0:
217,173,76375,6,0,L|347:165,1,107.999996704102,2|0,0:0|0:0,0:0:0:0:
349,164,76685,2,0,L|479:156,1,107.999996704102,2|0,0:0|0:0,0:0:0:0:
484,156,76996,1,2,0:0:0:0:
450,307,77202,5,2,0:0:0:0:
432,340,77305,1,0,0:0:0:0:
397,354,77408,1,0,0:0:0:0:
360,343,77512,1,0,0:0:0:0:
339,312,77615,1,8,0:0:0:0:
343,275,77719,1,0,0:0:0:0:
369,248,77822,1,0,0:0:0:0:
406,243,77926,1,0,0:0:0:0:
439,263,78030,6,0,L|494:160,1,107.999996704102,2|0,0:0|0:0,0:0:0:0:
433,67,78340,2,0,L|382:162,1,107.999996704102,2|0,0:0|0:0,0:0:0:0:
364,196,78651,1,2,0:0:0:0:
207,269,78857,5,2,0:0:0:0:
169,261,78961,1,0,0:0:0:0:
132,253,79064,1,0,0:0:0:0:
131,161,79271,5,2,0:0:0:0:
168,169,79374,1,0,0:0:0:0:
206,177,79478,1,2,0:0:0:0:
208,81,79684,1,8,0:0:0:0:
172,73,79787,1,0,0:0:0:0:
137,66,79890,1,0,0:0:0:0:
102,58,79994,1,0,0:0:0:0:
65,50,80098,6,0,L|87:165,1,107.999996704102,2|0,0:0|0:0,0:0:0:0:
228,187,80408,2,0,L|208:81,1,107.999996704102,2|0,0:0|0:0,0:0:0:0:
349,106,80719,1,2,0:0:0:0:
469,171,80926,5,2,0:0:0:0:
474,208,81029,1,2,0:0:0:0:
475,245,81133,1,8,0:0:0:0:
472,282,81236,1,8,0:0:0:0:
395,321,81339,5,2,0:0:0:0:
391,283,81442,1,2,0:0:0:0:
390,246,81546,1,8,0:0:0:0:
393,209,81649,1,8,0:0:0:0:
433,138,81753,5,2,0:0:0:0:
458,102,81857,1,0,0:0:0:0:
432,66,81960,1,2,0:0:0:0:
391,80,82063,1,0,0:0:0:0:
392,125,82167,1,10,0:0:0:0:
260,179,82581,5,4,0:1:0:0:
220,166,82718,1,8,0:0:0:0:
180,181,82856,1,8,0:0:0:0:
142,199,82994,5,4,0:1:0:0:
102,212,83131,1,8,0:0:0:0:
62,197,83269,1,8,0:0:0:0:
227,256,83408,5,8,0:0:0:0:
227,256,83822,5,4,0:1:0:0:
267,243,83959,1,8,0:0:0:0:
307,258,84097,1,8,0:0:0:0:
345,276,84235,5,4,0:1:0:0:
385,289,84374,1,8,0:0:0:0:
425,274,84512,1,8,0:0:0:0:
260,333,84649,5,0,0:0:0:0:
382,196,85063,5,4,0:1:0:0:
256,192,85166,12,0,89201,0:0:0:0:
